Phuttipong Promasakha Na Sakolnakorn | أنغامي - كل الموسيقى مجانا | Jamba Lakidi Pamba 2018

Скачать через торрент [VIDEO] Вспомнить Все Total Recall бесплатно русская версия torrent активатор

Статистика раздачи
Размер:  730 MB   |    Зарегистрирован:  6 лет 2 месяца   |    .torrent скачан:  59 раз   |   
Раздают:  1  
   
загрузка...
 
Автор Сообщение

Galfimbul

avatar Galfimbul


Вспомнить Все / Total Recall

Год выпуска: 1990

Страна: США
Жанр: фантастика, боевик, триллер, приключения
Продолжительность: 01:53:20
Перевод: Профессиональный (многоголосый, закадровый)
Русские субтитры: нет

Режиссер: Пол Верховен / Paul Verhoeven

В ролях: Арнольд Шварценеггер, Шэрон Стоун, Майкл Айронсайд, Лари Крюс, Рэйчел Тикотин, Ронни Кокс, Маршалл Белл, Мел Джонсон, Майкл Чэмпион, Рэй Бэкер, Алексиа Робинсон, Дин Норрис

Описание: Экранизация рассказа Филлипа К. Дика "Мы можем вспомнить все для вас оптом". Даг Куэйд (Шварценеггер) хочет испытать неизведанное и обращается в компанию, где при помощи сигналов, направляемых в мозг, получает чужую жизнь и воспоминание о ней. После сеанса все меняется в жизни этого простого работяги 2048 года. Он попадает на Марс, где участвуюет в опаснейших приключениях. Захватывает дух от бешеного темпа действия, и не остается времени думать о том, где реальность, а где иллюзия. Изощренные спец. визуальные эффекты, удостоенные "Оскара", придают футуристическим фантазиям Верхувена величие, несоизмеримое с банальностью жанра фильма-погони. Ну а Шварценеггер упрямо доказывает, что и в технотронный век мышцы и быстрая реакция что-то да значат.

Качество: BDRip
Формат: MP4
Видео кодек: XviD
Аудио кодек: AAC
Видео: XviD, 640x352, 16:9, 768 Kbps, 23.976 fps
Аудио: AAC, 128 Kbps, 48.0 KHz, 2 channels
  
GeneralComplete name : D:\!РИПЫ\Новая папка\Total Recall (1990).mp4Format : MPEG-4Format profile : Base Media / Version 2Codec ID : mp42File size : 730 MiBDuration : 1h 53mnOverall bit rate : 898 KbpsEncoded date : UTC 2012-02-20 06:26:37Tagged date : UTC 2012-02-20 06:26:37

VideoID : 201Format : MPEG-4 VisualFormat profile : Advanced [email protected] settings, BVOP : NoFormat settings, QPel : NoFormat settings, GMC : No warppointsFormat settings, Matrix : Default (H.263)Codec ID : 20Duration : 1h 53mnBit rate mode : VariableBit rate : 768 KbpsMaximum bit rate : 2 858 KbpsWidth : 640 pixelsHeight : 352 pixelsDisplay aspect ratio : 16:9Frame rate mode : VariableFrame rate : 23.946 fpsOriginal frame rate : 23.976 fpsMinimum frame rate : 0.272 fpsMaximum frame rate : 23.976 fpsColor space : YUVChroma subsampling : 4:2:0Bit depth : 8 bitsScan type : ProgressiveCompression mode : LossyBits/(Pixel*Frame) : 0.142Stream size : 624 MiB (85%)Title : Imported with GPAC 0.4.6-DEV (build 1)Writing library : XviD 1.2.1 (UTC 2008-12-04)Encoded date : UTC 2012-02-20 06:26:37Tagged date : UTC 2012-02-20 06:27:05

AudioID : 101Format : AACFormat/Info : Advanced Audio CodecFormat profile : LCCodec ID : 40Duration : 1h 53mnBit rate mode : VariableBit rate : 128 KbpsMaximum bit rate : 145 KbpsChannel(s) : 2 channelsChannel positions : Front: L RSampling rate : 48.0 KHzCompression mode : LossyStream size : 104 MiB (14%)Encoded date : UTC 2012-02-20 06:27:04Tagged date : UTC 2012-02-20 06:27:05Material_Duration : 6813888Material_StreamSize : 109025014



Трекер:  [ 07-Май-2012 15:26 ]

  

Скачать .torrent

Размер .torrent файла 14 KB


Размер: 730 MB
Хэш (hash) релиза: 431fe786e34ad47efa6afc48c77ba68ac97b414a

Еще никто не оставлял запись к записи скачать торрент [VIDEO] Вспомнить Все Total Recall . Будь первым!

!Обратная связь