BD Gangsta Subtitle Indonesia | Gomen ne Seishun | 17 Magic Tricks That You Can Do

Скачать через торрент [VIDEO] Траффик Traffic бесплатно русская версия torrent активатор

Статистика раздачи
Размер:  945 MB   |    Зарегистрирован:  6 лет 2 месяца   |    .torrent скачан:  33 раза   |   
Раздают:  1  
   
загрузка...
 
Автор Сообщение

Galfimbul

avatar Galfimbul


Траффик / Traffic

Год выпуска: 2000

Страна: США
Жанр: Tриллер, Драма, Криминал
Продолжительность: 02:27:03
Перевод: Профессиональный (полное дублирование)
Русские субтитры: нет

Режиссер: Стивен Содерберг / Steven Soderbergh

В ролях: Майкл Дуглас, Кэтрин Зета-Джонс, Денис Куэйд, Бенисио Дель Торо, Джейкоб Варгас, Эндрю Чавез, Майкл Сауседо, Томас Милиан, Хосе Йенке, Эмилио Ривера, Майкл О`Нейлл, Расселл Дж. Джонс

Описание: Верховный Судья Роберт Уэйкфилд получает лично от президента США задание возглавить массированную войну против торговцев наркотиками, как саранча ползущих через южную границу. Наркобароны и коррумпированные полицеские, частные детективы и безобидные на первый взгляд домохозяйки выстраиваются в запутанную схему, вид которой с высоты птичьего полета и демонстрирует нам режиссер Стивен Содерберг. В конце концов судья обнаруживает, что его собственная семнадцатилетняя дочь сидит на героине. Но карты уже сданы, распоряжения сделаны, и никто не отмоется
Качество: BDRip
Формат: MP4
Видео кодек: XviD
Аудио кодек: AAC
Видео: XviD, 640x360, 16:9, 768 Kbps, 23.976 fps
Аудио: AAC, 128 Kbps, 48.0 KHz, 2 channels
  
GeneralComplete name : D:\!РИПЫ\Новая папка\Traffic (2000).mp4Format : MPEG-4Format profile : Base Media / Version 2Codec ID : mp42File size : 945 MiBDuration : 2h 27mnOverall bit rate : 898 KbpsEncoded date : UTC 2012-02-19 21:36:50Tagged date : UTC 2012-02-19 21:36:50

VideoID : 201Format : MPEG-4 VisualFormat profile : Advanced [email protected] settings, BVOP : NoFormat settings, QPel : NoFormat settings, GMC : No warppointsFormat settings, Matrix : Default (H.263)Codec ID : 20Duration : 2h 27mnBit rate mode : VariableBit rate : 768 KbpsMaximum bit rate : 3 361 KbpsWidth : 640 pixelsHeight : 360 pixelsDisplay aspect ratio : 16:9Frame rate mode : VariableFrame rate : 23.915 fpsOriginal frame rate : 23.976 fpsMinimum frame rate : 0.285 fpsMaximum frame rate : 23.976 fpsColor space : YUVChroma subsampling : 4:2:0Bit depth : 8 bitsScan type : ProgressiveCompression mode : LossyBits/(Pixel*Frame) : 0.139Stream size : 808 MiB (85%)Title : Imported with GPAC 0.4.6-DEV (build 1)Writing library : XviD 1.2.1 (UTC 2008-12-04)Encoded date : UTC 2012-02-19 21:36:50Tagged date : UTC 2012-02-19 21:37:35

AudioID : 101Format : AACFormat/Info : Advanced Audio CodecFormat profile : LCCodec ID : 40Duration : 2h 27mnBit rate mode : VariableBit rate : 128 KbpsMaximum bit rate : 152 KbpsChannel(s) : 2 channelsChannel positions : Front: L RSampling rate : 48.0 KHzCompression mode : LossyStream size : 135 MiB (14%)Encoded date : UTC 2012-02-19 21:37:30Tagged date : UTC 2012-02-19 21:37:35



Трекер:  [ 07-Май-2012 15:26 ]

  

Скачать .torrent

Размер .torrent файла 19 KB


Размер: 945 MB
Хэш (hash) релиза: 442aebddabfe95db305eba092d3b4a2116f744ea

Еще никто не оставлял запись к записи скачать торрент [VIDEO] Траффик Traffic . Будь первым!

!Обратная связь