FLCL / Furi Kuri | Makai Ouji: Devils and Realist | Tarm Ruk Keun Jai

Скачать через торрент музыку Jimmy Cliff - The Best of бесплатно без регистрации torrent

Статистика раздачи
Размер:  414 MB   |    Зарегистрирован:  6 лет 5 месяцев   |    .torrent скачан:  35 раз   |   
Раздают:  1  
   
загрузка...
 
Автор Сообщение

Umakiro

avatar Umakiro


Jimmy Cliff - The Best of [1975 Island-Mango 842 773-2]

Жанр: Reggae - Ska
Страна-производитель диска: Jamaica
Год издания диска: 1975
Издатель (лейбл): Island-Mango 842 773-2
Страна: Jamaica
Аудио кодек: APE (*.ape)
Тип рипа: image+.cue
Битрейт аудио: lossless
Продолжительность: 01:15:31
Источник (релизер): hqshare by MidnightShadow
Наличие сканов в содержимом раздачи: да

Треклист:
1. Hard Road to Travel
2. Sooner or Later
3. Sufferin' in the Land
4. Keep Your Eyes on the Sparrow
5. Struggling Man
6. Wild World
7. Vietnam
8. Another Circle
9. Wonderful World, Beautiful People
10. The Harder They Come
11. Let Your Yeah Be Yeah
12. Synthetic World
13. I'm No Immigrant
14. Give and Take
15. Many Rivers to Cross
16. Going Back West
17. Sitting in Limbo
18. Come into My Life
19. You Can Get It If You Really Want
20. Goodbye Yesterday
 
Exact Audio Copy V1.0 beta 1 from 15. November 2010

EAC extraction logfile from 5. May 2011, 5:59

Jimmy Cliff / Best Of Jimmy Cliff

Used drive : PLEXTOR DVDR PX-810SA Adapter: 3 ID: 1

Read mode : SecureUtilize accurate stream : YesDefeat audio cache : YesMake use of C2 pointers : No

Read offset correction : 48Overread into Lead-In and Lead-Out : NoFill up missing offset samples with silence : YesDelete leading and trailing silent blocks : NoNull samples used in CRC calculations : YesUsed interface : Installed external ASPI interface

Used output format : Internal WAV RoutinesSample format : 44.100 Hz; 16 Bit; Stereo

TOC of the extracted CD

Track | Start | Length | Start sector | End sector --------------------------------------------------------- 1 | 0:00.00 | 2:39.25 | 0 | 11949 2 | 2:39.25 | 5:15.12 | 11950 | 35586 3 | 7:54.37 | 3:09.25 | 35587 | 49786 4 | 11:03.62 | 8:00.08 | 49787 | 85794 5 | 19:03.70 | 3:29.57 | 85795 | 101526 6 | 22:33.52 | 3:53.25 | 101527 | 119026 7 | 26:27.02 | 4:52.43 | 119027 | 140969 8 | 31:19.45 | 4:09.17 | 140970 | 159661 9 | 35:28.62 | 3:14.63 | 159662 | 174274 10 | 38:43.50 | 3:08.60 | 174275 | 188434 11 | 41:52.35 | 3:06.62 | 188435 | 202446 12 | 44:59.22 | 3:37.73 | 202447 | 218794 13 | 48:37.20 | 2:58.00 | 218795 | 232144 14 | 51:35.20 | 2:13.20 | 232145 | 242139 15 | 53:48.40 | 3:02.15 | 242140 | 255804 16 | 56:50.55 | 4:47.12 | 255805 | 277341 17 | 61:37.67 | 4:55.40 | 277342 | 299506 18 | 66:33.32 | 2:54.08 | 299507 | 312564 19 | 69:27.40 | 2:40.52 | 312565 | 324616 20 | 72:08.17 | 3:22.58 | 324617 | 339824

Range status and errors

Selected range

Filename K:\HQShare\Jimmy Cliff\Jimmy Cliff - Best Of Jimmy Cliff.wav

Peak level 99.4 % Extraction speed 0.3 X Range quality 99.9 % Copy CRC D8A72637 Copy OK

No errors occurred

End of status report
 
REM GENRE ReggaeREM DISCID 2411B314REM COMMENT "ExactAudioCopy v1.0b1"PERFORMER "Jimmy Cliff"TITLE "Best Of Jimmy Cliff"FILE "Jimmy Cliff - Best Of Jimmy Cliff.wav" WAVE TRACK 01 AUDIO TITLE "Hard Road To Travel" PERFORMER "Jimmy Cliff" INDEX 01 00:00:00 TRACK 02 AUDIO TITLE "Sooner Or Later" PERFORMER "Jimmy Cliff" INDEX 01 02:39:25 TRACK 03 AUDIO TITLE "Sufferin' In The Land" PERFORMER "Jimmy Cliff" INDEX 01 07:54:37 TRACK 04 AUDIO TITLE "Keep Your Eyes On The Sparrow" PERFORMER "Jimmy Cliff" INDEX 01 11:03:62 TRACK 05 AUDIO TITLE "Struggling Man" PERFORMER "Jimmy Cliff" INDEX 01 19:03:70 TRACK 06 AUDIO TITLE "Wild World" PERFORMER "Jimmy Cliff" INDEX 01 22:33:52 TRACK 07 AUDIO TITLE "Vietnam" PERFORMER "Jimmy Cliff" INDEX 01 26:27:02 TRACK 08 AUDIO TITLE "Another Cycle" PERFORMER "Jimmy Cliff" INDEX 01 31:19:45 TRACK 09 AUDIO TITLE "Wonderful World, Beautiful People" PERFORMER "Jimmy Cliff" INDEX 01 35:28:62 TRACK 10 AUDIO TITLE "The Harder They Come" PERFORMER "Jimmy Cliff" INDEX 01 38:43:50 TRACK 11 AUDIO TITLE "Let Your Yeah Be Yeah" PERFORMER "Jimmy Cliff" INDEX 01 41:52:35 TRACK 12 AUDIO TITLE "Synthetic World" PERFORMER "Jimmy Cliff" INDEX 01 44:59:22 TRACK 13 AUDIO TITLE "I'm No Immigrant" PERFORMER "Jimmy Cliff" INDEX 01 48:37:20 TRACK 14 AUDIO TITLE "Give And Take" PERFORMER "Jimmy Cliff" INDEX 01 51:35:20 TRACK 15 AUDIO TITLE "Many Rivers To Cross" PERFORMER "Jimmy Cliff" INDEX 01 53:48:40 TRACK 16 AUDIO TITLE "Going Back West" PERFORMER "Jimmy Cliff" INDEX 01 56:50:55 TRACK 17 AUDIO TITLE "Sitting In Limbo" PERFORMER "Jimmy Cliff" INDEX 01 61:37:67 TRACK 18 AUDIO TITLE "Come Into My Life" PERFORMER "Jimmy Cliff" INDEX 01 66:33:32 TRACK 19 AUDIO TITLE "You Can Get It If You Really Want" PERFORMER "Jimmy Cliff" INDEX 01 69:27:40 TRACK 20 AUDIO TITLE "Goodbye Yesterday" PERFORMER "Jimmy Cliff" INDEX 01 72:08:17
 
-----------------------

DON'T MODIFY THIS FILE

-----------------------

PERFORMER: auCDtect Task Manager, ver. 1.5.1RC4 build 1.5.1.5Copyright (c) 2008-2010 y-soft. All rights reservedhttp://y-soft.org

ANALYZER: auCDtect: CD records authenticity detector, version 0.8.2Copyright (c) 2004 Oleg Berngardt. All rights reserved.Copyright (c) 2004 Alexander Djourik. All rights reserved.

FILE: Jimmy Cliff - Best Of Jimmy Cliff.ape Size: 422442820 Hash: 699B05AE5172578997BECD8CBF0E124B Accuracy: -m0 Conclusion: CDDA 100% Signature: 84B0229186A726E91E6A5B52821D6341682E8808
Jimmy Cliff (настоящее имя James Chambers) род. 1 апреля 1948, Ямайка) — ямайский певец и композитор. Cыграл главную роль в фильме "The Harder They Come" (1972), где впервые прозвучала пронзительная баллада "Many Rivers to Cross", ставшая первым международным хитом стиля reggae и открывшая это музыкальное направление для миллионов слушателей во всём мире


Трекер:  [ 28-Янв-2012 15:48 ]

  

Скачать .torrent

Размер .torrent файла 17 KB


Размер: 414 MB
Хэш (hash) релиза: 4a9b0cbabcfe29d9572b6626572237539bbb1c44

Еще никто не оставлял запись к записи скачать торрент Jimmy Cliff - The Best of . Будь первым!

!Обратная связь