Le tre minestre | JusquÀ La Garde | DVDSeed | DSD | Movies | 2018 Review

Скачать через торрент музыку Madness - A Guided Tour of Madness бесплатно без регистрации torrent

Статистика раздачи
Размер:  1.63 GB   |    Зарегистрирован:  6 лет 5 месяцев   |    .torrent скачан:  38 раз   |   
Раздают:  1  
   
загрузка...
 
Автор Сообщение

Galfimbul

avatar Galfimbul


Madness - A Guided Tour of Madness [3CD]

Жанр: ska
Страна-производитель диска: UK
Год издания диска: 2011
Издатель (лейбл): Salvo Records
Номер по каталогу: SALVOBX408
Страна: UK
Аудиокодек: FLAC (*.flac)
Тип рипа: tracks+.cue
Битрейт аудио: lossless
Продолжительность: 03:52:30
Источник (релизер): Скачано с losslessalbums
Наличие сканов в содержимом раздачи: да
01. The Prince
02. Madness
03. Mistakes
04. Bed and Breakfast Man
05. One Step Beyond
06. The Young and The Old
07. Deceives the Eye
08. My Girl
09. Believe Me
10. In the Middle of the Night
11. Night Boat to Cairo
12. On the Beat Pete
13. Not Home Today
14. Baggy Trousers
15. Disappear
16. You Said
17. Embarrassment
18. Take it or Leave it
19. The Return of the Los Palmas 7
20. Grey Day
21. Tomorrow's Dream
22. Mrs. Hutchinson
23. Shut Up
24. Sign of the Times
25. It Must be Love
26. In the City
27. Cardiac Arrest

Total Time: 01:17:55
 
Exact Audio Copy V1.0 beta 3 from 29. August 2011

EAC extraction logfile from 20. October 2011, 23:22

Madness / A Guided Tour of Madness

Used drive : HL-DT-STDVDRAM GH22NS50 Adapter: 0 ID: 1

Read mode : SecureUtilize accurate stream : YesDefeat audio cache : YesMake use of C2 pointers : No

Read offset correction : 667Overread into Lead-In and Lead-Out : NoFill up missing offset samples with silence : YesDelete leading and trailing silent blocks : NoNull samples used in CRC calculations : YesUsed interface : Native Win32 interface for Win NT & 2000Gap handling : Appended to previous track

Used output format : User Defined EncoderSelected bitrate : 768 kBit/sQuality : HighAdd ID3 tag : NoCommand line compressor : C:\Program Files\Exact Audio Copy\FLAC\FLAC.EXEAdditional command line options : -8 -V -T "ARTIST=%artist%" -T "TITLE=%title%" -T "ALBUM=%albumtitle%" -T "DATE=%year%" -T "TRACKNUMBER=%tracknr%" -T "TOTALTRACKS=%numtracks%" -T "GENRE=%genre%" -T "ALBUMARTIST=%albumartist%" -T "ALBUM ARTIST=%albumartist%" -T "COMMENT=EAC Secure Mode, Test & Copy, AccurateRip, FLAC -8" %source%

TOC of the extracted CD

Track | Start | Length | Start sector | End sector --------------------------------------------------------- 1 | 0:00.00 | 2:30.25 | 0 | 11274 2 | 2:30.25 | 2:23.56 | 11275 | 22055 3 | 4:54.06 | 2:54.28 | 22056 | 35133 4 | 7:48.34 | 2:33.35 | 35134 | 46643 5 | 10:21.69 | 2:18.16 | 46644 | 57009 6 | 12:40.10 | 2:05.63 | 57010 | 66447 7 | 14:45.73 | 2:00.27 | 66448 | 75474 8 | 16:46.25 | 2:44.70 | 75475 | 87844 9 | 19:31.20 | 2:29.17 | 87845 | 99036 10 | 22:00.37 | 3:02.35 | 99037 | 112721 11 | 25:02.72 | 3:31.10 | 112722 | 128556 12 | 28:34.07 | 3:04.42 | 128557 | 142398 13 | 31:38.49 | 2:43.48 | 142399 | 154671 14 | 34:22.22 | 2:47.01 | 154672 | 167197 15 | 37:09.23 | 2:58.18 | 167198 | 180565 16 | 40:07.41 | 2:34.65 | 180566 | 192180 17 | 42:42.31 | 3:11.58 | 192181 | 206563 18 | 45:54.14 | 3:28.22 | 206564 | 222185 19 | 49:22.36 | 2:33.62 | 222186 | 233722 20 | 51:56.23 | 3:39.15 | 233723 | 250162 21 | 55:35.38 | 3:54.35 | 250163 | 267747 22 | 59:29.73 | 2:17.30 | 267748 | 278052 23 | 61:47.28 | 4:06.13 | 278053 | 296515 24 | 65:53.41 | 2:42.36 | 296516 | 308701 25 | 68:36.02 | 3:20.44 | 308702 | 323745 26 | 71:56.46 | 2:59.51 | 323746 | 337221 27 | 74:56.22 | 2:52.53 | 337222 | 350174

Track 1

Filename C:\MUSIC\FLAC\Madness - A Guided Tour of Madness (2011) [FLAC]\CD1\01 - The Prince.wav

Pre-gap length 0:00:02.00

Peak level 97.7 % Extraction speed 1.0 X Track quality 100.0 % Test CRC 86CDF20F Copy CRC 86CDF20F Track not present in AccurateRip database Copy OK

Track 2

Filename C:\MUSIC\FLAC\Madness - A Guided Tour of Madness (2011) [FLAC]\CD1\02 - Madness.wav

Peak level 97.7 % Extraction speed 0.9 X Track quality 99.9 % Test CRC E4B1864C Copy CRC E4B1864C Track not present in AccurateRip database Copy OK

Track 3

Filename C:\MUSIC\FLAC\Madness - A Guided Tour of Madness (2011) [FLAC]\CD1\03 - Mistakes.wav

Peak level 97.7 % Extraction speed 1.2 X Track quality 100.0 % Test CRC 0119CF16 Copy CRC 0119CF16 Track not present in AccurateRip database Copy OK

Track 4

Filename C:\MUSIC\FLAC\Madness - A Guided Tour of Madness (2011) [FLAC]\CD1\04 - Bed and Breakfast Man.wav

Peak level 97.7 % Extraction speed 1.3 X Track quality 100.0 % Test CRC 65CF8047 Copy CRC 65CF8047 Track not present in AccurateRip database Copy OK

Track 5

Filename C:\MUSIC\FLAC\Madness - A Guided Tour of Madness (2011) [FLAC]\CD1\05 - One Step Beyond.wav

Peak level 97.7 % Extraction speed 1.3 X Track quality 100.0 % Test CRC C0F89A17 Copy CRC C0F89A17 Track not present in AccurateRip database Copy OK

Track 6

Filename C:\MUSIC\FLAC\Madness - A Guided Tour of Madness (2011) [FLAC]\CD1\06 - The Young and The Old.wav

Peak level 97.7 % Extraction speed 1.0 X Track quality 99.9 % Test CRC 875F4A58 Copy CRC 875F4A58 Track not present in AccurateRip database Copy OK

Track 7

Filename C:\MUSIC\FLAC\Madness - A Guided Tour of Madness (2011) [FLAC]\CD1\07 - Deceives the Eye.wav

Peak level 97.7 % Extraction speed 1.3 X Track quality 100.0 % Test CRC D13773F4 Copy CRC D13773F4 Track not present in AccurateRip database Copy OK

Track 8

Filename C:\MUSIC\FLAC\Madness - A Guided Tour of Madness (2011) [FLAC]\CD1\08 - My Girl.wav

Peak level 97.7 % Extraction speed 1.4 X Track quality 100.0 % Test CRC 83F44C14 Copy CRC 83F44C14 Track not present in AccurateRip database Copy OK

Track 9

Filename C:\MUSIC\FLAC\Madness - A Guided Tour of Madness (2011) [FLAC]\CD1\09 - Believe Me.wav

Peak level 97.7 % Extraction speed 1.5 X Track quality 100.0 % Test CRC 14EFA4DB Copy CRC 14EFA4DB Track not present in AccurateRip database Copy OK

Track 10

Filename C:\MUSIC\FLAC\Madness - A Guided Tour of Madness (2011) [FLAC]\CD1\10 - In the Middle of the Night.wav

Peak level 97.7 % Extraction speed 1.6 X Track quality 100.0 % Test CRC 94B131EA Copy CRC 94B131EA Track not present in AccurateRip database Copy OK

Track 11

Filename C:\MUSIC\FLAC\Madness - A Guided Tour of Madness (2011) [FLAC]\CD1\11 - Night Boat to Cairo.wav

Peak level 97.7 % Extraction speed 1.5 X Track quality 99.9 % Test CRC 97B7CBF7 Copy CRC 97B7CBF7 Track not present in AccurateRip database Copy OK

Track 12

Filename C:\MUSIC\FLAC\Madness - A Guided Tour of Madness (2011) [FLAC]\CD1\12 - On the Beat Pete.wav

Peak level 97.7 % Extraction speed 1.5 X Track quality 99.9 % Test CRC F0951C16 Copy CRC F0951C16 Track not present in AccurateRip database Copy OK

Track 13

Filename C:\MUSIC\FLAC\Madness - A Guided Tour of Madness (2011) [FLAC]\CD1\13 - Not Home Today.wav

Peak level 97.7 % Extraction speed 1.5 X Track quality 99.9 % Test CRC 291FDFDA Copy CRC 291FDFDA Track not present in AccurateRip database Copy OK

Track 14

Filename C:\MUSIC\FLAC\Madness - A Guided Tour of Madness (2011) [FLAC]\CD1\14 - Baggy Trousers.wav

Peak level 97.7 % Extraction speed 1.8 X Track quality 100.0 % Test CRC 45D80B8F Copy CRC 45D80B8F Track not present in AccurateRip database Copy OK

Track 15

Filename C:\MUSIC\FLAC\Madness - A Guided Tour of Madness (2011) [FLAC]\CD1\15 - Disappear.wav

Peak level 97.7 % Extraction speed 1.9 X Track quality 100.0 % Test CRC 7AB21897 Copy CRC 7AB21897 Track not present in AccurateRip database Copy OK

Track 16

Filename C:\MUSIC\FLAC\Madness - A Guided Tour of Madness (2011) [FLAC]\CD1\16 - You Said.wav

Peak level 97.7 % Extraction speed 1.9 X Track quality 100.0 % Test CRC B0C16055 Copy CRC B0C16055 Track not present in AccurateRip database Copy OK

Track 17

Filename C:\MUSIC\FLAC\Madness - A Guided Tour of Madness (2011) [FLAC]\CD1\17 - Embarrassment.wav

Peak level 97.7 % Extraction speed 2.0 X Track quality 100.0 % Test CRC 2A5F35AB Copy CRC 2A5F35AB Track not present in AccurateRip database Copy OK

Track 18

Filename C:\MUSIC\FLAC\Madness - A Guided Tour of Madness (2011) [FLAC]\CD1\18 - Take it or Leave it.wav

Peak level 97.7 % Extraction speed 2.1 X Track quality 100.0 % Test CRC 7DF402FD Copy CRC 7DF402FD Track not present in AccurateRip database Copy OK

Track 19

Filename C:\MUSIC\FLAC\Madness - A Guided Tour of Madness (2011) [FLAC]\CD1\19 - The Return of the Los Palmas 7.wav

Peak level 97.7 % Extraction speed 2.0 X Track quality 100.0 % Test CRC F7091035 Copy CRC F7091035 Track not present in AccurateRip database Copy OK

Track 20

Filename C:\MUSIC\FLAC\Madness - A Guided Tour of Madness (2011) [FLAC]\CD1\20 - Grey Day.wav

Peak level 97.7 % Extraction speed 2.2 X Track quality 100.0 % Test CRC 1E5BE3EC Copy CRC 1E5BE3EC Track not present in AccurateRip database Copy OK

Track 21

Filename C:\MUSIC\FLAC\Madness - A Guided Tour of Madness (2011) [FLAC]\CD1\21 - Tomorrow's Dream.wav

Peak level 97.7 % Extraction speed 2.3 X Track quality 100.0 % Test CRC A845FAEF Copy CRC A845FAEF Track not present in AccurateRip database Copy OK

Track 22

Filename C:\MUSIC\FLAC\Madness - A Guided Tour of Madness (2011) [FLAC]\CD1\22 - Mrs. Hutchinson.wav

Peak level 97.7 % Extraction speed 2.0 X Track quality 100.0 % Test CRC 30D63A1E Copy CRC 30D63A1E Track not present in AccurateRip database Copy OK

Track 23

Filename C:\MUSIC\FLAC\Madness - A Guided Tour of Madness (2011) [FLAC]\CD1\23 - Shut Up.wav

Peak level 97.7 % Extraction speed 2.3 X Track quality 100.0 % Test CRC 4B3E3795 Copy CRC 4B3E3795 Track not present in AccurateRip database Copy OK

Track 24

Filename C:\MUSIC\FLAC\Madness - A Guided Tour of Madness (2011) [FLAC]\CD1\24 - Sign of the Times.wav

Peak level 97.7 % Extraction speed 2.3 X Track quality 100.0 % Test CRC 01A8A09B Copy CRC 01A8A09B Track not present in AccurateRip database Copy OK

Track 25

Filename C:\MUSIC\FLAC\Madness - A Guided Tour of Madness (2011) [FLAC]\CD1\25 - It Must be Love.wav

Peak level 99.4 % Extraction speed 2.4 X Track quality 100.0 % Test CRC 4F9AEC05 Copy CRC 4F9AEC05 Track not present in AccurateRip database Copy OK

Track 26

Filename C:\MUSIC\FLAC\Madness - A Guided Tour of Madness (2011) [FLAC]\CD1\26 - In the City.wav

Peak level 97.7 % Extraction speed 2.4 X Track quality 100.0 % Test CRC 493CF8AE Copy CRC 493CF8AE Track not present in AccurateRip database Copy OK

Track 27

Filename C:\MUSIC\FLAC\Madness - A Guided Tour of Madness (2011) [FLAC]\CD1\27 - Cardiac Arrest.wav

Peak level 99.4 % Extraction speed 2.5 X Track quality 100.0 % Test CRC 7FECA40A Copy CRC 7FECA40A Track not present in AccurateRip database Copy OK

None of the tracks are present in the AccurateRip database

No errors occurred

End of status report

---- CUETools DB Plugin V2.1.3

[CTDB TOCID: 9yFP9ITWqnJZsAQ9V5cHwskb_XA-] disk not present in database, Submit result: 9yFP9ITWqnJZsAQ9V5cHwskb_XA- has been uploaded

==== Log checksum 9D77D98E6D1A3356FE580E8E8443C2C6CD6884E80B3DA1486B8A5867D8F80310 ====
 
REM GENRE PopREM DATE 2011REM DISCID 82123D1BREM COMMENT "ExactAudioCopy v1.0b3"PERFORMER "Madness"TITLE "A Guided Tour of Madness"FILE "01 - The Prince.wav" WAVE TRACK 01 AUDIO TITLE "The Prince" PERFORMER "Madness" INDEX 01 00:00:00FILE "02 - Madness.wav" WAVE TRACK 02 AUDIO TITLE "Madness" PERFORMER "Madness" INDEX 01 00:00:00FILE "03 - Mistakes.wav" WAVE TRACK 03 AUDIO TITLE "Mistakes" PERFORMER "Madness" INDEX 01 00:00:00FILE "04 - Bed and Breakfast Man.wav" WAVE TRACK 04 AUDIO TITLE "Bed and Breakfast Man" PERFORMER "Madness" INDEX 01 00:00:00FILE "05 - One Step Beyond.wav" WAVE TRACK 05 AUDIO TITLE "One Step Beyond" PERFORMER "Madness" INDEX 01 00:00:00FILE "06 - The Young and The Old.wav" WAVE TRACK 06 AUDIO TITLE "The Young and The Old" PERFORMER "Madness" INDEX 01 00:00:00FILE "07 - Deceives the Eye.wav" WAVE TRACK 07 AUDIO TITLE "Deceives the Eye" PERFORMER "Madness" INDEX 01 00:00:00FILE "08 - My Girl.wav" WAVE TRACK 08 AUDIO TITLE "My Girl" PERFORMER "Madness" INDEX 01 00:00:00FILE "09 - Believe Me.wav" WAVE TRACK 09 AUDIO TITLE "Believe Me" PERFORMER "Madness" INDEX 01 00:00:00FILE "10 - In the Middle of the Night.wav" WAVE TRACK 10 AUDIO TITLE "In the Middle of the Night" PERFORMER "Madness" INDEX 01 00:00:00FILE "11 - Night Boat to Cairo.wav" WAVE TRACK 11 AUDIO TITLE "Night Boat to Cairo" PERFORMER "Madness" INDEX 01 00:00:00FILE "12 - On the Beat Pete.wav" WAVE TRACK 12 AUDIO TITLE "On the Beat Pete" PERFORMER "Madness" INDEX 01 00:00:00FILE "13 - Not Home Today.wav" WAVE TRACK 13 AUDIO TITLE "Not Home Today" PERFORMER "Madness" INDEX 01 00:00:00FILE "14 - Baggy Trousers.wav" WAVE TRACK 14 AUDIO TITLE "Baggy Trousers" PERFORMER "Madness" INDEX 01 00:00:00FILE "15 - Disappear.wav" WAVE TRACK 15 AUDIO TITLE "Disappear" PERFORMER "Madness" INDEX 01 00:00:00FILE "16 - You Said.wav" WAVE TRACK 16 AUDIO TITLE "You Said" PERFORMER "Madness" INDEX 01 00:00:00FILE "17 - Embarrassment.wav" WAVE TRACK 17 AUDIO TITLE "Embarrassment" PERFORMER "Madness" INDEX 01 00:00:00FILE "18 - Take it or Leave it.wav" WAVE TRACK 18 AUDIO TITLE "Take it or Leave it" PERFORMER "Madness" INDEX 01 00:00:00FILE "19 - The Return of the Los Palmas 7.wav" WAVE TRACK 19 AUDIO TITLE "The Return of the Los Palmas 7" PERFORMER "Madness" INDEX 01 00:00:00FILE "20 - Grey Day.wav" WAVE TRACK 20 AUDIO TITLE "Grey Day" PERFORMER "Madness" INDEX 01 00:00:00FILE "21 - Tomorrow's Dream.wav" WAVE TRACK 21 AUDIO TITLE "Tomorrow's Dream" PERFORMER "Madness" INDEX 01 00:00:00FILE "22 - Mrs. Hutchinson.wav" WAVE TRACK 22 AUDIO TITLE "Mrs. Hutchinson" PERFORMER "Madness" INDEX 01 00:00:00FILE "23 - Shut Up.wav" WAVE TRACK 23 AUDIO TITLE "Shut Up" PERFORMER "Madness" INDEX 01 00:00:00FILE "24 - Sign of the Times.wav" WAVE TRACK 24 AUDIO TITLE "Sign of the Times" PERFORMER "Madness" INDEX 01 00:00:00FILE "25 - It Must be Love.wav" WAVE TRACK 25 AUDIO TITLE "It Must be Love" PERFORMER "Madness" INDEX 01 00:00:00FILE "26 - In the City.wav" WAVE TRACK 26 AUDIO TITLE "In the City" PERFORMER "Madness" INDEX 01 00:00:00FILE "27 - Cardiac Arrest.wav" WAVE TRACK 27 AUDIO TITLE "Cardiac Arrest" PERFORMER "Madness" INDEX 01 00:00:00
01. House of Fun
02. Don't Look Back
03. Primrose Hill
04. Driving In My Car
05. Calling Cards
06. Blue Skinned Beast
07. Our House
08. Madness (Is All in the Mind)
09. Tomorrow's (Just Another Day)
10. Wings of a Dove
11. March of the Gherkins
12. Keep Moving
13. The Sun and The Rain
14. Samantha
15. Prospects
16. One Better Day
17. Michael Caine
18. Victoria Gardens
19. Yesterday's Men
20. All I Knew
21. I'll Compete
22. Uncle Sam

Total Time: 01:16:38
 
Exact Audio Copy V1.0 beta 3 from 29. August 2011

EAC extraction logfile from 21. October 2011, 8:12

Madness / A Guided Tour of Madness

Used drive : HL-DT-STDVDRAM GH22NS50 Adapter: 0 ID: 1

Read mode : SecureUtilize accurate stream : YesDefeat audio cache : YesMake use of C2 pointers : No

Read offset correction : 667Overread into Lead-In and Lead-Out : NoFill up missing offset samples with silence : YesDelete leading and trailing silent blocks : NoNull samples used in CRC calculations : YesUsed interface : Native Win32 interface for Win NT & 2000Gap handling : Appended to previous track

Used output format : User Defined EncoderSelected bitrate : 768 kBit/sQuality : HighAdd ID3 tag : NoCommand line compressor : C:\Program Files\Exact Audio Copy\FLAC\FLAC.EXEAdditional command line options : -8 -V -T "ARTIST=%artist%" -T "TITLE=%title%" -T "ALBUM=%albumtitle%" -T "DATE=%year%" -T "TRACKNUMBER=%tracknr%" -T "TOTALTRACKS=%numtracks%" -T "GENRE=%genre%" -T "ALBUMARTIST=%albumartist%" -T "ALBUM ARTIST=%albumartist%" -T "COMMENT=EAC Secure Mode, Test & Copy, AccurateRip, FLAC -8" %source%

TOC of the extracted CD

Track | Start | Length | Start sector | End sector --------------------------------------------------------- 1 | 0:00.00 | 2:57.68 | 0 | 13342 2 | 2:57.68 | 3:33.46 | 13343 | 29363 3 | 6:31.39 | 3:36.24 | 29364 | 45587 4 | 10:07.63 | 3:18.44 | 45588 | 60481 5 | 13:26.32 | 2:20.02 | 60482 | 70983 6 | 15:46.34 | 3:23.17 | 70984 | 86225 7 | 19:09.51 | 3:22.74 | 86226 | 101449 8 | 22:32.50 | 2:52.32 | 101450 | 114381 9 | 25:25.07 | 3:11.11 | 114382 | 128717 10 | 28:36.18 | 2:59.13 | 128718 | 142155 11 | 31:35.31 | 3:29.64 | 142156 | 157894 12 | 35:05.20 | 3:32.20 | 157895 | 173814 13 | 38:37.40 | 3:28.09 | 173815 | 189423 14 | 42:05.49 | 3:14.26 | 189424 | 203999 15 | 45:20.00 | 4:13.38 | 204000 | 223012 16 | 49:33.38 | 4:06.48 | 223013 | 241510 17 | 53:40.11 | 3:39.63 | 241511 | 257998 18 | 57:19.74 | 3:51.19 | 257999 | 275342 19 | 61:11.18 | 4:36.48 | 275343 | 296090 20 | 65:47.66 | 3:08.40 | 296091 | 310230 21 | 68:56.31 | 3:21.06 | 310231 | 325311 22 | 72:17.37 | 4:16.30 | 325312 | 344541

Track 1

Filename C:\MUSIC\FLAC\Madness - A Guided Tour of Madness (2011) [FLAC]\CD2\01 - House of Fun.wav

Pre-gap length 0:00:02.00

Peak level 97.7 % Extraction speed 1.0 X Track quality 100.0 % Test CRC 1612D989 Copy CRC 1612D989 Track not present in AccurateRip database Copy OK

Track 2

Filename C:\MUSIC\FLAC\Madness - A Guided Tour of Madness (2011) [FLAC]\CD2\02 - Don't Look Back.wav

Peak level 97.7 % Extraction speed 1.2 X Track quality 100.0 % Test CRC CD7D9E6C Copy CRC CD7D9E6C Track not present in AccurateRip database Copy OK

Track 3

Filename C:\MUSIC\FLAC\Madness - A Guided Tour of Madness (2011) [FLAC]\CD2\03 - Primrose Hill.wav

Peak level 97.7 % Extraction speed 1.3 X Track quality 100.0 % Test CRC 54D1212A Copy CRC 54D1212A Track not present in AccurateRip database Copy OK

Track 4

Filename C:\MUSIC\FLAC\Madness - A Guided Tour of Madness (2011) [FLAC]\CD2\04 - Driving In My Car.wav

Peak level 95.3 % Extraction speed 1.4 X Track quality 100.0 % Test CRC 7D3671CF Copy CRC 7D3671CF Track not present in AccurateRip database Copy OK

Track 5

Filename C:\MUSIC\FLAC\Madness - A Guided Tour of Madness (2011) [FLAC]\CD2\05 - Calling Cards.wav

Peak level 97.7 % Extraction speed 1.3 X Track quality 100.0 % Test CRC C94DF382 Copy CRC C94DF382 Track not present in AccurateRip database Copy OK

Track 6

Filename C:\MUSIC\FLAC\Madness - A Guided Tour of Madness (2011) [FLAC]\CD2\06 - Blue Skinned Beast.wav

Peak level 97.7 % Extraction speed 1.5 X Track quality 100.0 % Test CRC 97E28B72 Copy CRC 97E28B72 Track not present in AccurateRip database Copy OK

Track 7

Filename C:\MUSIC\FLAC\Madness - A Guided Tour of Madness (2011) [FLAC]\CD2\07 - Our House.wav

Peak level 97.7 % Extraction speed 1.6 X Track quality 100.0 % Test CRC 20C25C78 Copy CRC 20C25C78 Track not present in AccurateRip database Copy OK

Track 8

Filename C:\MUSIC\FLAC\Madness - A Guided Tour of Madness (2011) [FLAC]\CD2\08 - Madness (Is All in the Mind).wav

Peak level 97.7 % Extraction speed 1.6 X Track quality 100.0 % Test CRC DFB3E76A Copy CRC DFB3E76A Track not present in AccurateRip database Copy OK

Track 9

Filename C:\MUSIC\FLAC\Madness - A Guided Tour of Madness (2011) [FLAC]\CD2\09 - Tomorrow's (Just Another Day).wav

Peak level 97.7 % Extraction speed 1.6 X Track quality 100.0 % Test CRC 41459CC9 Copy CRC 41459CC9 Track not present in AccurateRip database Copy OK

Track 10

Filename C:\MUSIC\FLAC\Madness - A Guided Tour of Madness (2011) [FLAC]\CD2\10 - Wings of a Dove.wav

Peak level 97.7 % Extraction speed 1.6 X Track quality 100.0 % Test CRC E2B7391F Copy CRC E2B7391F Track not present in AccurateRip database Copy OK

Track 11

Filename C:\MUSIC\FLAC\Madness - A Guided Tour of Madness (2011) [FLAC]\CD2\11 - March of the Gherkins.wav

Peak level 97.7 % Extraction speed 1.8 X Track quality 100.0 % Test CRC 7EE0DB33 Copy CRC 7EE0DB33 Track not present in AccurateRip database Copy OK

Track 12

Filename C:\MUSIC\FLAC\Madness - A Guided Tour of Madness (2011) [FLAC]\CD2\12 - Keep Moving.wav

Peak level 97.7 % Extraction speed 1.9 X Track quality 100.0 % Test CRC 01B1A371 Copy CRC 01B1A371 Track not present in AccurateRip database Copy OK

Track 13

Filename C:\MUSIC\FLAC\Madness - A Guided Tour of Madness (2011) [FLAC]\CD2\13 - The Sun and The Rain.wav

Peak level 97.7 % Extraction speed 1.6 X Track quality 99.9 % Test CRC B467D759 Copy CRC B467D759 Track not present in AccurateRip database Copy OK

Track 14

Filename C:\MUSIC\FLAC\Madness - A Guided Tour of Madness (2011) [FLAC]\CD2\14 - Samantha.wav

Peak level 97.7 % Extraction speed 1.9 X Track quality 100.0 % Test CRC D68FC93B Copy CRC D68FC93B Track not present in AccurateRip database Copy OK

Track 15

Filename C:\MUSIC\FLAC\Madness - A Guided Tour of Madness (2011) [FLAC]\CD2\15 - Prospects.wav

Peak level 97.7 % Extraction speed 2.0 X Track quality 100.0 % Test CRC 3F2CAB77 Copy CRC 3F2CAB77 Track not present in AccurateRip database Copy OK

Track 16

Filename C:\MUSIC\FLAC\Madness - A Guided Tour of Madness (2011) [FLAC]\CD2\16 - One Better Day.wav

Peak level 97.7 % Extraction speed 1.8 X Track quality 99.9 % Test CRC CE8AE4B6 Copy CRC CE8AE4B6 Track not present in AccurateRip database Copy OK

Track 17

Filename C:\MUSIC\FLAC\Madness - A Guided Tour of Madness (2011) [FLAC]\CD2\17 - Michael Caine.wav

Peak level 97.7 % Extraction speed 2.1 X Track quality 100.0 % Test CRC 0B7C73F1 Copy CRC 0B7C73F1 Track not present in AccurateRip database Copy OK

Track 18

Filename C:\MUSIC\FLAC\Madness - A Guided Tour of Madness (2011) [FLAC]\CD2\18 - Victoria Gardens.wav

Peak level 97.7 % Extraction speed 2.2 X Track quality 100.0 % Test CRC A868CB7A Copy CRC A868CB7A Track not present in AccurateRip database Copy OK

Track 19

Filename C:\MUSIC\FLAC\Madness - A Guided Tour of Madness (2011) [FLAC]\CD2\19 - Yesterday's Men.wav

Peak level 97.7 % Extraction speed 2.3 X Track quality 100.0 % Test CRC 26A7FC12 Copy CRC 26A7FC12 Track not present in AccurateRip database Copy OK

Track 20

Filename C:\MUSIC\FLAC\Madness - A Guided Tour of Madness (2011) [FLAC]\CD2\20 - All I Knew.wav

Peak level 97.7 % Extraction speed 1.9 X Track quality 99.9 % Test CRC 63B39359 Copy CRC 63B39359 Track not present in AccurateRip database Copy OK

Track 21

Filename C:\MUSIC\FLAC\Madness - A Guided Tour of Madness (2011) [FLAC]\CD2\21 - I'll Compete.wav

Peak level 97.7 % Extraction speed 2.3 X Track quality 100.0 % Test CRC 64ACFBC3 Copy CRC 64ACFBC3 Track not present in AccurateRip database Copy OK

Track 22

Filename C:\MUSIC\FLAC\Madness - A Guided Tour of Madness (2011) [FLAC]\CD2\22 - Uncle Sam.wav

Peak level 97.7 % Extraction speed 2.5 X Track quality 100.0 % Test CRC D21801DD Copy CRC D21801DD Track not present in AccurateRip database Copy OK

None of the tracks are present in the AccurateRip database

No errors occurred

End of status report

---- CUETools DB Plugin V2.1.3

[CTDB TOCID: 8BmGxgGj5MC2JVsk05.UQ2NPbLE-] disk not present in database, Submit result: 8BmGxgGj5MC2JVsk05.UQ2NPbLE- has been uploaded

==== Log checksum C4E806CE2032F8D81E34BDE42C4279D3D5B53D6DA69D1457965A3413BF737A67 ====
 
REM GENRE PopREM DATE 2011REM DISCID 5611F116REM COMMENT "ExactAudioCopy v1.0b3"PERFORMER "Madness"TITLE "A Guided Tour of Madness"FILE "01 - House of Fun.wav" WAVE TRACK 01 AUDIO TITLE "House of Fun" PERFORMER "Madness" INDEX 01 00:00:00FILE "02 - Don't Look Back.wav" WAVE TRACK 02 AUDIO TITLE "Don't Look Back" PERFORMER "Madness" INDEX 01 00:00:00FILE "03 - Primrose Hill.wav" WAVE TRACK 03 AUDIO TITLE "Primrose Hill" PERFORMER "Madness" INDEX 01 00:00:00FILE "04 - Driving In My Car.wav" WAVE TRACK 04 AUDIO TITLE "Driving In My Car" PERFORMER "Madness" INDEX 01 00:00:00FILE "05 - Calling Cards.wav" WAVE TRACK 05 AUDIO TITLE "Calling Cards" PERFORMER "Madness" INDEX 01 00:00:00FILE "06 - Blue Skinned Beast.wav" WAVE TRACK 06 AUDIO TITLE "Blue Skinned Beast" PERFORMER "Madness" INDEX 01 00:00:00FILE "07 - Our House.wav" WAVE TRACK 07 AUDIO TITLE "Our House" PERFORMER "Madness" INDEX 01 00:00:00FILE "08 - Madness (Is All in the Mind).wav" WAVE TRACK 08 AUDIO TITLE "Madness (Is All in the Mind)" PERFORMER "Madness" INDEX 01 00:00:00FILE "09 - Tomorrow's (Just Another Day).wav" WAVE TRACK 09 AUDIO TITLE "Tomorrow's (Just Another Day)" PERFORMER "Madness" INDEX 01 00:00:00FILE "10 - Wings of a Dove.wav" WAVE TRACK 10 AUDIO TITLE "Wings of a Dove" PERFORMER "Madness" INDEX 01 00:00:00FILE "11 - March of the Gherkins.wav" WAVE TRACK 11 AUDIO TITLE "March of the Gherkins" PERFORMER "Madness" INDEX 01 00:00:00FILE "12 - Keep Moving.wav" WAVE TRACK 12 AUDIO TITLE "Keep Moving" PERFORMER "Madness" INDEX 01 00:00:00FILE "13 - The Sun and The Rain.wav" WAVE TRACK 13 AUDIO TITLE "The Sun and The Rain" PERFORMER "Madness" INDEX 01 00:00:00FILE "14 - Samantha.wav" WAVE TRACK 14 AUDIO TITLE "Samantha" PERFORMER "Madness" INDEX 01 00:00:00FILE "15 - Prospects.wav" WAVE TRACK 15 AUDIO TITLE "Prospects" PERFORMER "Madness" INDEX 01 00:00:00FILE "16 - One Better Day.wav" WAVE TRACK 16 AUDIO TITLE "One Better Day" PERFORMER "Madness" INDEX 01 00:00:00FILE "17 - Michael Caine.wav" WAVE TRACK 17 AUDIO TITLE "Michael Caine" PERFORMER "Madness" INDEX 01 00:00:00FILE "18 - Victoria Gardens.wav" WAVE TRACK 18 AUDIO TITLE "Victoria Gardens" PERFORMER "Madness" INDEX 01 00:00:00FILE "19 - Yesterday's Men.wav" WAVE TRACK 19 AUDIO TITLE "Yesterday's Men" PERFORMER "Madness" INDEX 01 00:00:00FILE "20 - All I Knew.wav" WAVE TRACK 20 AUDIO TITLE "All I Knew" PERFORMER "Madness" INDEX 01 00:00:00FILE "21 - I'll Compete.wav" WAVE TRACK 21 AUDIO TITLE "I'll Compete" PERFORMER "Madness" INDEX 01 00:00:00FILE "22 - Uncle Sam.wav" WAVE TRACK 22 AUDIO TITLE "Uncle Sam" PERFORMER "Madness" INDEX 01 00:00:00
01. Waiting for the Ghost Train
02. The Wizard
03. The Communicator
04. Lovestruck
05. Elysium
06. Drip Fed Fred
07. Saturday Night, Sunday Morning
08. Johnny the Horse
09. Sarah's Song
10. Girl Why Don't You?
11. Lola
12. I Chase the Devil aka Ironshirt
13. Shame and Scandal
14. You Keep Me Hanging On
15. NW5
16. Forever Young
17. That Close
18. Dust Devil
19. On the Town
20. Sugar and Spice
21. Le Grand Pantalon (Baggy Trousers) - previously unreleased on CD

Total Time: 01:17:57
 
Exact Audio Copy V1.0 beta 3 from 29. August 2011

EAC extraction logfile from 21. October 2011, 21:57

Madness / A Guided Tour of Madness

Used drive : HL-DT-STDVDRAM GH22NS50 Adapter: 0 ID: 1

Read mode : SecureUtilize accurate stream : YesDefeat audio cache : YesMake use of C2 pointers : No

Read offset correction : 667Overread into Lead-In and Lead-Out : NoFill up missing offset samples with silence : YesDelete leading and trailing silent blocks : NoNull samples used in CRC calculations : YesUsed interface : Native Win32 interface for Win NT & 2000Gap handling : Appended to previous track

Used output format : User Defined EncoderSelected bitrate : 768 kBit/sQuality : HighAdd ID3 tag : NoCommand line compressor : C:\Program Files\Exact Audio Copy\FLAC\FLAC.EXEAdditional command line options : -8 -V -T "ARTIST=%artist%" -T "TITLE=%title%" -T "ALBUM=%albumtitle%" -T "DATE=%year%" -T "TRACKNUMBER=%tracknr%" -T "TOTALTRACKS=%numtracks%" -T "GENRE=%genre%" -T "ALBUMARTIST=%albumartist%" -T "ALBUM ARTIST=%albumartist%" -T "COMMENT=EAC Secure Mode, Test & Copy, AccurateRip, FLAC -8" %source%

TOC of the extracted CD

Track | Start | Length | Start sector | End sector --------------------------------------------------------- 1 | 0:00.00 | 3:44.47 | 0 | 16846 2 | 3:44.47 | 3:26.46 | 16847 | 32342 3 | 7:11.18 | 3:19.61 | 32343 | 47328 4 | 10:31.04 | 3:49.62 | 47329 | 64565 5 | 14:20.66 | 3:54.13 | 64566 | 82128 6 | 18:15.04 | 4:29.45 | 82129 | 102348 7 | 22:44.49 | 4:14.37 | 102349 | 121435 8 | 26:59.11 | 3:20.21 | 121436 | 136456 9 | 30:19.32 | 3:44.51 | 136457 | 153307 10 | 34:04.08 | 3:06.61 | 153308 | 167318 11 | 37:10.69 | 3:22.45 | 167319 | 182513 12 | 40:33.39 | 3:21.58 | 182514 | 197646 13 | 43:55.22 | 2:54.36 | 197647 | 210732 14 | 46:49.58 | 3:10.65 | 210733 | 225047 15 | 50:00.48 | 3:47.08 | 225048 | 242080 16 | 53:47.56 | 4:35.50 | 242081 | 262755 17 | 58:23.31 | 4:10.26 | 262756 | 281531 18 | 62:33.57 | 3:19.63 | 281532 | 296519 19 | 65:53.45 | 4:31.30 | 296520 | 316874 20 | 70:25.00 | 2:52.08 | 316875 | 329782 21 | 73:17.08 | 4:34.65 | 329783 | 350397

Track 1

Filename C:\MUSIC\FLAC\Madness - A Guided Tour of Madness (2011) [FLAC]\CD3\01 - Waiting for the Ghost Train.wav

Pre-gap length 0:00:02.00

Peak level 96.6 % Extraction speed 1.1 X Track quality 100.0 % Test CRC E8B3657B Copy CRC E8B3657B Track not present in AccurateRip database Copy OK

Track 2

Filename C:\MUSIC\FLAC\Madness - A Guided Tour of Madness (2011) [FLAC]\CD3\02 - The Wizard.wav

Peak level 97.7 % Extraction speed 1.2 X Track quality 100.0 % Test CRC D2FBD1EA Copy CRC D2FBD1EA Track not present in AccurateRip database Copy OK

Track 3

Filename C:\MUSIC\FLAC\Madness - A Guided Tour of Madness (2011) [FLAC]\CD3\03 - The Communicator.wav

Peak level 97.7 % Extraction speed 1.1 X Track quality 99.9 % Test CRC 35C8AA55 Copy CRC 35C8AA55 Track not present in AccurateRip database Copy OK

Track 4

Filename C:\MUSIC\FLAC\Madness - A Guided Tour of Madness (2011) [FLAC]\CD3\04 - Lovestruck.wav

Peak level 97.7 % Extraction speed 1.4 X Track quality 100.0 % Test CRC A056D4F1 Copy CRC A056D4F1 Track not present in AccurateRip database Copy OK

Track 5

Filename C:\MUSIC\FLAC\Madness - A Guided Tour of Madness (2011) [FLAC]\CD3\05 - Elysium.wav

Peak level 97.7 % Extraction speed 1.5 X Track quality 100.0 % Test CRC D7753958 Copy CRC D7753958 Track not present in AccurateRip database Copy OK

Track 6

Filename C:\MUSIC\FLAC\Madness - A Guided Tour of Madness (2011) [FLAC]\CD3\06 - Drip Fed Fred.wav

Peak level 97.7 % Extraction speed 1.4 X Track quality 99.9 % Test CRC F79DDBB5 Copy CRC F79DDBB5 Track not present in AccurateRip database Copy OK

Track 7

Filename C:\MUSIC\FLAC\Madness - A Guided Tour of Madness (2011) [FLAC]\CD3\07 - Saturday Night, Sunday Morning.wav

Peak level 97.7 % Extraction speed 1.7 X Track quality 100.0 % Test CRC 2C009B29 Copy CRC 2C009B29 Track not present in AccurateRip database Copy OK

Track 8

Filename C:\MUSIC\FLAC\Madness - A Guided Tour of Madness (2011) [FLAC]\CD3\08 - Johnny the Horse.wav

Peak level 97.7 % Extraction speed 1.7 X Track quality 100.0 % Test CRC BD3EF197 Copy CRC BD3EF197 Track not present in AccurateRip database Copy OK

Track 9

Filename C:\MUSIC\FLAC\Madness - A Guided Tour of Madness (2011) [FLAC]\CD3\09 - Sarah's Song.wav

Peak level 97.7 % Extraction speed 1.8 X Track quality 100.0 % Test CRC ADDD8A62 Copy CRC ADDD8A62 Track not present in AccurateRip database Copy OK

Track 10

Filename C:\MUSIC\FLAC\Madness - A Guided Tour of Madness (2011) [FLAC]\CD3\10 - Girl Why Don't You.wav

Peak level 97.7 % Extraction speed 1.8 X Track quality 100.0 % Test CRC 8EABCE13 Copy CRC 8EABCE13 Track not present in AccurateRip database Copy OK

Track 11

Filename C:\MUSIC\FLAC\Madness - A Guided Tour of Madness (2011) [FLAC]\CD3\11 - Lola.wav

Peak level 97.7 % Extraction speed 1.9 X Track quality 100.0 % Test CRC 0A7DFB43 Copy CRC 0A7DFB43 Track not present in AccurateRip database Copy OK

Track 12

Filename C:\MUSIC\FLAC\Madness - A Guided Tour of Madness (2011) [FLAC]\CD3\12 - I Chase the Devil aka Ironshirt.wav

Peak level 97.7 % Extraction speed 1.9 X Track quality 100.0 % Test CRC 11D380B3 Copy CRC 11D380B3 Track not present in AccurateRip database Copy OK

Track 13

Filename C:\MUSIC\FLAC\Madness - A Guided Tour of Madness (2011) [FLAC]\CD3\13 - Shame and Scandal.wav

Peak level 97.7 % Extraction speed 1.9 X Track quality 100.0 % Test CRC FEC00C55 Copy CRC FEC00C55 Track not present in AccurateRip database Copy OK

Track 14

Filename C:\MUSIC\FLAC\Madness - A Guided Tour of Madness (2011) [FLAC]\CD3\14 - You Keep Me Hanging On.wav

Peak level 97.7 % Extraction speed 1.7 X Track quality 99.9 % Test CRC 1ED471C8 Copy CRC 1ED471C8 Track not present in AccurateRip database Copy OK

Track 15

Filename C:\MUSIC\FLAC\Madness - A Guided Tour of Madness (2011) [FLAC]\CD3\15 - NW5.wav

Peak level 88.9 % Extraction speed 2.1 X Track quality 100.0 % Test CRC 86DC5230 Copy CRC 86DC5230 Track not present in AccurateRip database Copy OK

Track 16

Filename C:\MUSIC\FLAC\Madness - A Guided Tour of Madness (2011) [FLAC]\CD3\16 - Forever Young.wav

Peak level 99.9 % Extraction speed 2.3 X Track quality 100.0 % Test CRC 22FB170C Copy CRC 22FB170C Track not present in AccurateRip database Copy OK

Track 17

Filename C:\MUSIC\FLAC\Madness - A Guided Tour of Madness (2011) [FLAC]\CD3\17 - That Close.wav

Peak level 99.9 % Extraction speed 2.0 X Track quality 99.9 % Test CRC 7D3CC392 Copy CRC 7D3CC392 Track not present in AccurateRip database Copy OK

Track 18

Filename C:\MUSIC\FLAC\Madness - A Guided Tour of Madness (2011) [FLAC]\CD3\18 - Dust Devil.wav

Peak level 99.9 % Extraction speed 1.9 X Track quality 99.9 % Test CRC 4DA44B53 Copy CRC 4DA44B53 Track not present in AccurateRip database Copy OK

Track 19

Filename C:\MUSIC\FLAC\Madness - A Guided Tour of Madness (2011) [FLAC]\CD3\19 - On the Town.wav

Peak level 99.9 % Extraction speed 2.4 X Track quality 100.0 % Test CRC D1DC5BF3 Copy CRC D1DC5BF3 Track not present in AccurateRip database Copy OK

Track 20

Filename C:\MUSIC\FLAC\Madness - A Guided Tour of Madness (2011) [FLAC]\CD3\20 - Sugar and Spice.wav

Peak level 97.7 % Extraction speed 2.3 X Track quality 100.0 % Test CRC E02C79B8 Copy CRC E02C79B8 Track not present in AccurateRip database Copy OK

Track 21

Filename C:\MUSIC\FLAC\Madness - A Guided Tour of Madness (2011) [FLAC]\CD3\21 - Le Grand Pantalon (Baggy Trousers).wav

Peak level 97.7 % Extraction speed 2.5 X Track quality 100.0 % Test CRC AF272D47 Copy CRC AF272D47 Track not present in AccurateRip database Copy OK

None of the tracks are present in the AccurateRip database

No errors occurred

End of status report

---- CUETools DB Plugin V2.1.3

[CTDB TOCID: qGAHiryBiPrA8qu8NeWs2LcRmO8-] disk not present in database, Submit result: qGAHiryBiPrA8qu8NeWs2LcRmO8- has been uploaded

==== Log checksum D1A1A8CC1F533BB6F54CFE8323448DB89A3446C965C1945AD2FEBAA51199EDDC ====
 
REM GENRE PopREM DATE 2011REM DISCID 1F123F15REM COMMENT "ExactAudioCopy v1.0b3"PERFORMER "Madness"TITLE "A Guided Tour of Madness"FILE "01 - Waiting for the Ghost Train.wav" WAVE TRACK 01 AUDIO TITLE "Waiting for the Ghost Train" PERFORMER "Madness" INDEX 01 00:00:00FILE "02 - The Wizard.wav" WAVE TRACK 02 AUDIO TITLE "The Wizard" PERFORMER "Madness" INDEX 01 00:00:00FILE "03 - The Communicator.wav" WAVE TRACK 03 AUDIO TITLE "The Communicator" PERFORMER "Madness" INDEX 01 00:00:00FILE "04 - Lovestruck.wav" WAVE TRACK 04 AUDIO TITLE "Lovestruck" PERFORMER "Madness" INDEX 01 00:00:00FILE "05 - Elysium.wav" WAVE TRACK 05 AUDIO TITLE "Elysium" PERFORMER "Madness" INDEX 01 00:00:00FILE "06 - Drip Fed Fred.wav" WAVE TRACK 06 AUDIO TITLE "Drip Fed Fred" PERFORMER "Madness" INDEX 01 00:00:00FILE "07 - Saturday Night, Sunday Morning.wav" WAVE TRACK 07 AUDIO TITLE "Saturday Night, Sunday Morning" PERFORMER "Madness" INDEX 01 00:00:00FILE "08 - Johnny the Horse.wav" WAVE TRACK 08 AUDIO TITLE "Johnny the Horse" PERFORMER "Madness" INDEX 01 00:00:00FILE "09 - Sarah's Song.wav" WAVE TRACK 09 AUDIO TITLE "Sarah's Song" PERFORMER "Madness" INDEX 01 00:00:00FILE "10 - Girl Why Don't You.wav" WAVE TRACK 10 AUDIO TITLE "Girl Why Don't You?" PERFORMER "Madness" INDEX 01 00:00:00FILE "11 - Lola.wav" WAVE TRACK 11 AUDIO TITLE "Lola" PERFORMER "Madness" INDEX 01 00:00:00FILE "12 - I Chase the Devil aka Ironshirt.wav" WAVE TRACK 12 AUDIO TITLE "I Chase the Devil aka Ironshirt" PERFORMER "Madness" INDEX 01 00:00:00FILE "13 - Shame and Scandal.wav" WAVE TRACK 13 AUDIO TITLE "Shame and Scandal" PERFORMER "Madness" INDEX 01 00:00:00FILE "14 - You Keep Me Hanging On.wav" WAVE TRACK 14 AUDIO TITLE "You Keep Me Hanging On" PERFORMER "Madness" INDEX 01 00:00:00FILE "15 - NW5.wav" WAVE TRACK 15 AUDIO TITLE "NW5" PERFORMER "Madness" INDEX 01 00:00:00FILE "16 - Forever Young.wav" WAVE TRACK 16 AUDIO TITLE "Forever Young" PERFORMER "Madness" INDEX 01 00:00:00FILE "17 - That Close.wav" WAVE TRACK 17 AUDIO TITLE "That Close" PERFORMER "Madness" INDEX 01 00:00:00FILE "18 - Dust Devil.wav" WAVE TRACK 18 AUDIO TITLE "Dust Devil" PERFORMER "Madness" INDEX 01 00:00:00FILE "19 - On the Town.wav" WAVE TRACK 19 AUDIO TITLE "On the Town" PERFORMER "Madness" INDEX 01 00:00:00FILE "20 - Sugar and Spice.wav" WAVE TRACK 20 AUDIO TITLE "Sugar and Spice" PERFORMER "Madness" INDEX 01 00:00:00FILE "21 - Le Grand Pantalon (Baggy Trousers).wav" WAVE TRACK 21 AUDIO TITLE "Le Grand Pantalon (Baggy Trousers)" PERFORMER "Madness" INDEX 01 00:00:00
A Guided Tour Of Madness (3CD+DVD) [Box set, Collector's Edition, Extra tracks, PAL, Original recording remastered]

A bona fide British institution, Madness have been making music since the seventies. From their debut 1979 offering ’One Step Beyond…’ to their recent LP The Liberty Of Norton Folgate, the band’s thirty-plus year career has seen them rack up a string of Top Ten hits and a loyal following to boot.

Madness enthusiasts will welcome the release of ’A Guided Tour Of Madness’, the definitive 4-disc anthology which features 70 classic singles and album tracks and an exclusive DVD of the band’s unforgettable comeback concert at Madstock in 1992. The collection also features the track ’Le Grand Pantalon’ an exquisite, slow-burning rendition of their smash hit ’Baggy Trousers’, created for a new Kronenbourg ad which reflects the true essence of modern Madness.

But that’s not all this must-have box set also boasts a 72-page colour booklet complete with new interviews with the band, unseen photos, the first issue of the Nutty Comic (1981) and a very special Madness Map Of Camden, the band’s historic stomping ground. Each box set includes a business card featuring a unique number allowing the owner to enter The Madness Treasure Hunt, a futuristic divertissement using special Geoaching technology to help you find treasures.


Трекер:  [ 03-Фев-2012 12:57 ]

  

Скачать .torrent

Размер .torrent файла 42 KB


Размер: 1.63 GB
Хэш (hash) релиза: 9d795a08db2937153f9f4854f1ea4a3f22ea366b

Еще никто не оставлял запись к записи скачать торрент Madness - A Guided Tour of Madness . Будь первым!

!Обратная связь