Sekkou Boys | Мюзикл | Michael C. Hall

Скачать через торрент музыку Big Mountain - Baby, I Love Your Way бесплатно без регистрации torrent

Статистика раздачи
Размер:  117 MB   |    Зарегистрирован:  6 лет 5 месяцев   |    .torrent скачан:  35 раз   |   
Раздают:  1  
   
загрузка...
 
Автор Сообщение

Galfimbul

avatar Galfimbul


Жанр: Reggae-Pop
Страна-производитель диска: UK & Europe
Год издания диска: 1994
Издатель (лейбл): RCA, Universal
Номер по каталогу: 74321198062
Страна: UK & Europe
Аудиокодек: FLAC (*.flac)
Тип рипа: tracks+.cue
Битрейт аудио: lossless
Источник (релизер): what.cd
Наличие сканов в содержимом раздачи: нет

http://www.youtube.com/watch?v=AAtevYRkv7Q

Треклист:
1. Baby, I Love Your Way (Radio Version) - 4:30
2. Baby, I Love Your Way (6 Point 6 On The Richter Scale Mix) - 6:56
3. Baby, Te Quiero A Ti (Spanish Version) - 4:36
 
Exact Audio Copy V0.99 prebeta 5 from 4. May 2009

EAC extraction logfile from 27. November 2010, 18:20

Big Mountain / Baby, I Love Your Way (CD Single)

Used drive : LITE-ON COMBO LTC-48161H Adapter: 1 ID: 0

Read mode : SecureUtilize accurate stream : YesDefeat audio cache : YesMake use of C2 pointers : No

Read offset correction : 6Overread into Lead-In and Lead-Out : NoFill up missing offset samples with silence : YesDelete leading and trailing silent blocks : NoNull samples used in CRC calculations : YesUsed interface : Installed external ASPI interfaceGap handling : Appended to previous track

Used output format : User Defined EncoderSelected bitrate : 320 kBit/sQuality : HighAdd ID3 tag : NoCommand line compressor : C:\Program Files\Exact Audio Copy\Flac\flac.exeAdditional command line options : -V -8 -T "artist=%a" -T "title=%t" -T "album=%g" -T "date=%y" -T "tracknumber=%n" -T "genre=%m" %s

TOC of the extracted CD

Track | Start | Length | Start sector | End sector --------------------------------------------------------- 1 | 0:00.00 | 4:29.40 | 0 | 20214 2 | 4:29.40 | 6:56.30 | 20215 | 51444 3 | 11:25.70 | 4:36.32 | 51445 | 72176

Track 1

Filename C:\EAC\Big Mountain - Baby, I Love Your Way (CD Single) -1994 [FLAC]\01 - Baby, I Love Your Way (Radio Version) .wav

Pre-gap length 0:00:02.00

Peak level 99.8 % Track quality 100.0 % Test CRC 810B6CD8 Copy CRC 810B6CD8 Accurately ripped (confidence 4) [645601C6] Copy OK

Track 2

Filename C:\EAC\Big Mountain - Baby, I Love Your Way (CD Single) -1994 [FLAC]\02 - Baby, I Love Your Way (6 Point 6 On The Richter Scale Version) .wav

Pre-gap length 0:00:00.80

Peak level 99.8 % Track quality 99.9 % Test CRC 2E68724D Copy CRC 2E68724D Accurately ripped (confidence 4) [7DC523A3] Copy OK

Track 3

Filename C:\EAC\Big Mountain - Baby, I Love Your Way (CD Single) -1994 [FLAC]\03 - Baby, Te Quiero Ati ( Spanish Version ) .wav

Pre-gap length 0:00:00.86

Peak level 99.8 % Track quality 100.0 % Test CRC 58FAA607 Copy CRC 58FAA607 Accurately ripped (confidence 4) [5FA857EE] Copy OK

All tracks accurately ripped

No errors occurred

End of status report
 
REM GENRE ReggaeREM DATE 1994REM DISCID 2103C203REM COMMENT "ExactAudioCopy v0.99pb5"FILE "Big Mountain - Baby, I Love Your Way (CD Single) -1994 [FLAC]\01 - Baby, I Love Your Way (Radio Version) .wav" WAVE TRACK 01 AUDIO INDEX 01 00:00:00 TRACK 02 AUDIO INDEX 00 04:28:55FILE "Big Mountain - Baby, I Love Your Way (CD Single) -1994 [FLAC]\02 - Baby, I Love Your Way (6 Point 6 On The Richter Scale Version) .wav" WAVE INDEX 01 00:00:00 TRACK 03 AUDIO INDEX 00 06:55:40FILE "Big Mountain - Baby, I Love Your Way (CD Single) -1994 [FLAC]\03 - Baby, Te Quiero Ati ( Spanish Version ) .wav" WAVE INDEX 01 00:00:00


Трекер:  [ 03-Фев-2012 01:35 ]

  

Скачать .torrent

Размер .torrent файла 19 KB


Размер: 117 MB
Хэш (hash) релиза: 71b8b7fcafc39feb19a4e75398da9736c6beefc7

Еще никто не оставлял запись к записи скачать торрент Big Mountain - Baby, I Love Your Way . Будь первым!

!Обратная связь