March 2015 (2147) | Adventure Time S10E11 HDTV x264-W4F [eztv] | One Piece episode 824 VOSTFR

Скачать через торрент музыку Sean Paul - Discography - 12 Releases бесплатно без регистрации torrent

Статистика раздачи
Размер:  3.96 GB   |    Зарегистрирован:  6 лет 5 месяцев   |    .torrent скачан:  56 раз   |   
Раздают:  1  
   
загрузка...
 
Автор Сообщение

Galfimbul

avatar Galfimbul


Sean Paul

Жанр: Dancehall, Reggae, Hip-Hop, R&B | Страна-производитель диска: USA, EU, Jamaica | Год издания: 2000-2011 | Страна: Jamaica | Издатель (лейбл): VP/Atlantic Records | Аудиокодек: FLAC (*.flac) | Тип рипа: tracks+.cue, tracks | Битрейт аудио: lossless | Продолжительность: 9:12:02 | Источник (релизер): what.cd, http://рутраскер (dark-termit) | Наличие сканов в содержимом раздачи: ДА (указано)
Sean Paul Ryan Francis Henriques, более известный как Sean Paul (рус. Шон Пол) — популярный ямайский дэнсхолл-исполнитель. Является обладателем престижной музыкальной премии Грэмми.
Год издания: 2000
Аудиокодек: FLAC (*.flac)
Тип рипа: tracks+.cue
Битрейт аудио: lossless
Продолжительность: 01:06:24
Наличие сканов в содержимом раздачи: ДА
Треклист:
01. Mental Prelude
02. She Want It
03. Infiltrate
04. Nicky (Skit)
05. Haffiget de Gal Ya (Hot Gal Today)
06. Real Man
07. Dutty Techniques (Skit)
08. Check It Deeply
09. Mek It Go So Den
10. Examples of Things Not to Do in Bed (Skit)
11. Deport Them
12. Tiger Bone
13. Faded
14. Definite
15. Shineface (Skit)
16. Disrespect
17. Sound the Alarm
18. Uptowners (Skit)
19. No Bligh
20. Slap Trap
21. Strategy
22. Word From the Hon. Minister, A (Skit)
23. Next Generation24. You Must Lose
25. Outro
26. Bonus Track
 
Exact Audio Copy V0.99 prebeta 5 from 4. May 2009

EAC extraction logfile from 27. February 2010, 22:49

Sean Paul / Stage One

Used drive : TSSTcorpDVD+-RW TS-H653B Adapter: 2 ID: 1

Read mode : SecureUtilize accurate stream : YesDefeat audio cache : YesMake use of C2 pointers : No

Read offset correction : 6Overread into Lead-In and Lead-Out : NoFill up missing offset samples with silence : YesDelete leading and trailing silent blocks : NoNull samples used in CRC calculations : YesUsed interface : Native Win32 interface for Win NT & 2000Gap handling : Appended to previous track

Used output format : User Defined EncoderSelected bitrate : 320 kBit/sQuality : HighAdd ID3 tag : NoCommand line compressor : C:\Program Files\FLAC\flac.exeAdditional command line options : -8 -T "artist=%a" -T "title=%t" -T "album=%g" -T "date=%y" -T "tracknumber=%n" -T "genre=%m" %s

TOC of the extracted CD

Track | Start | Length | Start sector | End sector --------------------------------------------------------- 1 | 0:00.00 | 0:47.41 | 0 | 3565 2 | 0:47.41 | 2:56.10 | 3566 | 16775 3 | 3:43.51 | 3:29.35 | 16776 | 32485 4 | 7:13.11 | 1:24.10 | 32486 | 38795 5 | 8:37.21 | 3:15.70 | 38796 | 53490 6 | 11:53.16 | 3:06.68 | 53491 | 67508 7 | 15:00.09 | 0:29.15 | 67509 | 69698 8 | 15:29.24 | 3:35.08 | 69699 | 85831 9 | 19:04.32 | 3:25.20 | 85832 | 101226 10 | 22:29.52 | 1:03.07 | 101227 | 105958 11 | 23:32.59 | 3:08.23 | 105959 | 120081 12 | 26:41.07 | 2:52.20 | 120082 | 133001 13 | 29:33.27 | 3:02.53 | 133002 | 146704 14 | 32:36.05 | 3:10.30 | 146705 | 160984 15 | 35:46.35 | 0:33.65 | 160985 | 163524 16 | 36:20.25 | 3:15.30 | 163525 | 178179 17 | 39:35.55 | 3:27.43 | 178180 | 193747 18 | 43:03.23 | 1:03.12 | 193748 | 198484 19 | 44:06.35 | 3:43.58 | 198485 | 215267 20 | 47:50.18 | 3:17.07 | 215268 | 230049 21 | 51:07.25 | 3:23.45 | 230050 | 245319 22 | 54:30.70 | 0:19.73 | 245320 | 246817 23 | 54:50.68 | 3:43.35 | 246818 | 263577 24 | 58:34.28 | 3:25.70 | 263578 | 279022 25 | 62:00.23 | 0:47.25 | 279023 | 282572 26 | 62:47.48 | 3:36.38 | 282573 | 298810 27 | 68:56.11 | 8:22.05 | 310211 | 347865

Track 1

Filename C:\EACRips\Sean Paul - Stage One (2000) [FLAC]\01 - Mental Prelude.wav

Pre-gap length 0:00:02.00

Peak level 98.0 % Track quality 100.0 % Test CRC 9F4C2A7A Copy CRC 9F4C2A7A Accurately ripped (confidence 10) [D81F871B] Copy OK

Track 2

Filename C:\EACRips\Sean Paul - Stage One (2000) [FLAC]\02 - She Want It.wav

Peak level 99.2 % Track quality 100.0 % Test CRC D8065628 Copy CRC D8065628 Accurately ripped (confidence 10) [C49CB66A] Copy OK

Track 3

Filename C:\EACRips\Sean Paul - Stage One (2000) [FLAC]\03 - Infiltrate.wav

Peak level 98.6 % Track quality 100.0 % Test CRC 83D19659 Copy CRC 83D19659 Accurately ripped (confidence 10) [E800D8EE] Copy OK

Track 4

Filename C:\EACRips\Sean Paul - Stage One (2000) [FLAC]\04 - Nicky (Skit).wav

Peak level 97.8 % Track quality 100.0 % Test CRC 36BD5349 Copy CRC 36BD5349 Accurately ripped (confidence 8) [3B6FB833] Copy OK

Track 5

Filename C:\EACRips\Sean Paul - Stage One (2000) [FLAC]\05 - Haffi Get De Gal Ya (Hot Gal Today).wav

Peak level 98.3 % Track quality 100.0 % Test CRC 967A26C1 Copy CRC 967A26C1 Accurately ripped (confidence 10) [FDFC2232] Copy OK

Track 6

Filename C:\EACRips\Sean Paul - Stage One (2000) [FLAC]\06 - Real Man.wav

Peak level 99.9 % Track quality 100.0 % Test CRC 40EBA671 Copy CRC 40EBA671 Accurately ripped (confidence 10) [9ED3F4D5] Copy OK

Track 7

Filename C:\EACRips\Sean Paul - Stage One (2000) [FLAC]\07 - Dutty Techniques (Skit).wav

Peak level 98.1 % Track quality 99.6 % Test CRC 80612259 Copy CRC 80612259 Accurately ripped (confidence 8) [D77FCCF0] Copy OK

Track 8

Filename C:\EACRips\Sean Paul - Stage One (2000) [FLAC]\08 - Check Out Deeply.wav

Peak level 98.9 % Track quality 100.0 % Test CRC 48C3E24A Copy CRC 48C3E24A Accurately ripped (confidence 10) [73A7DCB0] Copy OK

Track 9

Filename C:\EACRips\Sean Paul - Stage One (2000) [FLAC]\09 - Mek It Go So Den.wav

Peak level 99.4 % Track quality 100.0 % Test CRC C0058F0F Copy CRC C0058F0F Accurately ripped (confidence 10) [B0CD025B] Copy OK

Track 10

Filename C:\EACRips\Sean Paul - Stage One (2000) [FLAC]\10 - Examples Of Things Not To Do In Bed (Skit).wav

Peak level 71.4 % Track quality 99.8 % Test CRC 32A365E1 Copy CRC 32A365E1 Accurately ripped (confidence 8) [EB3E778D] Copy OK

Track 11

Filename C:\EACRips\Sean Paul - Stage One (2000) [FLAC]\11 - Deport Them.wav

Peak level 99.2 % Track quality 100.0 % Test CRC 709925FC Copy CRC 709925FC Accurately ripped (confidence 10) [C62BFA2A] Copy OK

Track 12

Filename C:\EACRips\Sean Paul - Stage One (2000) [FLAC]\12 - Tiger Bone.wav

Peak level 98.9 % Track quality 100.0 % Test CRC 17EFA279 Copy CRC 17EFA279 Accurately ripped (confidence 10) [0D600EFD] Copy OK

Track 13

Filename C:\EACRips\Sean Paul - Stage One (2000) [FLAC]\13 - Faded.wav

Peak level 99.2 % Track quality 100.0 % Test CRC EABA0D1E Copy CRC EABA0D1E Accurately ripped (confidence 10) [23000EB7] Copy OK

Track 14

Filename C:\EACRips\Sean Paul - Stage One (2000) [FLAC]\14 - Definite.wav

Peak level 99.1 % Track quality 100.0 % Test CRC A24034CA Copy CRC A24034CA Accurately ripped (confidence 10) [220308A6] Copy OK

Track 15

Filename C:\EACRips\Sean Paul - Stage One (2000) [FLAC]\15 - Shineface (Skit).wav

Peak level 98.5 % Track quality 99.6 % Test CRC DB33B377 Copy CRC DB33B377 Accurately ripped (confidence 8) [05E6A87D] Copy OK

Track 16

Filename C:\EACRips\Sean Paul - Stage One (2000) [FLAC]\16 - Disrespect.wav

Peak level 98.8 % Track quality 100.0 % Test CRC A0170E86 Copy CRC A0170E86 Accurately ripped (confidence 10) [92A324F6] Copy OK

Track 17

Filename C:\EACRips\Sean Paul - Stage One (2000) [FLAC]\17 - Sound The Alarm.wav

Peak level 98.7 % Track quality 100.0 % Test CRC CBD45619 Copy CRC CBD45619 Accurately ripped (confidence 10) [F9DD1F9F] Copy OK

Track 18

Filename C:\EACRips\Sean Paul - Stage One (2000) [FLAC]\18 - Uptowners (Skit).wav

Peak level 98.4 % Track quality 100.0 % Test CRC B37F55BD Copy CRC B37F55BD Accurately ripped (confidence 8) [F27C14F1] Copy OK

Track 19

Filename C:\EACRips\Sean Paul - Stage One (2000) [FLAC]\19 - No Bugh.wav

Peak level 98.7 % Track quality 99.9 % Test CRC 281415E4 Copy CRC 281415E4 Accurately ripped (confidence 10) [399A378A] Copy OK

Track 20

Filename C:\EACRips\Sean Paul - Stage One (2000) [FLAC]\20 - Slap Trap.wav

Peak level 98.8 % Track quality 100.0 % Test CRC 77E32164 Copy CRC 77E32164 Accurately ripped (confidence 10) [26B6B900] Copy OK

Track 21

Filename C:\EACRips\Sean Paul - Stage One (2000) [FLAC]\21 - Strategy.wav

Peak level 98.5 % Track quality 100.0 % Test CRC 83E95C33 Copy CRC 83E95C33 Accurately ripped (confidence 10) [18FD2B30] Copy OK

Track 22

Filename C:\EACRips\Sean Paul - Stage One (2000) [FLAC]\22 - A Word From The Hon. Minister (Skit).wav

Peak level 97.8 % Track quality 100.0 % Test CRC DF30C648 Copy CRC DF30C648 Accurately ripped (confidence 8) [8B3F5740] Copy OK

Track 23

Filename C:\EACRips\Sean Paul - Stage One (2000) [FLAC]\23 - Next Generation.wav

Peak level 99.2 % Track quality 99.9 % Test CRC A3B8BB9C Copy CRC A3B8BB9C Accurately ripped (confidence 10) [61DB83B8] Copy OK

Track 24

Filename C:\EACRips\Sean Paul - Stage One (2000) [FLAC]\24 - You Must Loose.wav

Peak level 98.7 % Track quality 100.0 % Test CRC B714615A Copy CRC B714615A Accurately ripped (confidence 10) [5C2EB324] Copy OK

Track 25

Filename C:\EACRips\Sean Paul - Stage One (2000) [FLAC]\25 - Outro.wav

Peak level 98.9 % Track quality 100.0 % Test CRC FEA56671 Copy CRC FEA56671 Accurately ripped (confidence 10) [FBB86164] Copy OK

Track 26

Filename C:\EACRips\Sean Paul - Stage One (2000) [FLAC]\26 - Bonus Track.wav

Peak level 100.0 % Track quality 99.9 % Test CRC EC2ED673 Copy CRC EC2ED673 Accurately ripped (confidence 9) [259174AD] Copy OK

All tracks accurately ripped

No errors occurred

End of status report
 
REM GENRE ReggaeREM DATE 2000REM DISCID 8E121E1BREM COMMENT "ExactAudioCopy v0.99pb5"PERFORMER "Sean Paul"TITLE "Stage One"FILE "01 - Mental Prelude.wav" WAVE TRACK 01 AUDIO TITLE "Mental Prelude" PERFORMER "Sean Paul" INDEX 01 00:00:00FILE "02 - She Want It.wav" WAVE TRACK 02 AUDIO TITLE "She Want It" PERFORMER "Sean Paul" INDEX 01 00:00:00FILE "03 - Infiltrate.wav" WAVE TRACK 03 AUDIO TITLE "Infiltrate" PERFORMER "Sean Paul" INDEX 01 00:00:00FILE "04 - Nicky (Skit).wav" WAVE TRACK 04 AUDIO TITLE "Nicky (Skit)" PERFORMER "Sean Paul" INDEX 01 00:00:00FILE "05 - Haffi Get De Gal Ya (Hot Gal Today).wav" WAVE TRACK 05 AUDIO TITLE "Haffi Get De Gal Ya (Hot Gal Today)" PERFORMER "Sean Paul" INDEX 01 00:00:00FILE "06 - Real Man.wav" WAVE TRACK 06 AUDIO TITLE "Real Man" PERFORMER "Sean Paul" INDEX 01 00:00:00FILE "07 - Dutty Techniques (Skit).wav" WAVE TRACK 07 AUDIO TITLE "Dutty Techniques (Skit)" PERFORMER "Sean Paul" INDEX 01 00:00:00FILE "08 - Check Out Deeply.wav" WAVE TRACK 08 AUDIO TITLE "Check Out Deeply" PERFORMER "Sean Paul" INDEX 01 00:00:00FILE "09 - Mek It Go So Den.wav" WAVE TRACK 09 AUDIO TITLE "Mek It Go So Den" PERFORMER "Sean Paul" INDEX 01 00:00:00FILE "10 - Examples Of Things Not To Do In Bed (Skit).wav" WAVE TRACK 10 AUDIO TITLE "Examples Of Things Not To Do In Bed (Skit)" PERFORMER "Sean Paul" INDEX 01 00:00:00FILE "11 - Deport Them.wav" WAVE TRACK 11 AUDIO TITLE "Deport Them" PERFORMER "Sean Paul" INDEX 01 00:00:00FILE "12 - Tiger Bone.wav" WAVE TRACK 12 AUDIO TITLE "Tiger Bone" PERFORMER "Sean Paul" INDEX 01 00:00:00FILE "13 - Faded.wav" WAVE TRACK 13 AUDIO TITLE "Faded" PERFORMER "Sean Paul" INDEX 01 00:00:00FILE "14 - Definite.wav" WAVE TRACK 14 AUDIO TITLE "Definite" PERFORMER "Sean Paul" INDEX 01 00:00:00FILE "15 - Shineface (Skit).wav" WAVE TRACK 15 AUDIO TITLE "Shineface (Skit)" PERFORMER "Sean Paul" INDEX 01 00:00:00FILE "16 - Disrespect.wav" WAVE TRACK 16 AUDIO TITLE "Disrespect" PERFORMER "Sean Paul" INDEX 01 00:00:00FILE "17 - Sound The Alarm.wav" WAVE TRACK 17 AUDIO TITLE "Sound The Alarm" PERFORMER "Sean Paul" INDEX 01 00:00:00FILE "18 - Uptowners (Skit).wav" WAVE TRACK 18 AUDIO TITLE "Uptowners (Skit)" PERFORMER "Sean Paul" INDEX 01 00:00:00FILE "19 - No Bugh.wav" WAVE TRACK 19 AUDIO TITLE "No Bugh" PERFORMER "Sean Paul" INDEX 01 00:00:00FILE "20 - Slap Trap.wav" WAVE TRACK 20 AUDIO TITLE "Slap Trap" PERFORMER "Sean Paul" INDEX 01 00:00:00FILE "21 - Strategy.wav" WAVE TRACK 21 AUDIO TITLE "Strategy" PERFORMER "Sean Paul" INDEX 01 00:00:00FILE "22 - A Word From The Hon. Minister (Skit).wav" WAVE TRACK 22 AUDIO TITLE "A Word From The Hon. Minister (Skit)" PERFORMER "Sean Paul" INDEX 01 00:00:00FILE "23 - Next Generation.wav" WAVE TRACK 23 AUDIO TITLE "Next Generation" PERFORMER "Sean Paul" INDEX 01 00:00:00FILE "24 - You Must Loose.wav" WAVE TRACK 24 AUDIO TITLE "You Must Loose" PERFORMER "Sean Paul" INDEX 01 00:00:00FILE "25 - Outro.wav" WAVE TRACK 25 AUDIO TITLE "Outro" PERFORMER "Sean Paul" INDEX 01 00:00:00FILE "26 - Bonus Track.wav" WAVE TRACK 26 AUDIO TITLE "Bonus Track" PERFORMER "Sean Paul" INDEX 01 00:00:00 TRACK 27 MODEx/2xxx TITLE "DataTrack 27" PERFORMER "Sean Paul" INDEX 00 03:36:38
Год издания: 2002
Аудиокодек: FLAC (*.flac)
Тип рипа: tracks+.cue
Битрейт аудио: lossless
Продолжительность: 01:15:06
Наличие сканов в содержимом раздачи: ДА
Треклист:
01 - Dutty Rock (Intro)
02 - Shout (Street Respect)
03 - Gimme The Light
04 - Like Glue
05 - Get Busy
06 - Top Of The Game (Feat. Rahzel)
07 - Police (Skit)
08 - Ganja Breed (Feat. Chico)
09 - Concrete
10 - I'm Still In Love With You (Feat. Sasha)
11 - International Affair (Feat. Debbie Nova)
12 - Can You Do The Work (Feat. Ce'Cile)
13 - Punkie
14 - My Name
15 - Jukin' Punny
16 - Uptown Haters (Skit)
17 - Gimme The Light (Pass The Dro-Voisier Remix) (Feat. Busta Rhymes)
18 - Bubble (Feat. Fahrenheit)
19 - Shake That Thang
20 - Esa Loca (Feat. Tony Touch & R.O.B.B.)
21 - It's On
22 - Punkie (Espanol)
 
Exact Audio Copy V1.0 beta 2 from 29. April 2011

EAC extraction logfile from 27. September 2011, 20:27

Sean Paul / Dutty Rock

Used drive : TSSTcorpCDDVDW SH-S223F Adapter: 1 ID: 0

Read mode : SecureUtilize accurate stream : YesDefeat audio cache : YesMake use of C2 pointers : No

Read offset correction : 6Overread into Lead-In and Lead-Out : NoFill up missing offset samples with silence : YesDelete leading and trailing silent blocks : NoNull samples used in CRC calculations : YesUsed interface : Native Win32 interface for Win NT & 2000Gap handling : Appended to previous track

Used output format : User Defined EncoderSelected bitrate : 1024 kBit/sQuality : HighAdd ID3 tag : NoCommand line compressor : C:\Program Files\Exact Audio Copy\Flac\flac.exeAdditional command line options : -8 -V -T "ARTIST=%artist%" -T "TITLE=%title%" -T "ALBUM=%albumtitle%" -T "DATE=%year%" -T "TRACKNUMBER=%tracknr%" -T "GENRE=%genre%" -T "DISCNUMBER=%cdnumber%" -T "DISCTOTAL=%totalcds%" -T "TRACKTOTAL=%numtracks%" -T "COMME

TOC of the extracted CD

Track | Start | Length | Start sector | End sector --------------------------------------------------------- 1 | 0:00.00 | 2:24.70 | 0 | 10869 2 | 2:24.70 | 3:44.02 | 10870 | 27671 3 | 6:08.72 | 3:46.35 | 27672 | 44656 4 | 9:55.32 | 3:54.30 | 44657 | 62236 5 | 13:49.62 | 3:32.08 | 62237 | 78144 6 | 17:21.70 | 4:04.55 | 78145 | 96499 7 | 21:26.50 | 1:56.07 | 96500 | 105206 8 | 23:22.57 | 3:15.10 | 105207 | 119841 9 | 26:37.67 | 3:55.00 | 119842 | 137466 10 | 30:32.67 | 4:33.05 | 137467 | 157946 11 | 35:05.72 | 3:49.30 | 157947 | 175151 12 | 38:55.27 | 3:24.55 | 175152 | 190506 13 | 42:20.07 | 3:34.63 | 190507 | 206619 14 | 45:54.70 | 3:40.30 | 206620 | 223149 15 | 49:35.25 | 2:02.32 | 223150 | 232331 16 | 51:37.57 | 1:24.73 | 232332 | 238704 17 | 53:02.55 | 3:20.55 | 238705 | 253759 18 | 56:23.35 | 3:47.37 | 253760 | 270821 19 | 60:10.72 | 3:54.13 | 270822 | 288384 20 | 64:05.10 | 3:47.17 | 288385 | 305426 21 | 67:52.27 | 3:38.48 | 305427 | 321824 22 | 71:31.00 | 3:35.05 | 321825 | 337954

Track 1

Filename C:\rips\Sean Paul - 2002 - Dutty Rock [FLAC]\01 - Dutty Rock Intro.wav

Pre-gap length 0:00:02.00

Peak level 87.8 % Extraction speed 4.4 X Track quality 100.0 % Test CRC F9C9BC97 Copy CRC F9C9BC97 Accurately ripped (confidence 3) [AE40C405] (AR v2) Copy OK

Track 2

Filename C:\rips\Sean Paul - 2002 - Dutty Rock [FLAC]\02 - Shout (Street Respect).wav

Pre-gap length 0:00:00.33

Peak level 87.8 % Extraction speed 5.1 X Track quality 100.0 % Test CRC A456A21D Copy CRC A456A21D Accurately ripped (confidence 3) [3272E2D2] (AR v2) Copy OK

Track 3

Filename C:\rips\Sean Paul - 2002 - Dutty Rock [FLAC]\03 - Gimme The Light.wav

Pre-gap length 0:00:00.86

Peak level 89.2 % Extraction speed 5.5 X Track quality 100.0 % Test CRC 4B79C3BA Copy CRC 4B79C3BA Accurately ripped (confidence 3) [29127EC5] (AR v2) Copy OK

Track 4

Filename C:\rips\Sean Paul - 2002 - Dutty Rock [FLAC]\04 - Like Glue.wav

Pre-gap length 0:00:00.26

Peak level 93.3 % Extraction speed 3.4 X Track quality 99.9 % Test CRC 3C03ADF1 Copy CRC 3C03ADF1 Accurately ripped (confidence 3) [622EC595] (AR v2) Copy OK

Track 5

Filename C:\rips\Sean Paul - 2002 - Dutty Rock [FLAC]\05 - Get Busy.wav

Pre-gap length 0:00:00.89

Peak level 98.3 % Extraction speed 6.2 X Track quality 100.0 % Test CRC E7CB98C9 Copy CRC E7CB98C9 Accurately ripped (confidence 3) [669850C5] (AR v2) Copy OK

Track 6

Filename C:\rips\Sean Paul - 2002 - Dutty Rock [FLAC]\06 - Top Of The Game (Feat. Rahzel).wav

Pre-gap length 0:00:00.86

Peak level 96.8 % Extraction speed 6.6 X Track quality 100.0 % Test CRC 5C548CCA Copy CRC 5C548CCA Accurately ripped (confidence 3) [BE76BE30] (AR v2) Copy OK

Track 7

Filename C:\rips\Sean Paul - 2002 - Dutty Rock [FLAC]\07 - Police Skit.wav

Pre-gap length 0:00:00.84

Peak level 96.4 % Extraction speed 5.9 X Track quality 100.0 % Test CRC CC72BE6D Copy CRC CC72BE6D Accurately ripped (confidence 3) [3C4EC869] (AR v2) Copy OK

Track 8

Filename C:\rips\Sean Paul - 2002 - Dutty Rock [FLAC]\08 - Ganja Breed (Feat. Chico).wav

Peak level 97.2 % Extraction speed 6.8 X Track quality 100.0 % Test CRC 21E2E4DF Copy CRC 21E2E4DF Accurately ripped (confidence 3) [2AADF7A8] (AR v2) Copy OK

Track 9

Filename C:\rips\Sean Paul - 2002 - Dutty Rock [FLAC]\09 - Concrete.wav

Pre-gap length 0:00:00.86

Peak level 99.8 % Extraction speed 7.2 X Track quality 100.0 % Test CRC E7D1B26A Copy CRC E7D1B26A Accurately ripped (confidence 3) [02EE01A9] (AR v2) Copy OK

Track 10

Filename C:\rips\Sean Paul - 2002 - Dutty Rock [FLAC]\10 - I'm Still In Love With You (Feat. Sasha).wav

Pre-gap length 0:00:00.89

Peak level 98.4 % Extraction speed 7.7 X Track quality 100.0 % Test CRC 3CE24CE0 Copy CRC 3CE24CE0 Accurately ripped (confidence 3) [68ED03DE] (AR v2) Copy OK

Track 11

Filename C:\rips\Sean Paul - 2002 - Dutty Rock [FLAC]\11 - International Affair (Feat. Debbie Nova).wav

Pre-gap length 0:00:00.26

Peak level 93.4 % Extraction speed 3.8 X Track quality 99.9 % Test CRC 1C5E7EAE Copy CRC 1C5E7EAE Accurately ripped (confidence 3) [7022B36F] (AR v2) Copy OK

Track 12

Filename C:\rips\Sean Paul - 2002 - Dutty Rock [FLAC]\12 - Can You Do The Work (Feat. Ce'cile).wav

Pre-gap length 0:00:00.62

Peak level 95.6 % Extraction speed 7.9 X Track quality 100.0 % Test CRC DC238F31 Copy CRC DC238F31 Accurately ripped (confidence 3) [1E68FA8E] (AR v2) Copy OK

Track 13

Filename C:\rips\Sean Paul - 2002 - Dutty Rock [FLAC]\13 - Punkie.wav

Pre-gap length 0:00:00.96

Peak level 97.8 % Extraction speed 8.2 X Track quality 100.0 % Test CRC FDD51A2A Copy CRC FDD51A2A Accurately ripped (confidence 3) [0437BB22] (AR v2) Copy OK

Track 14

Filename C:\rips\Sean Paul - 2002 - Dutty Rock [FLAC]\14 - My Name.wav

Pre-gap length 0:00:00.84

Peak level 96.7 % Extraction speed 3.7 X Track quality 99.9 % Test CRC 8134221A Copy CRC 8134221A Accurately ripped (confidence 3) [261027F0] (AR v2) Copy OK

Track 15

Filename C:\rips\Sean Paul - 2002 - Dutty Rock [FLAC]\15 - Jukin' Punny.wav

Pre-gap length 0:00:00.84

Peak level 99.9 % Extraction speed 7.6 X Track quality 100.0 % Test CRC 502E5957 Copy CRC 502E5957 Accurately ripped (confidence 3) [8DFCFD3C] (AR v2) Copy OK

Track 16

Filename C:\rips\Sean Paul - 2002 - Dutty Rock [FLAC]\16 - Uptown Haters Skit.wav

Pre-gap length 0:00:00.86

Peak level 99.9 % Extraction speed 1.9 X Track quality 99.8 % Test CRC 3E1B112A Copy CRC 3E1B112A Accurately ripped (confidence 3) [E78DBDD7] (AR v2) Copy OK

Track 17

Filename C:\rips\Sean Paul - 2002 - Dutty Rock [FLAC]\17 - Gimme The Light (Pass The Dro-Voisier Remix) (Feat. Busta Rhymes).wav

Pre-gap length 0:00:00.17

Peak level 98.3 % Extraction speed 8.7 X Track quality 100.0 % Test CRC 94927FC0 Copy CRC 94927FC0 Accurately ripped (confidence 3) [51A16BC0] (AR v2) Copy OK

Track 18

Filename C:\rips\Sean Paul - 2002 - Dutty Rock [FLAC]\18 - Bubble (Feat. Fahrenheit).wav

Peak level 93.6 % Extraction speed 9.1 X Track quality 100.0 % Test CRC 4C96D41D Copy CRC 4C96D41D Accurately ripped (confidence 3) [356EB474] (AR v2) Copy OK

Track 19

Filename C:\rips\Sean Paul - 2002 - Dutty Rock [FLAC]\19 - Shake That Thing.wav

Pre-gap length 0:00:00.69

Peak level 94.6 % Extraction speed 9.3 X Track quality 100.0 % Test CRC 38F4B5FA Copy CRC 38F4B5FA Accurately ripped (confidence 3) [BA358D6C] (AR v2) Copy OK

Track 20

Filename C:\rips\Sean Paul - 2002 - Dutty Rock [FLAC]\20 - Esa Loca (Feat. Tony Touch & R.O.B.B).wav

Pre-gap length 0:00:00.37

Peak level 98.2 % Extraction speed 9.3 X Track quality 100.0 % Test CRC 1E306D0D Copy CRC 1E306D0D Accurately ripped (confidence 3) [B17C0811] (AR v2) Copy OK

Track 21

Filename C:\rips\Sean Paul - 2002 - Dutty Rock [FLAC]\21 - It's On.wav

Pre-gap length 0:00:00.86

Peak level 96.9 % Extraction speed 9.6 X Track quality 100.0 % Test CRC 5347B2EF Copy CRC 5347B2EF Accurately ripped (confidence 3) [6D629388] (AR v2) Copy OK

Track 22

Filename C:\rips\Sean Paul - 2002 - Dutty Rock [FLAC]\22 - Punkie (Espaol).wav

Pre-gap length 0:00:01.50

Peak level 97.4 % Extraction speed 9.8 X Track quality 100.0 % Test CRC C04AB0FD Copy CRC C04AB0FD Accurately ripped (confidence 2) [EE1DBA1E] (AR v2) Copy OK

All tracks accurately ripped

No errors occurred

End of status report

==== Log checksum 9B60398EBBCB8C7553863126F140622354709FEBAEC968385BF21D79537EA051 ====
 
REM GENRE ReggaeREM DATE 2002REM DISCID 53119A16REM COMMENT "ExactAudioCopy v1.0b2"FILE "01 - Dutty Rock Intro.wav" WAVE TRACK 01 AUDIO INDEX 01 00:00:00 TRACK 02 AUDIO INDEX 00 02:24:45FILE "02 - Shout (Street Respect).wav" WAVE INDEX 01 00:00:00 TRACK 03 AUDIO INDEX 00 03:43:12FILE "03 - Gimme The Light.wav" WAVE INDEX 01 00:00:00 TRACK 04 AUDIO INDEX 00 03:46:15FILE "04 - Like Glue.wav" WAVE INDEX 01 00:00:00 TRACK 05 AUDIO INDEX 00 03:53:38FILE "05 - Get Busy.wav" WAVE INDEX 01 00:00:00 TRACK 06 AUDIO INDEX 00 03:31:18FILE "06 - Top Of The Game (Feat. Rahzel).wav" WAVE INDEX 01 00:00:00 TRACK 07 AUDIO INDEX 00 04:03:67FILE "07 - Police Skit.wav" WAVE INDEX 01 00:00:00FILE "08 - Ganja Breed (Feat. Chico).wav" WAVE TRACK 08 AUDIO INDEX 01 00:00:00 TRACK 09 AUDIO INDEX 00 03:14:20FILE "09 - Concrete.wav" WAVE INDEX 01 00:00:00 TRACK 10 AUDIO INDEX 00 03:54:08FILE "10 - I'm Still In Love With You (Feat. Sasha).wav" WAVE INDEX 01 00:00:00 TRACK 11 AUDIO INDEX 00 04:32:60FILE "11 - International Affair (Feat. Debbie Nova).wav" WAVE INDEX 01 00:00:00 TRACK 12 AUDIO INDEX 00 03:48:58FILE "12 - Can You Do The Work (Feat. Ce'cile).wav" WAVE INDEX 01 00:00:00 TRACK 13 AUDIO INDEX 00 03:23:58FILE "13 - Punkie.wav" WAVE INDEX 01 00:00:00 TRACK 14 AUDIO INDEX 00 03:34:00FILE "14 - My Name.wav" WAVE INDEX 01 00:00:00 TRACK 15 AUDIO INDEX 00 03:39:42FILE "15 - Jukin' Punny.wav" WAVE INDEX 01 00:00:00 TRACK 16 AUDIO INDEX 00 02:01:42FILE "16 - Uptown Haters Skit.wav" WAVE INDEX 01 00:00:00 TRACK 17 AUDIO INDEX 00 01:24:60FILE "17 - Gimme The Light (Pass The Dro-Voisier Remix) (Feat. Busta Rhymes).wav" WAVE INDEX 01 00:00:00FILE "18 - Bubble (Feat. Fahrenheit).wav" WAVE TRACK 18 AUDIO INDEX 01 00:00:00 TRACK 19 AUDIO INDEX 00 03:46:60FILE "19 - Shake That Thing.wav" WAVE INDEX 01 00:00:00 TRACK 20 AUDIO INDEX 00 03:53:60FILE "20 - Esa Loca (Feat. Tony Touch & R.O.B.B).wav" WAVE INDEX 01 00:00:00 TRACK 21 AUDIO INDEX 00 03:46:27FILE "21 - It's On.wav" WAVE INDEX 01 00:00:00 TRACK 22 AUDIO INDEX 00 03:37:10FILE "22 - Punkie (Espaol).wav" WAVE INDEX 01 00:00:00
Год издания: 2003
Аудиокодек: FLAC (*.flac)
Тип рипа: tracks+.cue
Битрейт аудио: lossless
Продолжительность: 01:12:12
Наличие сканов в содержимом раздачи: ДА
Треклист:
01. Dutty Rock Intro
02. Shout (Stret Repect)
03. Gimme The Light
04. Like Glue
05. Get Busy
06. Baby Boy (Feat. Beyonce)
07. Top Of The Game (Feat. Rahzel)
08. Ganja Breed (Feat. Chico)
09. Concrete
10. I'm Still In Love With You (Feat. Sasha)
11. International Affair (Feat. Debbie Nova)
12. Can You Do The Work (Feat. Ce'Cile)
13. Punkie
14. My Name
15. Junkin' Punny
16. Gimme The Light (Pass The Dro-Voisier Remix) (Feat. Busta Rhymes)
17. Bubble (Feat. Fahrenheit)
18. Shake That Thing
19. Esa Loca (Feat. Tony Touch & R.O.B.B.)
20. Punkie
 
Exact Audio Copy V0.99 prebeta 5 from 4. May 2009

EAC extraction logfile from 17. October 2009, 19:59

Sean Paul / Dutty Rock

Used drive : Optiarc DVD RW AD-7561A Adapter: 2 ID: 0

Read mode : SecureUtilize accurate stream : YesDefeat audio cache : YesMake use of C2 pointers : No

Read offset correction : 6Overread into Lead-In and Lead-Out : NoFill up missing offset samples with silence : YesDelete leading and trailing silent blocks : NoNull samples used in CRC calculations : YesUsed interface : Native Win32 interface for Win NT & 2000Gap handling : Appended to previous track

Used output format : User Defined EncoderSelected bitrate : 128 kBit/sQuality : HighAdd ID3 tag : NoCommand line compressor : C:\Program Files\Exact Audio Copy\Flac\flac.exeAdditional command line options : -V -8 -T "artist=%a" -T "title=%t" -T "album=%g" -T "date=%y" -T "tracknumber=%n" -T "genre=%m" %s

TOC of the extracted CD

Track | Start | Length | Start sector | End sector --------------------------------------------------------- 1 | 0:00.00 | 2:24.70 | 0 | 10869 2 | 2:24.70 | 3:44.02 | 10870 | 27671 3 | 6:08.72 | 3:46.35 | 27672 | 44656 4 | 9:55.32 | 3:54.30 | 44657 | 62236 5 | 13:49.62 | 3:31.63 | 62237 | 78124 6 | 17:21.50 | 4:05.24 | 78125 | 96523 7 | 21:26.74 | 4:04.55 | 96524 | 114878 8 | 25:31.54 | 3:15.10 | 114879 | 129513 9 | 28:46.64 | 3:55.00 | 129514 | 147138 10 | 32:41.64 | 4:33.05 | 147139 | 167618 11 | 37:14.69 | 3:49.30 | 167619 | 184823 12 | 41:04.24 | 3:24.55 | 184824 | 200178 13 | 44:29.04 | 3:34.63 | 200179 | 216291 14 | 48:03.67 | 3:40.30 | 216292 | 232821 15 | 51:44.22 | 2:02.17 | 232822 | 241988 16 | 53:46.39 | 3:20.55 | 241989 | 257043 17 | 57:07.19 | 3:47.37 | 257044 | 274105 18 | 60:54.56 | 3:54.13 | 274106 | 291668 19 | 64:48.69 | 3:48.14 | 291669 | 308782 20 | 68:37.08 | 3:35.05 | 308783 | 324912

Track 1

Filename O:\Music\FLAC (CD)\Sean Paul\Dutty Rock\01 Dutty Rock Intro.wav

Pre-gap length 0:00:02.00

Peak level 87.8 % Track quality 100.0 % Test CRC 78B3F3F0 Copy CRC 78B3F3F0 Accurately ripped (confidence 33) [C0DC4D2D] Copy OK

Track 2

Filename O:\Music\FLAC (CD)\Sean Paul\Dutty Rock\02 Shout (Stret Respect).wav

Pre-gap length 0:00:00.33

Peak level 87.8 % Track quality 100.0 % Test CRC E8DCA8B9 Copy CRC E8DCA8B9 Accurately ripped (confidence 33) [7E6E5AC2] Copy OK

Track 3

Filename O:\Music\FLAC (CD)\Sean Paul\Dutty Rock\03 Gimme the Light.wav

Pre-gap length 0:00:00.86

Peak level 89.2 % Track quality 99.9 % Test CRC F1CF3221 Copy CRC F1CF3221 Accurately ripped (confidence 33) [AA4977E3] Copy OK

Track 4

Filename O:\Music\FLAC (CD)\Sean Paul\Dutty Rock\04 Like Glue.wav

Pre-gap length 0:00:00.26

Peak level 93.3 % Track quality 100.0 % Test CRC 5EEC4FB4 Copy CRC 5EEC4FB4 Accurately ripped (confidence 33) [0AF54B84] Copy OK

Track 5

Filename O:\Music\FLAC (CD)\Sean Paul\Dutty Rock\05 Get Busy.wav

Pre-gap length 0:00:00.89

Peak level 98.3 % Track quality 99.9 % Test CRC 4D092952 Copy CRC 4D092952 Accurately ripped (confidence 32) [5DAFD4A7] Copy OK

Track 6

Filename O:\Music\FLAC (CD)\Sean Paul\Dutty Rock\06 Baby Boy.wav

Pre-gap length 0:00:00.60

Peak level 98.8 % Track quality 100.0 % Test CRC A8F0B861 Copy CRC A8F0B861 Accurately ripped (confidence 32) [B3E3A265] Copy OK

Track 7

Filename O:\Music\FLAC (CD)\Sean Paul\Dutty Rock\07 Top of the Game.wav

Peak level 96.8 % Track quality 99.9 % Test CRC 4177F4DA Copy CRC 4177F4DA Accurately ripped (confidence 32) [33DC1774] Copy OK

Track 8

Filename O:\Music\FLAC (CD)\Sean Paul\Dutty Rock\08 Ganja Breed.wav

Pre-gap length 0:00:00.84

Peak level 97.2 % Track quality 100.0 % Test CRC 4876E438 Copy CRC 4876E438 Accurately ripped (confidence 32) [8CA7B897] Copy OK

Track 9

Filename O:\Music\FLAC (CD)\Sean Paul\Dutty Rock\09 Concrete.wav

Pre-gap length 0:00:00.86

Peak level 99.8 % Track quality 100.0 % Test CRC 833C5B94 Copy CRC 833C5B94 Accurately ripped (confidence 32) [A175F4E3] Copy OK

Track 10

Filename O:\Music\FLAC (CD)\Sean Paul\Dutty Rock\10 I'm Still in Love with You.wav

Pre-gap length 0:00:00.89

Peak level 98.4 % Track quality 100.0 % Test CRC D0272D11 Copy CRC D0272D11 Accurately ripped (confidence 32) [F92532A9] Copy OK

Track 11

Filename O:\Music\FLAC (CD)\Sean Paul\Dutty Rock\11 International Affair.wav

Pre-gap length 0:00:00.26

Peak level 93.4 % Track quality 100.0 % Test CRC BB255BD7 Copy CRC BB255BD7 Accurately ripped (confidence 32) [B013B2B4] Copy OK

Track 12

Filename O:\Music\FLAC (CD)\Sean Paul\Dutty Rock\12 Can You Do the Work.wav

Pre-gap length 0:00:00.62

Peak level 95.6 % Track quality 100.0 % Test CRC FC437D01 Copy CRC FC437D01 Accurately ripped (confidence 32) [EE114996] Copy OK

Track 13

Filename O:\Music\FLAC (CD)\Sean Paul\Dutty Rock\13 Punkie.wav

Pre-gap length 0:00:00.96

Peak level 97.8 % Track quality 99.9 % Test CRC F8038B91 Copy CRC F8038B91 Accurately ripped (confidence 32) [3908B524] Copy OK

Track 14

Filename O:\Music\FLAC (CD)\Sean Paul\Dutty Rock\14 My Name.wav

Pre-gap length 0:00:00.84

Peak level 96.7 % Track quality 100.0 % Test CRC 65C4EF29 Copy CRC 65C4EF29 Accurately ripped (confidence 32) [79E31A61] Copy OK

Track 15

Filename O:\Music\FLAC (CD)\Sean Paul\Dutty Rock\15 Jukin' Punny.wav

Pre-gap length 0:00:00.84

Peak level 99.9 % Track quality 100.0 % Test CRC 13341F19 Copy CRC 13341F19 Accurately ripped (confidence 31) [1A6B3971] Copy OK

Track 16

Filename O:\Music\FLAC (CD)\Sean Paul\Dutty Rock\16 Gimme the Light (Pass the Dro-Voisier Remix).wav

Pre-gap length 0:00:00.66

Peak level 98.3 % Track quality 100.0 % Test CRC 64E2933B Copy CRC 64E2933B Accurately ripped (confidence 32) [431A4909] Copy OK

Track 17

Filename O:\Music\FLAC (CD)\Sean Paul\Dutty Rock\17 Bubble.wav

Peak level 93.6 % Track quality 100.0 % Test CRC 570E01BF Copy CRC 570E01BF Accurately ripped (confidence 31) [CA368A2F] Copy OK

Track 18

Filename O:\Music\FLAC (CD)\Sean Paul\Dutty Rock\18 Shake That Thing.wav

Pre-gap length 0:00:00.68

Peak level 94.6 % Track quality 100.0 % Test CRC 0BE03553 Copy CRC 0BE03553 Accurately ripped (confidence 31) [732D6A4C] Copy OK

Track 19

Filename O:\Music\FLAC (CD)\Sean Paul\Dutty Rock\19 Esa Loca.wav

Pre-gap length 0:00:00.37

Peak level 98.2 % Track quality 100.0 % Test CRC D363F0D8 Copy CRC D363F0D8 Accurately ripped (confidence 31) [98CE37A7] Copy OK

Track 20

Filename O:\Music\FLAC (CD)\Sean Paul\Dutty Rock\20 Punkie (Espanol).wav

Pre-gap length 0:00:01.81

Peak level 97.4 % Track quality 100.0 % Test CRC 20D5A882 Copy CRC 20D5A882 Accurately ripped (confidence 31) [8C614F39] Copy OK

All tracks accurately ripped

No errors occurred

End of status report
 
REM GENRE "Dance / Reggae"REM DATE 2002REM DISCID 2D10EC14REM COMMENT "ExactAudioCopy v0.99pb5"PERFORMER "Sean Paul"TITLE "Dutty Rock"FILE "01 Dutty Rock Intro.wav" WAVE TRACK 01 AUDIO TITLE "Dutty Rock Intro" PERFORMER "Sean Paul" INDEX 01 00:00:00 TRACK 02 AUDIO TITLE "Shout (Stret Respect)" PERFORMER "Sean Paul" INDEX 00 02:24:45FILE "02 Shout (Stret Respect).wav" WAVE INDEX 01 00:00:00 TRACK 03 AUDIO TITLE "Gimme the Light" PERFORMER "Sean Paul" INDEX 00 03:43:12FILE "03 Gimme the Light.wav" WAVE INDEX 01 00:00:00 TRACK 04 AUDIO TITLE "Like Glue" PERFORMER "Sean Paul" INDEX 00 03:46:15FILE "04 Like Glue.wav" WAVE INDEX 01 00:00:00 TRACK 05 AUDIO TITLE "Get Busy" PERFORMER "Sean Paul" INDEX 00 03:53:38FILE "05 Get Busy.wav" WAVE INDEX 01 00:00:00 TRACK 06 AUDIO TITLE "Baby Boy" PERFORMER "Sean Paul" INDEX 00 03:31:18FILE "06 Baby Boy.wav" WAVE INDEX 01 00:00:00FILE "07 Top of the Game.wav" WAVE TRACK 07 AUDIO TITLE "Top of the Game" PERFORMER "Sean Paul" INDEX 01 00:00:00 TRACK 08 AUDIO TITLE "Ganja Breed" PERFORMER "Sean Paul" INDEX 00 04:03:67FILE "08 Ganja Breed.wav" WAVE INDEX 01 00:00:00 TRACK 09 AUDIO TITLE "Concrete" PERFORMER "Sean Paul" INDEX 00 03:14:20FILE "09 Concrete.wav" WAVE INDEX 01 00:00:00 TRACK 10 AUDIO TITLE "I'm Still in Love with You" PERFORMER "Sean Paul" INDEX 00 03:54:08FILE "10 I'm Still in Love with You.wav" WAVE INDEX 01 00:00:00 TRACK 11 AUDIO TITLE "International Affair" PERFORMER "Sean Paul" INDEX 00 04:32:60FILE "11 International Affair.wav" WAVE INDEX 01 00:00:00 TRACK 12 AUDIO TITLE "Can You Do the Work" PERFORMER "Sean Paul" INDEX 00 03:48:58FILE "12 Can You Do the Work.wav" WAVE INDEX 01 00:00:00 TRACK 13 AUDIO TITLE "Punkie" PERFORMER "Sean Paul" INDEX 00 03:23:58FILE "13 Punkie.wav" WAVE INDEX 01 00:00:00 TRACK 14 AUDIO TITLE "My Name" PERFORMER "Sean Paul" INDEX 00 03:34:00FILE "14 My Name.wav" WAVE INDEX 01 00:00:00 TRACK 15 AUDIO TITLE "Jukin' Punny" PERFORMER "Sean Paul" INDEX 00 03:39:42FILE "15 Jukin' Punny.wav" WAVE INDEX 01 00:00:00 TRACK 16 AUDIO TITLE "Gimme the Light (Pass the Dro-Voisier Remix)" PERFORMER "Sean Paul" INDEX 00 02:01:42FILE "16 Gimme the Light (Pass the Dro-Voisier Remix).wav" WAVE INDEX 01 00:00:00FILE "17 Bubble.wav" WAVE TRACK 17 AUDIO TITLE "Bubble" PERFORMER "Sean Paul" INDEX 01 00:00:00 TRACK 18 AUDIO TITLE "Shake That Thing" PERFORMER "Sean Paul" INDEX 00 03:46:61FILE "18 Shake That Thing.wav" WAVE INDEX 01 00:00:00 TRACK 19 AUDIO TITLE "Esa Loca" PERFORMER "Sean Paul" INDEX 00 03:53:60FILE "19 Esa Loca.wav" WAVE INDEX 01 00:00:00 TRACK 20 AUDIO TITLE "Punkie (Espanol)" PERFORMER "Sean Paul" INDEX 00 03:46:28FILE "20 Punkie (Espanol).wav" WAVE INDEX 01 00:00:00
Год издания: 2004
Аудиокодек: FLAC (*.flac)
Тип рипа: tracks+.cue
Битрейт аудио: lossless
Продолжительность: 01:19:12
Наличие сканов в содержимом раздачи: нет
Треклист:
01 - Dutty Rock (Intro)
02 - Shout (Street Respect)
03 - Gimme The Light
04 - Like Glue
05 - Get Busy
06 - Top Of The Game (Feat. Rahzel)
07 - Police (Skit)
08 - Ganja Breed (Feat. Chico)
09 - Concrete
10 - I'm Still In Love With You (Feat. Sasha)
11 - International Affair (Feat. Debbie Nova)
12 - Can You Do The Work (Feat. Ce'Cile)
13 - Punkie
14 - My Name
15 - Jukin' Punny
16 - Uptown Haters (Skit)
17 - Gimme The Light (Pass The Dro-Voisier Remix) (Feat. Busta Rhymes)
18 - Bubble (Feat. Fahrenheit)
19 - Shake That Thang
20 - Esa Loca (Feat. Tony Touch & R.O.B.B.)
21 - It's On
22 - Punkie (Espanol)
23 - Baby Boy (Feat. Beyonce) (Bonus Track)
 
Exact Audio Copy V0.99 prebeta 4 from 23. January 2008

Отчёт EAC об извлечении, выполненном 6. августа 2009, 13:14

Sean Paul / Dutty Rock

Дисковод: _NEC DVD_RW ND-3520A Adapter: 3 ID: 0

Режим чтения : ДостоверностьИспользование точного потока : ДаОтключение кэша аудио : ДаИспользование указателей C2 : Нет

Коррекция смещения при чтении : 48Способность читать области Lead-in и Lead-out : НетЗаполнение пропущенных сэмплов тишиной : ДаУдаление блоков с тишиной в начале и конце : НетПри вычислениях CRC использовались нулевые сэмплы : ДаИнтерфейс : Установленный внешний ASPI-интерфейсОбработка зазоров : Не обнаружено, добавлено к предыдущему треку

Выходной формат : Пользовательский кодировщикВыбранный битрейт : 1024 kBit/sКачество : ВысокийДобавление ID3-тэга : НетУтилита сжатия : F:\Soft\Exact Audio Copy 0.99\Flac\flac.exeДополнительные параметры : -6 -V -T "ARTIST=%a" -T "TITLE=%t" -T "ALBUM=%g" -T "DATE=%y" -T "TRACKNUMBER=%n" -T "GENRE=%m" -T "COMMENT=%e" %s -o %d

TOC извлечённого CD

Трек | Старт | Длительность | Начальный сектор | Конечный сектор --------------------------------------------------------------------- 1 | 0:00.01 | 2:24.67 | 1 | 10867 2 | 2:24.68 | 3:44.04 | 10868 | 27671 3 | 6:08.72 | 3:46.26 | 27672 | 44647 4 | 9:55.23 | 3:54.30 | 44648 | 62227 5 | 13:49.53 | 3:32.08 | 62228 | 78135 6 | 17:21.61 | 4:04.64 | 78136 | 96499 7 | 21:26.50 | 1:56.03 | 96500 | 105202 8 | 23:22.53 | 3:15.06 | 105203 | 119833 9 | 26:37.59 | 3:55.07 | 119834 | 137465 10 | 30:32.66 | 4:32.72 | 137466 | 157937 11 | 35:05.63 | 3:49.30 | 157938 | 175142 12 | 38:55.18 | 3:24.63 | 175143 | 190505 13 | 42:20.06 | 3:34.64 | 190506 | 206619 14 | 45:54.70 | 3:40.22 | 206620 | 223141 15 | 49:35.17 | 2:02.42 | 223142 | 232333 16 | 51:37.59 | 1:24.61 | 232334 | 238694 17 | 53:02.45 | 3:20.62 | 238695 | 253756 18 | 56:23.32 | 3:47.31 | 253757 | 270812 19 | 60:10.63 | 3:54.13 | 270813 | 288375 20 | 64:05.01 | 3:47.17 | 288376 | 305417 21 | 67:52.18 | 3:38.59 | 305418 | 321826 22 | 71:31.02 | 3:36.13 | 321827 | 338039 23 | 75:07.15 | 4:05.46 | 338040 | 356460

Трек 1

Имя файла F:\EAC\Sean Paul - Dutty Rock (2004)\01 - Dutty Rock (Intro).wav

Пиковый уровень 87.8 % Качество трека 100.0 % CRC теста 75B1F235 CRC копии 75B1F235 Трек не обнаружен в базе AccurateRip Копирование... OK

Трек 2

Имя файла F:\EAC\Sean Paul - Dutty Rock (2004)\02 - Shout (Street Respect).wav

Пиковый уровень 87.8 % Качество трека 99.9 % CRC теста 74DAB8A9 CRC копии 74DAB8A9 Трек не обнаружен в базе AccurateRip Копирование... OK

Трек 3

Имя файла F:\EAC\Sean Paul - Dutty Rock (2004)\03 - Gimme The Light.wav

Пиковый уровень 89.2 % Качество трека 100.0 % CRC теста FD26495D CRC копии FD26495D Трек не обнаружен в базе AccurateRip Копирование... OK

Трек 4

Имя файла F:\EAC\Sean Paul - Dutty Rock (2004)\04 - Like Glue.wav

Пиковый уровень 93.3 % Качество трека 100.0 % CRC теста D9E3CDFE CRC копии D9E3CDFE Трек не обнаружен в базе AccurateRip Копирование... OK

Трек 5

Имя файла F:\EAC\Sean Paul - Dutty Rock (2004)\05 - Get Busy.wav

Пиковый уровень 98.3 % Качество трека 100.0 % CRC теста 5E96F7DB CRC копии 5E96F7DB Трек не обнаружен в базе AccurateRip Копирование... OK

Трек 6

Имя файла F:\EAC\Sean Paul - Dutty Rock (2004)\06 - Top Of The Game (Feat. Rahzel).wav

Пиковый уровень 96.8 % Качество трека 100.0 % CRC теста CCA1548F CRC копии CCA1548F Трек не обнаружен в базе AccurateRip Копирование... OK

Трек 7

Имя файла F:\EAC\Sean Paul - Dutty Rock (2004)\07 - Police (Skit).wav

Пиковый уровень 96.4 % Качество трека 100.0 % CRC теста E083FC03 CRC копии E083FC03 Трек не обнаружен в базе AccurateRip Копирование... OK

Трек 8

Имя файла F:\EAC\Sean Paul - Dutty Rock (2004)\08 - Ganja Breed (Feat. Chico).wav

Пиковый уровень 97.2 % Качество трека 100.0 % CRC теста 6CB98D3C CRC копии 6CB98D3C Трек не обнаружен в базе AccurateRip Копирование... OK

Трек 9

Имя файла F:\EAC\Sean Paul - Dutty Rock (2004)\09 - Concrete.wav

Пиковый уровень 99.8 % Качество трека 99.9 % CRC теста 579D5CCE CRC копии 579D5CCE Трек не обнаружен в базе AccurateRip Копирование... OK

Трек 10

Имя файла F:\EAC\Sean Paul - Dutty Rock (2004)\10 - I'm Still In Love With You (Feat. Sasha).wav

Пиковый уровень 98.4 % Качество трека 99.9 % CRC теста 1ADE46FC CRC копии 1ADE46FC Трек не обнаружен в базе AccurateRip Копирование... OK

Трек 11

Имя файла F:\EAC\Sean Paul - Dutty Rock (2004)\11 - International Affair (Feat. Debbie Nova).wav

Пиковый уровень 93.4 % Качество трека 100.0 % CRC теста C455872B CRC копии C455872B Трек не обнаружен в базе AccurateRip Копирование... OK

Трек 12

Имя файла F:\EAC\Sean Paul - Dutty Rock (2004)\12 - Can You Do The Work (Feat. Ce'Cile).wav

Пиковый уровень 95.6 % Качество трека 100.0 % CRC теста 8B99FE35 CRC копии 8B99FE35 Трек не обнаружен в базе AccurateRip Копирование... OK

Трек 13

Имя файла F:\EAC\Sean Paul - Dutty Rock (2004)\13 - Punkie.wav

Пиковый уровень 97.8 % Качество трека 99.9 % CRC теста 324A9220 CRC копии 324A9220 Трек не обнаружен в базе AccurateRip Копирование... OK

Трек 14

Имя файла F:\EAC\Sean Paul - Dutty Rock (2004)\14 - My Name.wav

Пиковый уровень 96.7 % Качество трека 100.0 % CRC теста 84C9726D CRC копии 84C9726D Трек не обнаружен в базе AccurateRip Копирование... OK

Трек 15

Имя файла F:\EAC\Sean Paul - Dutty Rock (2004)\15 - Jukin' Punny.wav

Пиковый уровень 99.9 % Качество трека 100.0 % CRC теста F4B6F874 CRC копии F4B6F874 Трек не обнаружен в базе AccurateRip Копирование... OK

Трек 16

Имя файла F:\EAC\Sean Paul - Dutty Rock (2004)\16 - Uptown Haters (Skit).wav

Пиковый уровень 99.9 % Качество трека 100.0 % CRC теста 11A252F7 CRC копии 11A252F7 Трек не обнаружен в базе AccurateRip Копирование... OK

Трек 17

Имя файла F:\EAC\Sean Paul - Dutty Rock (2004)\17 - Gimme The Light (Pass The Dro-Voisier Remix) (Feat. Busta Rhymes).wav

Пиковый уровень 98.3 % Качество трека 100.0 % CRC теста C3E383C9 CRC копии C3E383C9 Трек не обнаружен в базе AccurateRip Копирование... OK

Трек 18

Имя файла F:\EAC\Sean Paul - Dutty Rock (2004)\18 - Bubble (Feat. Farenheit).wav

Пиковый уровень 93.6 % Качество трека 100.0 % CRC теста 6E47C0D2 CRC копии 6E47C0D2 Трек не обнаружен в базе AccurateRip Копирование... OK

Трек 19

Имя файла F:\EAC\Sean Paul - Dutty Rock (2004)\19 - Shake That Thing.wav

Пиковый уровень 94.6 % Качество трека 100.0 % CRC теста 0BA6BAA5 CRC копии 0BA6BAA5 Трек не обнаружен в базе AccurateRip Копирование... OK

Трек 20

Имя файла F:\EAC\Sean Paul - Dutty Rock (2004)\20 - Esa Loca (Feat. Tony Touch & R.O.B.B.).wav

Пиковый уровень 98.2 % Качество трека 100.0 % CRC теста F3A86D37 CRC копии F3A86D37 Трек не обнаружен в базе AccurateRip Копирование... OK

Трек 21

Имя файла F:\EAC\Sean Paul - Dutty Rock (2004)\21 - It's On.wav

Пиковый уровень 96.9 % Качество трека 100.0 % CRC теста 4531F55B CRC копии 4531F55B Трек не обнаружен в базе AccurateRip Копирование... OK

Трек 22

Имя файла F:\EAC\Sean Paul - Dutty Rock (2004)\22 - Punkie (Espanol).wav

Пиковый уровень 97.4 % Качество трека 99.9 % CRC теста 66ACFB4E CRC копии 66ACFB4E Трек не обнаружен в базе AccurateRip Копирование... OK

Трек 23

Имя файла F:\EAC\Sean Paul - Dutty Rock (2004)\23 - Baby Boy (Feat. Beyounce) (Bonus Track).wav

Пиковый уровень 100.0 % Качество трека 100.0 % CRC теста 1054AD09 CRC копии 1054AD09 Трек не обнаружен в базе AccurateRip Копирование... OK

Ни одного трека нет в базе AccurateRip

Ошибок не произошло

Конец отчёта
 
REM GENRE ReggaeREM DATE 2004REM DISCID 65129017REM COMMENT "ExactAudioCopy v0.99pb4"PERFORMER "Sean Paul"TITLE "Dutty Rock"FILE "01 - Dutty Rock (Intro).wav" WAVE TRACK 01 AUDIO TITLE "Dutty Rock (Intro)" PERFORMER "Sean Paul" PREGAP 00:00:01 INDEX 01 00:00:00FILE "02 - Shout (Street Respect).wav" WAVE TRACK 02 AUDIO TITLE "Shout (Street Respect)" PERFORMER "Sean Paul" INDEX 01 00:00:00FILE "03 - Gimme The Light.wav" WAVE TRACK 03 AUDIO TITLE "Gimme The Light" PERFORMER "Sean Paul" INDEX 01 00:00:00FILE "04 - Like Glue.wav" WAVE TRACK 04 AUDIO TITLE "Like Glue" PERFORMER "Sean Paul" INDEX 01 00:00:00FILE "05 - Get Busy.wav" WAVE TRACK 05 AUDIO TITLE "Get Busy" PERFORMER "Sean Paul" INDEX 01 00:00:00FILE "06 - Top Of The Game (Feat. Rahzel).wav" WAVE TRACK 06 AUDIO TITLE "Top Of The Game (Feat. Rahzel)" PERFORMER "Sean Paul" INDEX 01 00:00:00FILE "07 - Police (Skit).wav" WAVE TRACK 07 AUDIO TITLE "Police (Skit)" PERFORMER "Sean Paul" INDEX 01 00:00:00FILE "08 - Ganja Breed (Feat. Chico).wav" WAVE TRACK 08 AUDIO TITLE "Ganja Breed (Feat. Chico)" PERFORMER "Sean Paul" INDEX 01 00:00:00FILE "09 - Concrete.wav" WAVE TRACK 09 AUDIO TITLE "Concrete" PERFORMER "Sean Paul" INDEX 01 00:00:00FILE "10 - I'm Still In Love With You (Feat. Sasha).wav" WAVE TRACK 10 AUDIO TITLE "I'm Still In Love With You (Feat. Sasha)" PERFORMER "Sean Paul" INDEX 01 00:00:00FILE "11 - International Affair (Feat. Debbie Nova).wav" WAVE TRACK 11 AUDIO TITLE "International Affair (Feat. Debbie Nova)" PERFORMER "Sean Paul" INDEX 01 00:00:00FILE "12 - Can You Do The Work (Feat. Ce'Cile).wav" WAVE TRACK 12 AUDIO TITLE "Can You Do The Work (Feat. Ce'Cile)" PERFORMER "Sean Paul" INDEX 01 00:00:00FILE "13 - Punkie.wav" WAVE TRACK 13 AUDIO TITLE "Punkie" PERFORMER "Sean Paul" INDEX 01 00:00:00FILE "14 - My Name.wav" WAVE TRACK 14 AUDIO TITLE "My Name" PERFORMER "Sean Paul" INDEX 01 00:00:00FILE "15 - Jukin' Punny.wav" WAVE TRACK 15 AUDIO TITLE "Jukin' Punny" PERFORMER "Sean Paul" INDEX 01 00:00:00FILE "16 - Uptown Haters (Skit).wav" WAVE TRACK 16 AUDIO TITLE "Uptown Haters (Skit)" PERFORMER "Sean Paul" INDEX 01 00:00:00FILE "17 - Gimme The Light (Pass The Dro-Voisier Remix) (Feat. Busta Rhymes).wav" WAVE TRACK 17 AUDIO TITLE "Gimme The Light (Pass The Dro-Voisier Remix) (Feat. Busta Rhymes)" PERFORMER "Sean Paul" INDEX 01 00:00:00FILE "18 - Bubble (Feat. Farenheit).wav" WAVE TRACK 18 AUDIO TITLE "Bubble (Feat. Farenheit)" PERFORMER "Sean Paul" INDEX 01 00:00:00FILE "19 - Shake That Thing.wav" WAVE TRACK 19 AUDIO TITLE "Shake That Thing" PERFORMER "Sean Paul" INDEX 01 00:00:00FILE "20 - Esa Loca (Feat. Tony Touch & R.O.B.B.).wav" WAVE TRACK 20 AUDIO TITLE "Esa Loca (Feat. Tony Touch & R.O.B.B.)" PERFORMER "Sean Paul" INDEX 01 00:00:00FILE "21 - It's On.wav" WAVE TRACK 21 AUDIO TITLE "It's On" PERFORMER "Sean Paul" INDEX 01 00:00:00FILE "22 - Punkie (Espanol).wav" WAVE TRACK 22 AUDIO TITLE "Punkie (Espanol)" PERFORMER "Sean Paul" INDEX 01 00:00:00FILE "23 - Baby Boy (Feat. Beyounce) (Bonus Track).wav" WAVE TRACK 23 AUDIO TITLE "Baby Boy (Feat. Beyounce) (Bonus Track)" PERFORMER "Sean Paul" INDEX 01 00:00:00
Год издания: 2005
Аудиокодек: FLAC (*.flac)
Тип рипа: tracks+.cue
Битрейт аудио: lossless
Продолжительность: 01:02:22
Наличие сканов в содержимом раздачи: ДА
Треклист:
01. Fire Links Intro
02. Head In The Zone
03. We Be Burnin'
04. Send It On
05. Ever Blazin'
06. Eye Deh A Mi Knee
07. Give It Up To Me
08. Yardie Bone (feat. Wayne Marshall)
09. Never Gonna Be The Same
10. I'll Take You There
11. Temperature
12. Breakout
13. Head To Toe
14. Connection (feat. Nina Sky)
15. Straight Up
16. All On Me (feat. Tami Chynn)
17. Change The Game (feat. Looga Man & Kid Kurup)
18. The Trinity
 
Exact Audio Copy V0.99 prebeta 5 from 4. May 2009

EAC extraction logfile from 17. October 2009, 18:36

Sean Paul / The Trinity

Used drive : Optiarc DVD RW AD-7561A Adapter: 2 ID: 0

Read mode : SecureUtilize accurate stream : YesDefeat audio cache : YesMake use of C2 pointers : No

Read offset correction : 6Overread into Lead-In and Lead-Out : NoFill up missing offset samples with silence : YesDelete leading and trailing silent blocks : NoNull samples used in CRC calculations : YesUsed interface : Native Win32 interface for Win NT & 2000Gap handling : Appended to previous track

Used output format : User Defined EncoderSelected bitrate : 128 kBit/sQuality : HighAdd ID3 tag : NoCommand line compressor : C:\Program Files\Exact Audio Copy\Flac\flac.exeAdditional command line options : -V -8 -T "artist=%a" -T "title=%t" -T "album=%g" -T "date=%y" -T "tracknumber=%n" -T "genre=%m" %s

TOC of the extracted CD

Track | Start | Length | Start sector | End sector --------------------------------------------------------- 1 | 0:00.00 | 0:49.17 | 0 | 3691 2 | 0:49.17 | 3:55.11 | 3692 | 21327 3 | 4:44.28 | 3:35.71 | 21328 | 37523 4 | 8:20.24 | 3:38.12 | 37524 | 53885 5 | 11:58.36 | 3:10.67 | 53886 | 68202 6 | 15:09.28 | 2:58.51 | 68203 | 81603 7 | 18:08.04 | 4:02.46 | 81604 | 99799 8 | 22:10.50 | 3:12.44 | 99800 | 114243 9 | 25:23.19 | 3:40.18 | 114244 | 130761 10 | 29:03.37 | 3:56.02 | 130762 | 148463 11 | 32:59.39 | 3:36.56 | 148464 | 164719 12 | 36:36.20 | 2:59.25 | 164720 | 178169 13 | 39:35.45 | 4:21.44 | 178170 | 197788 14 | 43:57.14 | 3:31.28 | 197789 | 213641 15 | 47:28.42 | 3:06.16 | 213642 | 227607 16 | 50:34.58 | 4:18.67 | 227608 | 247024 17 | 54:53.50 | 3:54.01 | 247025 | 264575 18 | 58:47.51 | 3:35.11 | 264576 | 280711

Track 1

Filename O:\Music\FLAC (CD)\Sean Paul\The Trinity\01 Fire Links Intro.wav

Pre-gap length 0:00:02.00

Peak level 99.7 % Track quality 100.0 % Test CRC FD8DF9C0 Copy CRC FD8DF9C0 Accurately ripped (confidence 16) [F420CC4E] Copy OK

Track 2

Filename O:\Music\FLAC (CD)\Sean Paul\The Trinity\02 Head in the Zone.wav

Peak level 99.8 % Track quality 100.0 % Test CRC 2F34DF90 Copy CRC 2F34DF90 Accurately ripped (confidence 15) [E93498F8] Copy OK

Track 3

Filename O:\Music\FLAC (CD)\Sean Paul\The Trinity\03 We Be Burnin'.wav

Pre-gap length 0:00:00.44

Peak level 99.7 % Track quality 100.0 % Test CRC 75087104 Copy CRC 75087104 Accurately ripped (confidence 15) [2776DB6D] Copy OK

Track 4

Filename O:\Music\FLAC (CD)\Sean Paul\The Trinity\04 Send It On.wav

Pre-gap length 0:00:00.76

Peak level 99.8 % Track quality 99.9 % Test CRC F6CADD80 Copy CRC F6CADD80 Accurately ripped (confidence 16) [2D57A984] Copy OK

Track 5

Filename O:\Music\FLAC (CD)\Sean Paul\The Trinity\05 Ever Blazin'.wav

Peak level 99.7 % Track quality 100.0 % Test CRC 7D4C24DE Copy CRC 7D4C24DE Accurately ripped (confidence 16) [4831861E] Copy OK

Track 6

Filename O:\Music\FLAC (CD)\Sean Paul\The Trinity\06 Eye Deh a Mi Knee.wav

Peak level 99.8 % Track quality 100.0 % Test CRC 9022440B Copy CRC 9022440B Accurately ripped (confidence 15) [980553EE] Copy OK

Track 7

Filename O:\Music\FLAC (CD)\Sean Paul\The Trinity\07 Give It Up to Me.wav

Pre-gap length 0:00:01.28

Peak level 99.8 % Track quality 100.0 % Test CRC 8CEE958D Copy CRC 8CEE958D Accurately ripped (confidence 16) [9EFFD474] Copy OK

Track 8

Filename O:\Music\FLAC (CD)\Sean Paul\The Trinity\08 Yardie Bone.wav

Peak level 99.7 % Track quality 99.9 % Test CRC B07C801E Copy CRC B07C801E Accurately ripped (confidence 16) [3BD5F00E] Copy OK

Track 9

Filename O:\Music\FLAC (CD)\Sean Paul\The Trinity\09 Never Gonna Be the Same.wav

Peak level 99.7 % Track quality 100.0 % Test CRC 09C1824F Copy CRC 09C1824F Accurately ripped (confidence 16) [43DF786B] Copy OK

Track 10

Filename O:\Music\FLAC (CD)\Sean Paul\The Trinity\10 I'll Take You There.wav

Pre-gap length 0:00:00.77

Peak level 99.7 % Track quality 100.0 % Test CRC CA87F285 Copy CRC CA87F285 Accurately ripped (confidence 16) [063F6EBC] Copy OK

Track 11

Filename O:\Music\FLAC (CD)\Sean Paul\The Trinity\11 Temperature.wav

Peak level 99.8 % Track quality 100.0 % Test CRC EC72D784 Copy CRC EC72D784 Accurately ripped (confidence 16) [16A6AD41] Copy OK

Track 12

Filename O:\Music\FLAC (CD)\Sean Paul\The Trinity\12 Breakout.wav

Peak level 99.8 % Track quality 99.9 % Test CRC C41B198E Copy CRC C41B198E Accurately ripped (confidence 16) [2D62EEB6] Copy OK

Track 13

Filename O:\Music\FLAC (CD)\Sean Paul\The Trinity\13 Head to Toe.wav

Peak level 99.7 % Track quality 100.0 % Test CRC 75B2B180 Copy CRC 75B2B180 Accurately ripped (confidence 15) [81590FA2] Copy OK

Track 14

Filename O:\Music\FLAC (CD)\Sean Paul\The Trinity\14 Connection.wav

Pre-gap length 0:00:00.25

Peak level 99.8 % Track quality 100.0 % Test CRC C6EF1444 Copy CRC C6EF1444 Accurately ripped (confidence 16) [50C5D2CF] Copy OK

Track 15

Filename O:\Music\FLAC (CD)\Sean Paul\The Trinity\15 Straight Up.wav

Peak level 99.7 % Track quality 100.0 % Test CRC 8D690B97 Copy CRC 8D690B97 Accurately ripped (confidence 16) [F7CBC1DD] Copy OK

Track 16

Filename O:\Music\FLAC (CD)\Sean Paul\The Trinity\16 All on Me.wav

Peak level 99.7 % Track quality 100.0 % Test CRC 4203C258 Copy CRC 4203C258 Accurately ripped (confidence 16) [08D81808] Copy OK

Track 17

Filename O:\Music\FLAC (CD)\Sean Paul\The Trinity\17 Change the Game.wav

Peak level 99.7 % Track quality 100.0 % Test CRC 94525DE4 Copy CRC 94525DE4 Accurately ripped (confidence 16) [332B8407] Copy OK

Track 18

Filename O:\Music\FLAC (CD)\Sean Paul\The Trinity\18 The Trinity.wav

Peak level 99.8 % Track quality 100.0 % Test CRC 4D0A2981 Copy CRC 4D0A2981 Accurately ripped (confidence 16) [6E046552] Copy OK

All tracks accurately ripped

No errors occurred

End of status report
 
REM GENRE ReggaeREM DATE 2005REM DISCID F30E9E12REM COMMENT "ExactAudioCopy v0.99pb5"PERFORMER "Sean Paul"TITLE "The Trinity"FILE "01 Fire Links Intro.wav" WAVE TRACK 01 AUDIO TITLE "Fire Links Intro" PERFORMER "Sean Paul" FLAGS DCP INDEX 01 00:00:00FILE "02 Head in the Zone.wav" WAVE TRACK 02 AUDIO TITLE "Head in the Zone" PERFORMER "Sean Paul" FLAGS DCP INDEX 01 00:00:00 TRACK 03 AUDIO TITLE "We Be Burnin'" PERFORMER "Sean Paul" FLAGS DCP INDEX 00 03:54:53FILE "03 We Be Burnin'.wav" WAVE INDEX 01 00:00:00 TRACK 04 AUDIO TITLE "Send It On" PERFORMER "Sean Paul" FLAGS DCP INDEX 00 03:35:14FILE "04 Send It On.wav" WAVE INDEX 01 00:00:00FILE "05 Ever Blazin'.wav" WAVE TRACK 05 AUDIO TITLE "Ever Blazin'" PERFORMER "Sean Paul" FLAGS DCP INDEX 01 00:00:00FILE "06 Eye Deh a Mi Knee.wav" WAVE TRACK 06 AUDIO TITLE "Eye Deh a Mi Knee" PERFORMER "Sean Paul" FLAGS DCP INDEX 01 00:00:00 TRACK 07 AUDIO TITLE "Give It Up to Me" PERFORMER "Sean Paul" FLAGS DCP INDEX 00 02:57:30FILE "07 Give It Up to Me.wav" WAVE INDEX 01 00:00:00FILE "08 Yardie Bone.wav" WAVE TRACK 08 AUDIO TITLE "Yardie Bone" PERFORMER "Sean Paul" FLAGS DCP INDEX 01 00:00:00FILE "09 Never Gonna Be the Same.wav" WAVE TRACK 09 AUDIO TITLE "Never Gonna Be the Same" PERFORMER "Sean Paul" FLAGS DCP INDEX 01 00:00:00 TRACK 10 AUDIO TITLE "I'll Take You There" PERFORMER "Sean Paul" FLAGS DCP INDEX 00 03:39:35FILE "10 I'll Take You There.wav" WAVE INDEX 01 00:00:00FILE "11 Temperature.wav" WAVE TRACK 11 AUDIO TITLE "Temperature" PERFORMER "Sean Paul" FLAGS DCP INDEX 01 00:00:00FILE "12 Breakout.wav" WAVE TRACK 12 AUDIO TITLE "Breakout" PERFORMER "Sean Paul" FLAGS DCP INDEX 01 00:00:00FILE "13 Head to Toe.wav" WAVE TRACK 13 AUDIO TITLE "Head to Toe" PERFORMER "Sean Paul" FLAGS DCP INDEX 01 00:00:00 TRACK 14 AUDIO TITLE "Connection" PERFORMER "Sean Paul" FLAGS DCP INDEX 00 04:21:25FILE "14 Connection.wav" WAVE INDEX 01 00:00:00FILE "15 Straight Up.wav" WAVE TRACK 15 AUDIO TITLE "Straight Up" PERFORMER "Sean Paul" FLAGS DCP INDEX 01 00:00:00FILE "16 All on Me.wav" WAVE TRACK 16 AUDIO TITLE "All on Me" PERFORMER "Sean Paul" FLAGS DCP INDEX 01 00:00:00FILE "17 Change the Game.wav" WAVE TRACK 17 AUDIO TITLE "Change the Game" PERFORMER "Sean Paul" FLAGS DCP INDEX 01 00:00:00FILE "18 The Trinity.wav" WAVE TRACK 18 AUDIO TITLE "The Trinity" PERFORMER "Sean Paul" FLAGS DCP INDEX 01 00:00:00
Год издания: 2006
Аудиокодек: FLAC (*.flac)
Тип рипа: tracks+.cue
Битрейт аудио: lossless
Продолжительность: 01:03:08 + 21:40
Наличие сканов в содержимом раздачи: ДА
Треклист:
CD1

01. Fire Links Intro
02. Head In The Zone
03. We Be Burnin'
04. Send It On
05. Ever Blazin'
06. Eye Deh A Mi Knee
07. Give It Up To Me
08. Yardie Bone (feat. Wayne Marshall)
09. Never Gonna Be The Same
10. I'll Take You There
11. Temperature
12. Breakout
13. Head To Toe
14. Connection (feat. Nina Sky)
15. Straight Up
16. All On Me (feat. Tami Chynn)
17. Change The Game (feat. Looga Man & Kid Kurup)
18. The Trinity

CD2

01. Cry Baby Cry (feat. Carlos Santana, Joss Stone)
02. Break It Off (feat. Rihanna)
03. As Time Goes On (non-album track)
04. Temperature (AOL Session)
05. Get Busy (AOL Session)
06. Never Gonna Be The Same (AOL Session)
 
Exact Audio Copy V0.99 prebeta 4 from 23. January 2008

EAC extraction logfile from 10. April 2009, 8:35

Sean Paul / The Trinity (Disc 1)

Used drive : Optiarc DVD RW AD-7173A Adapter: 0 ID: 1

Read mode : SecureUtilize accurate stream : YesDefeat audio cache : YesMake use of C2 pointers : No

Read offset correction : 48Overread into Lead-In and Lead-Out : NoFill up missing offset samples with silence : YesDelete leading and trailing silent blocks : NoNull samples used in CRC calculations : YesUsed interface : Installed external ASPI interfaceGap handling : Appended to previous track

Used output format : User Defined EncoderSelected bitrate : 768 kBit/sQuality : HighAdd ID3 tag : NoCommand line compressor : C:\Program Files\FLAC\flac.exeAdditional command line options : -8 -V -T "artist=%a" -T "title=%t" -T "album=%g" -T "date=%y" -T "tracknumber=%n" -T "genre=%m" %s

TOC of the extracted CD

Track | Start | Length | Start sector | End sector --------------------------------------------------------- 1 | 0:00.00 | 0:51.09 | 0 | 3833 2 | 0:51.09 | 3:56.62 | 3834 | 21595 3 | 4:47.71 | 3:37.47 | 21596 | 37917 4 | 8:25.43 | 3:40.60 | 37918 | 54477 5 | 12:06.28 | 3:12.66 | 54478 | 68943 6 | 15:19.19 | 2:59.40 | 68944 | 82408 7 | 18:18.59 | 4:17.26 | 82409 | 101709 8 | 22:36.10 | 3:14.39 | 101710 | 116298 9 | 25:50.49 | 3:41.46 | 116299 | 132919 10 | 29:32.20 | 3:58.49 | 132920 | 150818 11 | 33:30.69 | 3:38.54 | 150819 | 167222 12 | 37:09.48 | 3:01.24 | 167223 | 180821 13 | 40:10.72 | 4:23.36 | 180822 | 200582 14 | 44:34.33 | 3:33.36 | 200583 | 216593 15 | 48:07.69 | 3:08.17 | 216594 | 230710 16 | 51:16.11 | 4:20.64 | 230711 | 250274 17 | 55:37.00 | 3:56.03 | 250275 | 267977 18 | 59:33.03 | 3:35.20 | 267978 | 284122

Track 1

Filename C:\Downloads\Sean Paul - The Trinity - 2006\Sean Paul - The Trinity (Disc 1)\01 - Fire Links Intro.wav

Pre-gap length 0:00:02.00

Peak level 99.7 % Track quality 99.6 % Test CRC ADA2658D Copy CRC ADA2658D Track not present in AccurateRip database Copy OK

Track 2

Filename C:\Downloads\Sean Paul - The Trinity - 2006\Sean Paul - The Trinity (Disc 1)\02 - Head In The Zone.wav

Pre-gap length 0:00:02.00

Peak level 99.8 % Track quality 100.0 % Test CRC 221518C2 Copy CRC 221518C2 Track not present in AccurateRip database Copy OK

Track 3

Filename C:\Downloads\Sean Paul - The Trinity - 2006\Sean Paul - The Trinity (Disc 1)\03 - We Be Burnin'.wav

Pre-gap length 0:00:02.00

Peak level 99.7 % Track quality 100.0 % Test CRC 0913F593 Copy CRC 0913F593 Track not present in AccurateRip database Copy OK

Track 4

Filename C:\Downloads\Sean Paul - The Trinity - 2006\Sean Paul - The Trinity (Disc 1)\04 - Send It On.wav

Pre-gap length 0:00:02.00

Peak level 99.8 % Track quality 99.9 % Test CRC A5AEB1E0 Copy CRC A5AEB1E0 Track not present in AccurateRip database Copy OK

Track 5

Filename C:\Downloads\Sean Paul - The Trinity - 2006\Sean Paul - The Trinity (Disc 1)\05 - Ever Blazin'.wav

Pre-gap length 0:00:02.00

Peak level 99.7 % Track quality 100.0 % Test CRC 5A95D980 Copy CRC 5A95D980 Track not present in AccurateRip database Copy OK

Track 6

Filename C:\Downloads\Sean Paul - The Trinity - 2006\Sean Paul - The Trinity (Disc 1)\06 - Eye Deh A Mi Knee.wav

Pre-gap length 0:00:02.00

Peak level 99.8 % Track quality 100.0 % Test CRC FC4546D3 Copy CRC FC4546D3 Track not present in AccurateRip database Copy OK

Track 7

Filename C:\Downloads\Sean Paul - The Trinity - 2006\Sean Paul - The Trinity (Disc 1)\07 - Give It Up To Me.wav

Pre-gap length 0:00:02.00

Peak level 90.1 % Track quality 99.9 % Test CRC 30F290C8 Copy CRC 30F290C8 Track not present in AccurateRip database Copy OK

Track 8

Filename C:\Downloads\Sean Paul - The Trinity - 2006\Sean Paul - The Trinity (Disc 1)\08 - Yardie Bone (ft.Wayne Marshall).wav

Pre-gap length 0:00:02.00

Peak level 99.7 % Track quality 100.0 % Test CRC 7974F14C Copy CRC 7974F14C Track not present in AccurateRip database Copy OK

Track 9

Filename C:\Downloads\Sean Paul - The Trinity - 2006\Sean Paul - The Trinity (Disc 1)\09 - Never Gonna Be The Same.wav

Pre-gap length 0:00:02.00

Peak level 99.7 % Track quality 100.0 % Test CRC E95D0438 Copy CRC E95D0438 Track not present in AccurateRip database Copy OK

Track 10

Filename C:\Downloads\Sean Paul - The Trinity - 2006\Sean Paul - The Trinity (Disc 1)\10 - I'll Take You There.wav

Pre-gap length 0:00:02.00

Peak level 99.7 % Track quality 100.0 % Test CRC 856F4363 Copy CRC 856F4363 Track not present in AccurateRip database Copy OK

Track 11

Filename C:\Downloads\Sean Paul - The Trinity - 2006\Sean Paul - The Trinity (Disc 1)\11 - Temperature.wav

Pre-gap length 0:00:02.00

Peak level 99.8 % Track quality 100.0 % Test CRC 6F0541E3 Copy CRC 6F0541E3 Track not present in AccurateRip database Copy OK

Track 12

Filename C:\Downloads\Sean Paul - The Trinity - 2006\Sean Paul - The Trinity (Disc 1)\12 - Breakout.wav

Pre-gap length 0:00:02.00

Peak level 99.8 % Track quality 99.9 % Test CRC 237CEAF8 Copy CRC 237CEAF8 Track not present in AccurateRip database Copy OK

Track 13

Filename C:\Downloads\Sean Paul - The Trinity - 2006\Sean Paul - The Trinity (Disc 1)\13 - Head To Toe.wav

Pre-gap length 0:00:02.00

Peak level 99.7 % Track quality 100.0 % Test CRC 9E2AD159 Copy CRC 9E2AD159 Track not present in AccurateRip database Copy OK

Track 14

Filename C:\Downloads\Sean Paul - The Trinity - 2006\Sean Paul - The Trinity (Disc 1)\14 - Connection (ft. Nina Sky).wav

Pre-gap length 0:00:02.00

Peak level 99.8 % Track quality 100.0 % Test CRC D1B9672B Copy CRC D1B9672B Track not present in AccurateRip database Copy OK

Track 15

Filename C:\Downloads\Sean Paul - The Trinity - 2006\Sean Paul - The Trinity (Disc 1)\15 - Straight Up.wav

Pre-gap length 0:00:02.00

Peak level 99.7 % Track quality 100.0 % Test CRC B09A419D Copy CRC B09A419D Track not present in AccurateRip database Copy OK

Track 16

Filename C:\Downloads\Sean Paul - The Trinity - 2006\Sean Paul - The Trinity (Disc 1)\16 - All On Me (ft. Tami Chynn).wav

Pre-gap length 0:00:02.00

Peak level 99.7 % Track quality 100.0 % Test CRC E46D4AB2 Copy CRC E46D4AB2 Track not present in AccurateRip database Copy OK

Track 17

Filename C:\Downloads\Sean Paul - The Trinity - 2006\Sean Paul - The Trinity (Disc 1)\17 - Change The Game (ft. Looga Man & Kid Kurup).wav

Pre-gap length 0:00:02.00

Peak level 99.7 % Track quality 100.0 % Test CRC C7D4A2C2 Copy CRC C7D4A2C2 Track not present in AccurateRip database Copy OK

Track 18

Filename C:\Downloads\Sean Paul - The Trinity - 2006\Sean Paul - The Trinity (Disc 1)\18 - The Trinity.wav

Pre-gap length 0:00:02.00

Peak level 99.8 % Track quality 100.0 % Test CRC 7D2724F8 Copy CRC 7D2724F8 Track not present in AccurateRip database Copy OK

None of the tracks are present in the AccurateRip database

No errors occurred

End of status report
 
REM GENRE Hip-HopREM DATE 2006REM DISCID F70ECC12REM COMMENT "ExactAudioCopy v0.99pb4"PERFORMER "Sean Paul"TITLE "The Trinity (Disc 1)"FILE "01 - Fire Links Intro.wav" WAVE TRACK 01 AUDIO TITLE "Fire Links Intro" PERFORMER "Sean Paul" INDEX 01 00:00:00 TRACK 02 AUDIO TITLE "Head In The Zone" PERFORMER "Sean Paul" INDEX 00 00:49:09FILE "02 - Head In The Zone.wav" WAVE INDEX 01 00:00:00 TRACK 03 AUDIO TITLE "We Be Burnin'" PERFORMER "Sean Paul" INDEX 00 03:54:62FILE "03 - We Be Burnin'.wav" WAVE INDEX 01 00:00:00 TRACK 04 AUDIO TITLE "Send It On" PERFORMER "Sean Paul" INDEX 00 03:35:47FILE "04 - Send It On.wav" WAVE INDEX 01 00:00:00 TRACK 05 AUDIO TITLE "Ever Blazin'" PERFORMER "Sean Paul" INDEX 00 03:38:60FILE "05 - Ever Blazin'.wav" WAVE INDEX 01 00:00:00 TRACK 06 AUDIO TITLE "Eye Deh A Mi Knee" PERFORMER "Sean Paul" INDEX 00 03:10:66FILE "06 - Eye Deh A Mi Knee.wav" WAVE INDEX 01 00:00:00 TRACK 07 AUDIO TITLE "Give It Up To Me" PERFORMER "Sean Paul" INDEX 00 02:57:40FILE "07 - Give It Up To Me.wav" WAVE INDEX 01 00:00:00 TRACK 08 AUDIO TITLE "Yardie Bone (ft.Wayne Marshall)" PERFORMER "Sean Paul" INDEX 00 04:15:26FILE "08 - Yardie Bone (ft.Wayne Marshall).wav" WAVE INDEX 01 00:00:00 TRACK 09 AUDIO TITLE "Never Gonna Be The Same" PERFORMER "Sean Paul" INDEX 00 03:12:39FILE "09 - Never Gonna Be The Same.wav" WAVE INDEX 01 00:00:00 TRACK 10 AUDIO TITLE "I'll Take You There" PERFORMER "Sean Paul" INDEX 00 03:39:46FILE "10 - I'll Take You There.wav" WAVE INDEX 01 00:00:00 TRACK 11 AUDIO TITLE "Temperature" PERFORMER "Sean Paul" INDEX 00 03:56:49FILE "11 - Temperature.wav" WAVE INDEX 01 00:00:00 TRACK 12 AUDIO TITLE "Breakout" PERFORMER "Sean Paul" INDEX 00 03:36:54FILE "12 - Breakout.wav" WAVE INDEX 01 00:00:00 TRACK 13 AUDIO TITLE "Head To Toe" PERFORMER "Sean Paul" INDEX 00 02:59:24FILE "13 - Head To Toe.wav" WAVE INDEX 01 00:00:00 TRACK 14 AUDIO TITLE "Connection (ft. Nina Sky)" PERFORMER "Sean Paul" INDEX 00 04:21:36FILE "14 - Connection (ft. Nina Sky).wav" WAVE INDEX 01 00:00:00 TRACK 15 AUDIO TITLE "Straight Up" PERFORMER "Sean Paul" INDEX 00 03:31:36FILE "15 - Straight Up.wav" WAVE INDEX 01 00:00:00 TRACK 16 AUDIO TITLE "All On Me (ft. Tami Chynn)" PERFORMER "Sean Paul" INDEX 00 03:06:17FILE "16 - All On Me (ft. Tami Chynn).wav" WAVE INDEX 01 00:00:00 TRACK 17 AUDIO TITLE "Change The Game (ft. Looga Man & Kid Kurup)" PERFORMER "Sean Paul" INDEX 00 04:18:64FILE "17 - Change The Game (ft. Looga Man & Kid Kurup).wav" WAVE INDEX 01 00:00:00 TRACK 18 AUDIO TITLE "The Trinity" PERFORMER "Sean Paul" INDEX 00 03:54:03FILE "18 - The Trinity.wav" WAVE INDEX 01 00:00:00
 
Exact Audio Copy V0.99 prebeta 4 from 23. January 2008

EAC extraction logfile from 10. April 2009, 8:57

Sean Paul / The Trinity (Disc 2)

Used drive : Optiarc DVD RW AD-7173A Adapter: 0 ID: 1

Read mode : SecureUtilize accurate stream : YesDefeat audio cache : YesMake use of C2 pointers : No

Read offset correction : 48Overread into Lead-In and Lead-Out : NoFill up missing offset samples with silence : YesDelete leading and trailing silent blocks : NoNull samples used in CRC calculations : YesUsed interface : Installed external ASPI interfaceGap handling : Appended to previous track

Used output format : User Defined EncoderSelected bitrate : 768 kBit/sQuality : HighAdd ID3 tag : NoCommand line compressor : C:\Program Files\FLAC\flac.exeAdditional command line options : -8 -V -T "artist=%a" -T "title=%t" -T "album=%g" -T "date=%y" -T "tracknumber=%n" -T "genre=%m" %s

TOC of the extracted CD

Track | Start | Length | Start sector | End sector --------------------------------------------------------- 1 | 0:00.00 | 3:52.21 | 0 | 17420 2 | 3:52.21 | 3:37.44 | 17421 | 33739 3 | 7:29.65 | 4:56.38 | 33740 | 55977 4 | 12:26.28 | 2:51.48 | 55978 | 68850 5 | 15:18.01 | 2:49.04 | 68851 | 81529 6 | 18:07.05 | 3:33.56 | 81530 | 97560

Track 1

Filename C:\Downloads\Sean Paul - The Trinity - 2006\Sean Paul - The Trinity (Disc 2)\01 - Cry Baby Cry (feat. Carlos Santana & Joss Jones).wav

Pre-gap length 0:00:02.00

Peak level 99.8 % Track quality 100.0 % Test CRC D823A2B4 Copy CRC D823A2B4 Track not present in AccurateRip database Copy OK

Track 2

Filename C:\Downloads\Sean Paul - The Trinity - 2006\Sean Paul - The Trinity (Disc 2)\02 - Break It Off (feat. Rihanna).wav

Pre-gap length 0:00:02.00

Peak level 99.8 % Track quality 100.0 % Test CRC 5AC87CAD Copy CRC 5AC87CAD Track not present in AccurateRip database Copy OK

Track 3

Filename C:\Downloads\Sean Paul - The Trinity - 2006\Sean Paul - The Trinity (Disc 2)\03 - As Time Goes By (non-album track).wav

Pre-gap length 0:00:02.00

Peak level 99.8 % Track quality 99.9 % Test CRC 5079CBCE Copy CRC 5079CBCE Track not present in AccurateRip database Copy OK

Track 4

Filename C:\Downloads\Sean Paul - The Trinity - 2006\Sean Paul - The Trinity (Disc 2)\04 - Temperature (AOL Sessions).wav

Pre-gap length 0:00:02.00

Peak level 99.8 % Track quality 100.0 % Test CRC 84F7B0F9 Copy CRC 84F7B0F9 Track not present in AccurateRip database Copy OK

Track 5

Filename C:\Downloads\Sean Paul - The Trinity - 2006\Sean Paul - The Trinity (Disc 2)\05 - Get Busy (AOL Sessions).wav

Pre-gap length 0:00:02.00

Peak level 99.8 % Track quality 100.0 % Test CRC 7BA3C945 Copy CRC 7BA3C945 Track not present in AccurateRip database Copy OK

Track 6

Filename C:\Downloads\Sean Paul - The Trinity - 2006\Sean Paul - The Trinity (Disc 2)\06 - Never Gonna Be The Same (AOL Sessions).wav

Pre-gap length 0:00:02.00

Peak level 99.8 % Track quality 100.0 % Test CRC 203F0DB6 Copy CRC 203F0DB6 Track not present in AccurateRip database Copy OK

None of the tracks are present in the AccurateRip database

No errors occurred

End of status report
 
REM GENRE ReggaeREM DATE 2006REM DISCID 45051406REM COMMENT "ExactAudioCopy v0.99pb4"PERFORMER "Sean Paul"TITLE "The Trinity (Disc 2)"FILE "01 - Cry Baby Cry (feat. Carlos Santana & Joss Jones).wav" WAVE TRACK 01 AUDIO TITLE "Cry Baby Cry (feat. Carlos Santana & Joss Jones)" PERFORMER "Sean Paul" INDEX 01 00:00:00 TRACK 02 AUDIO TITLE "Break It Off (feat. Rihanna)" PERFORMER "Sean Paul" INDEX 00 03:50:21FILE "02 - Break It Off (feat. Rihanna).wav" WAVE INDEX 01 00:00:00 TRACK 03 AUDIO TITLE "As Time Goes By (non-album track)" PERFORMER "Sean Paul" INDEX 00 03:35:44FILE "03 - As Time Goes By (non-album track).wav" WAVE INDEX 01 00:00:00 TRACK 04 AUDIO TITLE "Temperature (AOL Sessions)" PERFORMER "Sean Paul" INDEX 00 04:54:38FILE "04 - Temperature (AOL Sessions).wav" WAVE INDEX 01 00:00:00 TRACK 05 AUDIO TITLE "Get Busy (AOL Sessions)" PERFORMER "Sean Paul" INDEX 00 02:49:48FILE "05 - Get Busy (AOL Sessions).wav" WAVE INDEX 01 00:00:00 TRACK 06 AUDIO TITLE "Never Gonna Be The Same (AOL Sessions)" PERFORMER "Sean Paul" INDEX 00 02:47:04FILE "06 - Never Gonna Be The Same (AOL Sessions).wav" WAVE INDEX 01 00:00:00
Год издания: 2009
Аудиокодек: FLAC (*.flac)
Тип рипа: tracks+.cue
Битрейт аудио: lossless
Продолжительность: 01:06:48
Наличие сканов в содержимом раздачи: ДА
Треклист:
01. Chi Ching Ching (Intro)
02. Lace It
03. So Fine
04. Now That I've Got Your Love
05. Birthday Suit
06. Press It Up
07. Evening Ride
08. Hold My Hand
09. She Want Me
10. Daddy's Home
11. Bruk Out
12. Pepperpot
13. Wine Baby Wine
14. Running Out Of Time
15. Don't Tease Me
16. Lately
17. She Wanna Be Down
18. Straight From My Heart
19. Private Party
20. I Know U Like It
 
Exact Audio Copy V0.99 prebeta 5 from 4. May 2009

EAC extraction logfile from 27. August 2009, 18:03

Sean Paul / Imperial Blaze

Used drive : TSSTcorpCDRWDVD TS-H493A Adapter: 1 ID: 0

Read mode : SecureUtilize accurate stream : YesDefeat audio cache : YesMake use of C2 pointers : No

Read offset correction : 6Overread into Lead-In and Lead-Out : NoFill up missing offset samples with silence : YesDelete leading and trailing silent blocks : NoNull samples used in CRC calculations : YesUsed interface : Native Win32 interface for Win NT & 2000Gap handling : Appended to previous track

Used output format : User Defined EncoderSelected bitrate : 128 kBit/sQuality : HighAdd ID3 tag : NoCommand line compressor : C:\Program Files\Exact Audio Copy\Flac\flac.exeAdditional command line options : -V -8 -T "artist=%a" -T "title=%t" -T "album=%g" -T "date=%y" -T "tracknumber=%n" -T "genre=%m" %s

TOC of the extracted CD

Track | Start | Length | Start sector | End sector --------------------------------------------------------- 1 | 0:00.00 | 0:50.37 | 0 | 3786 2 | 0:50.37 | 2:51.16 | 3787 | 16627 3 | 3:41.53 | 3:30.52 | 16628 | 32429 4 | 7:12.30 | 3:33.34 | 32430 | 48438 5 | 10:45.64 | 3:25.45 | 48439 | 63858 6 | 14:11.34 | 3:43.62 | 63859 | 80645 7 | 17:55.21 | 3:56.33 | 80646 | 98378 8 | 21:51.54 | 3:26.35 | 98379 | 113863 9 | 25:18.14 | 3:05.74 | 113864 | 127812 10 | 28:24.13 | 3:30.42 | 127813 | 143604 11 | 31:54.55 | 3:24.29 | 143605 | 158933 12 | 35:19.09 | 3:50.51 | 158934 | 176234 13 | 39:09.60 | 3:04.68 | 176235 | 190102 14 | 42:14.53 | 3:21.52 | 190103 | 205229 15 | 45:36.30 | 3:19.37 | 205230 | 220191 16 | 48:55.67 | 3:06.49 | 220192 | 234190 17 | 52:02.41 | 3:37.44 | 234191 | 250509 18 | 55:40.10 | 4:26.11 | 250510 | 270470 19 | 60:06.21 | 3:34.49 | 270471 | 286569 20 | 63:40.70 | 3:07.50 | 286570 | 300644 21 | 69:20.45 | 2:01.06 | 312045 | 321125

Track 1

Filename X:\Music\EACRips\[2009] Imperial Blaze\01 - Intro - Chi Ching Ching.wav

Pre-gap length 0:00:02.00

Peak level 100.0 % Track quality 100.0 % Test CRC 4B4E7C44 Copy CRC 4B4E7C44 Track not present in AccurateRip database Copy OK

Track 2

Filename X:\Music\EACRips\[2009] Imperial Blaze\02 - Lace It.wav

Peak level 100.0 % Track quality 100.0 % Test CRC 18F8B520 Copy CRC 18F8B520 Track not present in AccurateRip database Copy OK

Track 3

Filename X:\Music\EACRips\[2009] Imperial Blaze\03 - So Fine.wav

Peak level 99.9 % Track quality 100.0 % Test CRC D01238AF Copy CRC D01238AF Track not present in AccurateRip database Copy OK

Track 4

Filename X:\Music\EACRips\[2009] Imperial Blaze\04 - Now That I've Got Your Love.wav

Peak level 100.0 % Track quality 100.0 % Test CRC 5DC22430 Copy CRC 5DC22430 Track not present in AccurateRip database Copy OK

Track 5

Filename X:\Music\EACRips\[2009] Imperial Blaze\05 - Birthday Suit.wav

Peak level 100.0 % Track quality 100.0 % Test CRC D6342078 Copy CRC D6342078 Track not present in AccurateRip database Copy OK

Track 6

Filename X:\Music\EACRips\[2009] Imperial Blaze\06 - Press It Up.wav

Peak level 100.0 % Track quality 100.0 % Test CRC ABC90F67 Copy CRC ABC90F67 Track not present in AccurateRip database Copy OK

Track 7

Filename X:\Music\EACRips\[2009] Imperial Blaze\07 - Evening Ride.wav

Peak level 98.9 % Track quality 99.9 % Test CRC 692067FA Copy CRC 692067FA Track not present in AccurateRip database Copy OK

Track 8

Filename X:\Music\EACRips\[2009] Imperial Blaze\08 - Hold My Hand.wav

Peak level 100.0 % Track quality 100.0 % Test CRC 58A960E3 Copy CRC 58A960E3 Track not present in AccurateRip database Copy OK

Track 9

Filename X:\Music\EACRips\[2009] Imperial Blaze\09 - She Want Me.wav

Peak level 97.7 % Track quality 100.0 % Test CRC 0C24E753 Copy CRC 0C24E753 Track not present in AccurateRip database Copy OK

Track 10

Filename X:\Music\EACRips\[2009] Imperial Blaze\10 - Daddy's Home.wav

Peak level 98.9 % Track quality 100.0 % Test CRC 6FC1F830 Copy CRC 6FC1F830 Track not present in AccurateRip database Copy OK

Track 11

Filename X:\Music\EACRips\[2009] Imperial Blaze\11 - Bruk Out.wav

Peak level 100.0 % Track quality 100.0 % Test CRC D467429B Copy CRC D467429B Track not present in AccurateRip database Copy OK

Track 12

Filename X:\Music\EACRips\[2009] Imperial Blaze\12 - Pepperpot.wav

Peak level 100.0 % Track quality 100.0 % Test CRC A8C884D6 Copy CRC A8C884D6 Track not present in AccurateRip database Copy OK

Track 13

Filename X:\Music\EACRips\[2009] Imperial Blaze\13 - Wine Baby Wine.wav

Peak level 100.0 % Track quality 100.0 % Test CRC 0AB7781B Copy CRC 0AB7781B Track not present in AccurateRip database Copy OK

Track 14

Filename X:\Music\EACRips\[2009] Imperial Blaze\14 - Running Out of Time.wav

Peak level 98.9 % Track quality 100.0 % Test CRC 5BB34CCB Copy CRC 5BB34CCB Track not present in AccurateRip database Copy OK

Track 15

Filename X:\Music\EACRips\[2009] Imperial Blaze\15 - Don't Tease Me.wav

Peak level 100.0 % Track quality 100.0 % Test CRC 2D2BE28B Copy CRC 2D2BE28B Track not present in AccurateRip database Copy OK

Track 16

Filename X:\Music\EACRips\[2009] Imperial Blaze\16 - Lately.wav

Peak level 98.9 % Track quality 100.0 % Test CRC C343EB3B Copy CRC C343EB3B Track not present in AccurateRip database Copy OK

Track 17

Filename X:\Music\EACRips\[2009] Imperial Blaze\17 - She Wanna Be Down.wav

Peak level 100.0 % Track quality 100.0 % Test CRC F14DA578 Copy CRC F14DA578 Track not present in AccurateRip database Copy OK

Track 18

Filename X:\Music\EACRips\[2009] Imperial Blaze\18 - Straight From My Heart.wav

Peak level 100.0 % Track quality 100.0 % Test CRC 7DF76D1A Copy CRC 7DF76D1A Track not present in AccurateRip database Copy OK

Track 19

Filename X:\Music\EACRips\[2009] Imperial Blaze\19 - Private Party.wav

Peak level 100.0 % Track quality 100.0 % Test CRC 7288424A Copy CRC 7288424A Track not present in AccurateRip database Copy OK

Track 20

Filename X:\Music\EACRips\[2009] Imperial Blaze\20 - I Know You Like It.wav

Peak level 100.0 % Track quality 100.0 % Test CRC 38F43C57 Copy CRC 38F43C57 Track not present in AccurateRip database Copy OK

None of the tracks are present in the AccurateRip database

No errors occurred

End of status report
 
REM GENRE ReggaeREM DATE 2009REM DISCID 0810B915REM COMMENT "ExactAudioCopy v0.99pb5"PERFORMER "Sean Paul"TITLE "Imperial Blaze"FILE "01 - Intro - Chi Ching Ching.wav" WAVE TRACK 01 AUDIO TITLE "Intro - Chi Ching Ching" PERFORMER "Sean Paul" INDEX 01 00:00:00FILE "02 - Lace It.wav" WAVE TRACK 02 AUDIO TITLE "Lace It" PERFORMER "Sean Paul" INDEX 01 00:00:00FILE "03 - So Fine.wav" WAVE TRACK 03 AUDIO TITLE "So Fine" PERFORMER "Sean Paul" INDEX 01 00:00:00FILE "04 - Now That I've Got Your Love.wav" WAVE TRACK 04 AUDIO TITLE "Now That I've Got Your Love" PERFORMER "Sean Paul" INDEX 01 00:00:00FILE "05 - Birthday Suit.wav" WAVE TRACK 05 AUDIO TITLE "Birthday Suit" PERFORMER "Sean Paul" INDEX 01 00:00:00FILE "06 - Press It Up.wav" WAVE TRACK 06 AUDIO TITLE "Press It Up" PERFORMER "Sean Paul" INDEX 01 00:00:00FILE "07 - Evening Ride.wav" WAVE TRACK 07 AUDIO TITLE "Evening Ride" PERFORMER "Sean Paul" INDEX 01 00:00:00FILE "08 - Hold My Hand.wav" WAVE TRACK 08 AUDIO TITLE "Hold My Hand" PERFORMER "Sean Paul" INDEX 01 00:00:00FILE "09 - She Want Me.wav" WAVE TRACK 09 AUDIO TITLE "She Want Me" PERFORMER "Sean Paul" INDEX 01 00:00:00FILE "10 - Daddy's Home.wav" WAVE TRACK 10 AUDIO TITLE "Daddy's Home" PERFORMER "Sean Paul" INDEX 01 00:00:00FILE "11 - Bruk Out.wav" WAVE TRACK 11 AUDIO TITLE "Bruk Out" PERFORMER "Sean Paul" INDEX 01 00:00:00FILE "12 - Pepperpot.wav" WAVE TRACK 12 AUDIO TITLE "Pepperpot" PERFORMER "Sean Paul" INDEX 01 00:00:00FILE "13 - Wine Baby Wine.wav" WAVE TRACK 13 AUDIO TITLE "Wine Baby Wine" PERFORMER "Sean Paul" INDEX 01 00:00:00FILE "14 - Running Out of Time.wav" WAVE TRACK 14 AUDIO TITLE "Running Out of Time" PERFORMER "Sean Paul" INDEX 01 00:00:00FILE "15 - Don't Tease Me.wav" WAVE TRACK 15 AUDIO TITLE "Don't Tease Me" PERFORMER "Sean Paul" INDEX 01 00:00:00FILE "16 - Lately.wav" WAVE TRACK 16 AUDIO TITLE "Lately" PERFORMER "Sean Paul" INDEX 01 00:00:00FILE "17 - She Wanna Be Down.wav" WAVE TRACK 17 AUDIO TITLE "She Wanna Be Down" PERFORMER "Sean Paul" INDEX 01 00:00:00FILE "18 - Straight From My Heart.wav" WAVE TRACK 18 AUDIO TITLE "Straight From My Heart" PERFORMER "Sean Paul" INDEX 01 00:00:00FILE "19 - Private Party.wav" WAVE TRACK 19 AUDIO TITLE "Private Party" PERFORMER "Sean Paul" INDEX 01 00:00:00FILE "20 - I Know You Like It.wav" WAVE TRACK 20 AUDIO TITLE "I Know You Like It" PERFORMER "Sean Paul" INDEX 01 00:00:00 TRACK 21 MODEx/2xxx TITLE "Outro" PERFORMER "Sean Paul" INDEX 00 03:07:50
Год издания: 2003
Аудиокодек: FLAC (*.flac)
Тип рипа: tracks+.cue
Битрейт аудио: lossless
Продолжительность: 14:41
Наличие сканов в содержимом раздачи: ДА
Треклист:
1. Get Busy (Album Version) (3:32)
2. Get Busy (Diwali Riddim Instrumental) (3:20)
3. Gimme The Light (2Step Moabit Relick Remix) (5:53)
4. Gimme The Light (Nappy Dogout Remix) (3:50)
 
Exact Audio Copy V1.0 beta 3 from 29. August 2011

EAC extraction logfile from 2. November 2011, 15:44

Sean Paul / Get Busy

Used drive : HL-DT-STDVDRAM GH20NS10 Adapter: 1 ID: 0

Read mode : SecureUtilize accurate stream : YesDefeat audio cache : YesMake use of C2 pointers : No

Read offset correction : 667Overread into Lead-In and Lead-Out : NoFill up missing offset samples with silence : YesDelete leading and trailing silent blocks : NoNull samples used in CRC calculations : YesUsed interface : Native Win32 interface for Win NT & 2000Gap handling : Appended to previous track

Used output format : User Defined EncoderSelected bitrate : 1024 kBit/sQuality : HighAdd ID3 tag : NoCommand line compressor : C:\Program Files (x86)\Exact Audio Copy\Flac\flac.exeAdditional command line options : -8 -V -T "ARTIST=%artist%" -T "TITLE=%title%" -T "ALBUM=%albumtitle%" -T "DATE=%year%" -T "TRACKNUMBER=%tracknr%" -T "GENRE=%genre%" -T "PERFORMER=%albuminterpret%" -T "COMPOSER=%composer%" %haslyrics%--tag-from-file=LYRICS="%lyricsfile%"%haslyrics% -T "ALBUMARTIST=%albumartist%" -T "DISCNUMBER=%cdnumber%" -T "TOTALDISCS=%totalcds%" -T "TOTALTRACKS=%numtracks%" -T "COMMENT=%comment%" %source% -o %dest%

TOC of the extracted CD

Track | Start | Length | Start sector | End sector --------------------------------------------------------- 1 | 0:00.00 | 3:32.52 | 0 | 15951 2 | 3:32.52 | 3:21.65 | 15952 | 31091 3 | 6:54.42 | 3:55.70 | 31092 | 48786 4 | 10:50.37 | 3:50.50 | 48787 | 66086

Track 1

Filename H:\EAC\Sean Paul - Get Busy (2003) [FLAC]\01 - Get Busy (Album Version).wav

Pre-gap length 0:00:02.00

Peak level 96.1 % Extraction speed 2.5 X Track quality 100.0 % Test CRC F7D9C165 Copy CRC F7D9C165 Accurately ripped (confidence 4) [A665DB4F] (AR v1) Copy OK

Track 2

Filename H:\EAC\Sean Paul - Get Busy (2003) [FLAC]\02 - Get Busy (Diwali Riddim Instrumental).wav

Peak level 98.7 % Extraction speed 2.3 X Track quality 99.9 % Test CRC 3BF33096 Copy CRC 3BF33096 Accurately ripped (confidence 4) [BF6D4B3F] (AR v1) Copy OK

Track 3

Filename H:\EAC\Sean Paul - Get Busy (2003) [FLAC]\03 - Gimme The Light (2step Moabit Relick Remix).wav

Pre-gap length 0:00:01.69

Peak level 99.8 % Extraction speed 2.8 X Track quality 100.0 % Test CRC 55AE9E1E Copy CRC 55AE9E1E Accurately ripped (confidence 4) [DF983E40] (AR v1) Copy OK

Track 4

Filename H:\EAC\Sean Paul - Get Busy (2003) [FLAC]\04 - Gimme The Light (Nappy Dogout Remix ).wav

Pre-gap length 0:00:02.16

Peak level 99.8 % Extraction speed 3.5 X Track quality 100.0 % Test CRC A34E53DE Copy CRC A34E53DE Accurately ripped (confidence 4) [71CA92FF] (AR v1) Copy OK

All tracks accurately ripped

No errors occurred

End of status report

---- CUETools DB Plugin V2.1.3

[CTDB TOCID: n6E5zhkrfsqW_Z_0s7jJasxdapw-] disk not present in database, Submit result: n6E5zhkrfsqW_Z_0s7jJasxdapw- has been uploaded

==== Log checksum DAED9000EE52A664CB48E1D6935AFF82328BFA1E2A315DE377766E566F2B1232 ====
 
REM GENRE R&BREM DATE 2003REM DISCID 21037104REM COMMENT "ExactAudioCopy v1.0b3"CATALOG 0075678807329PERFORMER "Sean Paul"TITLE "Get Busy"FILE "01 - Get Busy (Album Version).wav" WAVE TRACK 01 AUDIO TITLE "Get Busy (Album Version)" PERFORMER "Sean Paul" ISRC USAT20202575 INDEX 01 00:00:00FILE "02 - Get Busy (Diwali Riddim Instrumental).wav" WAVE TRACK 02 AUDIO TITLE "Get Busy (Diwali Riddim Instrumental)" PERFORMER "Sean Paul" ISRC USAT20300013 INDEX 01 00:00:00 TRACK 03 AUDIO TITLE "Gimme The Light (2step Moabit Relick Remix)" PERFORMER "Sean Paul" ISRC USAT20300009 INDEX 00 03:20:13FILE "03 - Gimme The Light (2step Moabit Relick Remix).wav" WAVE INDEX 01 00:00:00 TRACK 04 AUDIO TITLE "Gimme The Light (Nappy Dogout Remix )" PERFORMER "Sean Paul" ISRC USAT20300011 INDEX 00 03:53:58FILE "04 - Gimme The Light (Nappy Dogout Remix ).wav" WAVE INDEX 01 00:00:00
Год издания: 2003
Аудиокодек: FLAC (*.flac)
Тип рипа: tracks+.cue
Битрейт аудио: lossless
Продолжительность: 12:04
Наличие сканов в содержимом раздачи: нет
Треклист:
1. Gimme the Light (album version) (3:48)
2. Gimme the Light (Pass the Dro-Voisier remix) (feat. Busta Rhymes) (album version) (3:22)
3. Gimme the Light (Blackout remix) (3:44)
 
Exact Audio Copy V0.99 prebeta 5 from 4. May 2009

EAC extraction logfile from 27. May 2009, 16:54

Sean Paul / Gimme The Light

Used drive : HP DVD Writer 1060d Adapter: 2 ID: 0

Read mode : SecureUtilize accurate stream : YesDefeat audio cache : YesMake use of C2 pointers : No

Read offset correction : 6Overread into Lead-In and Lead-Out : NoFill up missing offset samples with silence : YesDelete leading and trailing silent blocks : NoNull samples used in CRC calculations : YesUsed interface : Native Win32 interface for Win NT & 2000Gap handling : Appended to previous track

Used output format : User Defined EncoderSelected bitrate : 768 kBit/sQuality : HighAdd ID3 tag : NoCommand line compressor : C:\Program Files (x86)\Exact Audio Copy\FLAC\FLAC.EXEAdditional command line options : -V -8 -T "artist=%a" -T "title=%t" -T "album=%g" -T "date=%y" -T "tracknumber=%n" -T "genre=%m" %s

TOC of the extracted CD

Track | Start | Length | Start sector | End sector --------------------------------------------------------- 1 | 0:00.01 | 3:48.58 | 1 | 17158 2 | 3:48.59 | 3:21.49 | 17159 | 32282 3 | 7:10.33 | 4:53.48 | 32283 | 54305 4 | 14:36.06 | 10:55.53 | 65706 | 114883

Track 1

Filename M:\[-FLAC-]\Sean_Paul-Gimme_The_Light_[ECDS]-0000-FLAC\01-Sean Paul-Gimme The Light (Original Mix).wav

Pre-gap length 0:00:02.01

Peak level 87.3 % Track quality 99.9 % Test CRC 3CE1A7FB Copy CRC 3CE1A7FB Copy OK

Track 2

Filename M:\[-FLAC-]\Sean_Paul-Gimme_The_Light_[ECDS]-0000-FLAC\02-Sean Paul-Gimme The Light (Pass The Dro-Voisier Remix) (Feat. Busta Rhymes).wav

Peak level 97.9 % Track quality 100.0 % Test CRC D8889655 Copy CRC D8889655 Copy OK

Track 3

Filename M:\[-FLAC-]\Sean_Paul-Gimme_The_Light_[ECDS]-0000-FLAC\03-Sean Paul-Gimme The Light (Heartless Crew Remix Feat. Buskin, Mighty Moe and Fonti).wav

Peak level 97.9 % Track quality 100.0 % Test CRC 6B9F1F1D Copy CRC 6B9F1F1D Copy OK

No errors occurred

End of status report
 
REM GENRE RaggaREM DATE 2003REM DISCID 2705FB04REM COMMENT "ExactAudioCopy v0.99pb5"PERFORMER "Sean Paul"TITLE "Gimme The Light"FILE "01-Sean Paul-Gimme The Light (Original Mix).wav" WAVE TRACK 01 AUDIO TITLE "Gimme The Light (Original Mix)" PERFORMER "Sean Paul" PREGAP 00:00:01 INDEX 01 00:00:00FILE "02-Sean Paul-Gimme The Light (Pass The Dro-Voisier Remix) (Feat. Busta Rhymes).wav" WAVE TRACK 02 AUDIO TITLE "Gimme The Light (Pass The Dro-Voisier Remix) (Feat. Busta Rhymes)" PERFORMER "Sean Paul" FLAGS DCP INDEX 01 00:00:00FILE "03-Sean Paul-Gimme The Light (Heartless Crew Remix Feat. Buskin, Mighty Moe and Fonti).wav" WAVE TRACK 03 AUDIO TITLE "Gimme The Light (Heartless Crew Remix Feat. Buskin, Mighty Moe and Fonti)" PERFORMER "Sean Paul" FLAGS DCP INDEX 01 00:00:00 TRACK 04 MODEx/2xxx TITLE "DATA" PERFORMER "Sean Paul" INDEX 00 04:53:48
Год издания: 2003
Аудиокодек: FLAC (*.flac)
Тип рипа: tracks+.cue
Битрейт аудио: lossless
Продолжительность: 11:07
Наличие сканов в содержимом раздачи: нет
Треклист:
01 - Like Glue
02 - Get Busy (Clap Your Hands Now Remix Feat. Fatman Scoop & Crooklyn Clan) (Amended Radio Short Edit)
03 - Ignite It
 
Exact Audio Copy V0.99 prebeta 4 from 23. January 2008

EAC extraction logfile from 15. May 2009, 18:08

Sean Paul / Like Glue

Used drive : PIONEER DVD-RW DVR-111D Adapter: 0 ID: 0

Read mode : SecureUtilize accurate stream : YesDefeat audio cache : YesMake use of C2 pointers : No

Read offset correction : 48Overread into Lead-In and Lead-Out : NoFill up missing offset samples with silence : YesDelete leading and trailing silent blocks : NoNull samples used in CRC calculations : YesUsed interface : Native Win32 interface for Win NT & 2000Gap handling : Appended to previous track

Used output format : User Defined EncoderSelected bitrate : 128 kBit/sQuality : HighAdd ID3 tag : NoCommand line compressor : C:\Program Files\Exact Audio Copy\Flac\flac.exeAdditional command line options : -V -8 -T "artist=%a" -T "title=%t" -T "album=%g" -T "date=%y" -T "tracknumber=%n" -T "genre=%m" %s

TOC of the extracted CD

Track | Start | Length | Start sector | End sector --------------------------------------------------------- 1 | 0:00.00 | 3:55.38 | 0 | 17662 2 | 3:55.38 | 3:52.53 | 17663 | 35115 3 | 7:48.16 | 3:19.11 | 35116 | 50051

Track 1

Filename C:\EACrips\01 - Like Glue.wav

Pre-gap length 0:00:02.00

Peak level 93.3 % Track quality 100.0 % Test CRC 95273E9C Copy CRC 95273E9C Track not present in AccurateRip database Copy OK

Track 2

Filename C:\EACrips\02 - Get Busy (Clap Your Hands Now Remix Feat. Fatman Scoop & Crooklyn Clan) (Amended Radio Short Edit).wav

Pre-gap length 0:00:02.00

Peak level 97.7 % Track quality 100.0 % Test CRC FD72D42D Copy CRC FD72D42D Track not present in AccurateRip database Copy OK

Track 3

Filename C:\EACrips\03 - Ignite It.wav

Pre-gap length 0:00:02.00

Peak level 90.3 % Track quality 100.0 % Test CRC FB6D5DC9 Copy CRC FB6D5DC9 Track not present in AccurateRip database Copy OK

None of the tracks are present in the AccurateRip database

No errors occurred

End of status report
 
REM GENRE ReggaeREM DATE 2003REM DISCID 19029B03REM COMMENT "ExactAudioCopy v0.99pb4"FILE "01 - Like Glue.wav" WAVE TRACK 01 AUDIO INDEX 01 00:00:00 TRACK 02 AUDIO INDEX 00 03:53:38FILE "02 - Get Busy (Clap Your Hands Now Remix Feat. Fatman Scoop & Crooklyn Clan) (Amended Radio Short Edit).wav" WAVE INDEX 01 00:00:00 TRACK 03 AUDIO INDEX 00 03:50:53FILE "03 - Ignite It.wav" WAVE INDEX 01 00:00:00
Год издания: 2011
Аудиокодек: FLAC (*.flac)
Тип рипа: tracks+.cue
Битрейт аудио: lossless
Продолжительность: 3:26
Наличие сканов в содержимом раздачи: нет
Треклист:
1. Got 2 Luv U (feat. Alexis Jordan)
 
AUDIOCHECKER v2.0 beta (build 457) - by Dester - [email protected]~~~~~~~~~~~~~~~~~~~~~~~~~~~~~~~~~~

Started at: воскресенье, 22. 01. 2012. - 0:44.121 file found

1 -===- D:\Музыка\Flac\Sean Paul [FLAC]\Singles\2011 - Got 2 Luv U (feat. Alexis Jordan) (WEB)\01-01-Sean_Paul-Got_2_Luv_U-LLS.flac Extracted successfully Conclusion: this track is CDDA with probability 100% Tempfile successfully deleted.

Finished at: воскресенье, 22. 01. 2012. - 0:44.42 (operation time: 0:00.30)
Год издания: 2011
Аудиокодек: FLAC (*.flac)
Тип рипа: tracks+.cue
Битрейт аудио: lossless
Продолжительность: 3:48
Наличие сканов в содержимом раздачи: нет
Треклист:
1. She Doesn't Mind
 
AUDIOCHECKER v2.0 beta (build 457) - by Dester - [email protected]~~~~~~~~~~~~~~~~~~~~~~~~~~~~~~~~~~

Started at: воскресенье, 22. 01. 2012. - 0:47.281 file found

1 -===- D:\Музыка\Flac\Sean Paul [FLAC]\Singles\2011 - She Doesn't Mind (WEB)\01-01-Sean_Paul-She_Doesn_t_Mind-LLS.flac Extracted successfully Conclusion: this track is MPEG with probability 85% Tempfile successfully deleted.

Finished at: воскресенье, 22. 01. 2012. - 0:47.52 (operation time: 0:00.24)

Release From

Трекер:  [ 03-Фев-2012 01:35 ]

  

Скачать .torrent

Размер .torrent файла 45 KB


Размер: 3.96 GB
Хэш (hash) релиза: fae5f8aac243e79180f2e92f3dfccde2d7b6448b

Еще никто не оставлял запись к записи скачать торрент Sean Paul - Discography - 12 Releases . Будь первым!

!Обратная связь