Il est grand temps de rallumer les étoiles | Hoi-Pang Lo | Wendell Niles

Скачать через торрент музыку VA - Resa: Он разыскивается - 2005, FLAC бесплатно без регистрации torrent

Статистика раздачи
Размер:  188 MB   |    Зарегистрирован:  6 лет 5 месяцев   |    .torrent скачан:  33 раза   |   
Раздают:  1  
   
загрузка...
 
Автор Сообщение

Galfimbul

avatar Galfimbul


VA - Resa: Он разыскивается

Жанр: Reggae, Dancehall
Год выпуска диска: 2005
Производитель диска: Россия
Аудио кодек: FLAC
Тип рипа: tracks+.cue
Битрейт аудио: lossless
Продолжительность: 00:31:03
Источник (релизер): Собственный рип
Наличие сканов в содержимом раздачи: нет

Треклист:

01. Resa - Он розыскивается (03:14)
02. Resa - Святая троица (04:32)
03. Russoul - White Boy (04:05)
04. Батишта и Чек - В этом городе (03:09)
05. ДаБац - Освободись от Вавилона (04:56)
06. DJ Flacky - Reggae Goes Under Cover (04:03)
07. DC MC - Вминать (03:49)
08. Resa - Розыскивается [Russoul mix] (03:11)
Въезжаем в осень под странную электронщину, брутальный речитатив хип-хоповцев, панковский протест и кусочек солнечного раггамафина.
Реса
Надоело уже хвалить релизы «Левправзвука», но что ж поделаешь! У них, по ходу, врожденный нюх на кайфоухость, что доказал новый релиз «Он разыскивается». Реса — герой компакта — музыкант, граффитчик и почетный в своем кругу персонаж. На CD всего восемь песен, зато хиты – все. Сам Реса, «Дабац», «Russoul», «Батишта и Чек», «DC MC», Dj Flacky. Очень радует заява издателей, что у Ресы накопилось песен на несколько альбомов, и что эти альбомы будут постепенно издаваться. Потому что мелодии парня близки к идеальным — запоминаются, не грузят и наполнены природной солнечной беззаботностью, которой тебе ух как будет не хватать где-нибудь в конце сентября — начале октября... Не был бы Реса неформатным перцем — повоевал бы на равных со всякими там Игорями Крутыми и другими фабрикантами российской попсы. Тексты вроде неплохие, но не запоминаются, наверное, потому что тоже очень беззаботные. Саппортеры Ресы: всем пятерка по музыкальной части, а вот насчет текстов и настроения — ну, естественно, «DC MC» повествует о «дутых рэп-проектах» и вообще о тех, кому надо «вминать головы», «Батишта и Чек» озаботились мегаполисной отчужденностью, а «Russoul» и Dj Flacky просто попрактиковались в английском.
«Он разыскивается» «Левправзвук», 2005.
с) Хулиган, номер #042
 
Exact Audio Copy V1.0 beta 3 from 29. August 2011

Отчёт EAC об извлечении, выполненном 26. октября 2011, 19:54

Various / Resa: Он разыскивается

Дисковод: ASUS DRW-24B3LT Adapter: 0 ID: 1

Режим чтения : ДостоверностьИспользование точного потока : ДаОтключение кэша аудио : ДаИспользование указателей C2 : Нет

Коррекция смещения при чтении : 6Способность читать области Lead-in и Lead-out : НетЗаполнение пропущенных сэмплов тишиной : ДаУдаление блоков с тишиной в начале и конце : НетПри вычислениях CRC использовались нулевые сэмплы : ДаИнтерфейс : Встроенный Win32-интерфейс для Win NT/2000Обработка зазоров : Добавлено к предыдущему треку

Выходной формат : Пользовательский кодировщикВыбранный битрейт : 128 kBit/sКачество : ВысокийДобавление ID3-тега : НетУтилита сжатия : C:\Program Files\Exact Audio Copy\Flac\flac.exeДополнительные параметры : -V -8 -T "Genre=%genre%" -T "Artist=%artist%" -T "Title=%title%" -T "Album=%albumtitle%" -T "Date=%year%" -T "Tracknumber=%tracknr%" -T "Comment=%comment%" %source%

TOC извлечённого CD

Трек | Старт | Длительность | Начальный сектор | Конечный сектор --------------------------------------------------------------------- 1 | 0:00.00 | 3:16.14 | 0 | 14713 2 | 3:16.14 | 4:34.67 | 14714 | 35330 3 | 7:51.06 | 4:07.67 | 35331 | 53922 4 | 11:58.73 | 3:11.30 | 53923 | 68277 5 | 15:10.28 | 4:58.01 | 68278 | 90628 6 | 20:08.29 | 4:05.48 | 90629 | 109051 7 | 24:14.02 | 3:51.26 | 109052 | 126402 8 | 28:05.28 | 3:11.59 | 126403 | 140786

Трек 1

Имя файла C:\01. Resa - Он розыскивается.wav

Длина предзазора 0:00:02.00

Пиковый уровень 99.5 % Скорость извлечения 4.7 X Качество трека 99.9 % CRC теста 793FEE89 CRC копии 793FEE89 Копирование... OK

Трек 2

Имя файла C:\02. Resa - Святая троица.wav

Длина предзазора 0:00:02.00

Пиковый уровень 99.5 % Скорость извлечения 5.6 X Качество трека 99.9 % CRC теста CD801EC0 CRC копии CD801EC0 Копирование... OK

Трек 3

Имя файла C:\03. Russoul - White Boy.wav

Длина предзазора 0:00:02.00

Пиковый уровень 99.5 % Скорость извлечения 6.7 X Качество трека 100.0 % CRC теста F49170D3 CRC копии F49170D3 Копирование... OK

Трек 4

Имя файла C:\04. Батишта и Чек - В этом городе.wav

Длина предзазора 0:00:02.00

Пиковый уровень 99.5 % Скорость извлечения 6.8 X Качество трека 100.0 % CRC теста 10B055F5 CRC копии 10B055F5 Копирование... OK

Трек 5

Имя файла C:\05. ДаБац - Освободись от Вавилона.wav

Длина предзазора 0:00:02.00

Пиковый уровень 99.5 % Скорость извлечения 7.7 X Качество трека 100.0 % CRC теста 1928C9CE CRC копии 1928C9CE Копирование... OK

Трек 6

Имя файла C:\06. DJ Flacky - Reggae Goes Under Cover.wav

Длина предзазора 0:00:02.00

Пиковый уровень 98.9 % Скорость извлечения 8.0 X Качество трека 100.0 % CRC теста 8E2906D1 CRC копии 8E2906D1 Копирование... OK

Трек 7

Имя файла C:\07. DC MC - Вминать.wav

Длина предзазора 0:00:02.00

Пиковый уровень 100.0 % Скорость извлечения 8.3 X Качество трека 100.0 % CRC теста 7CF7D10B CRC копии 7CF7D10B Копирование... OK

Трек 8

Имя файла C:\08. Resa - Розыскивается [Russoul mix].wav

Длина предзазора 0:00:02.00

Пиковый уровень 99.5 % Скорость извлечения 8.4 X Качество трека 100.0 % CRC теста F907C18C CRC копии F907C18C Копирование... OK

Ошибок не произошло

Конец отчёта

==== Контрольная сумма отчёта 228A76E19D971768D2D70E4F084865B0BC8D6C92D6DE1C3D85D67AE77439CE33 ====


Трекер:  [ 03-Фев-2012 01:31 ]

  

Скачать .torrent

Размер .torrent файла 16 KB


Размер: 188 MB
Хэш (hash) релиза: 463a5e2490fbbf296ccdb0ffd474eebf6997dee0

Еще никто не оставлял запись к записи скачать торрент VA - Resa: Он разыскивается - 2005, FLAC . Будь первым!

!Обратная связь