Dieci cose da sapere sull'economia italiana prima che sia troppo tardi | Enhanced (Brides of the Kindred #12) | Test-Driven Development in C++

Скачать через торрент музыку VA - Dan Mas Riddim бесплатно без регистрации torrent

Статистика раздачи
Размер:  189 MB   |    Зарегистрирован:  6 лет 5 месяцев   |    .torrent скачан:  37 раз   |   
Раздают:  1  
   
загрузка...
 
Автор Сообщение

Galfimbul

avatar Galfimbul


Dan Mas Riddim (Jouvert Effect)

Жанр: Dance Hall
Год издания диска: 2011
Издатель (лейбл): Champion Sound Mastering
Страна: TT
Аудиокодек: FLAC (*.flac)
Тип рипа: tracks+.cue
Битрейт аудио: lossless
Продолжительность: 00:26:46
Источник (релизер): Riddimstream.com
Наличие сканов в содержимом раздачи: Да

Треклист:
01. Jumbie - Makamillion (03:16)
02. Orlando Octave - Gyal Alone (03:16)
03. Kerry John - J'ouvert (02:36)
04. Jah Mel - Feeling (02:17)
05. Buffy - Taking A Drink (02:47)
06. Fada Moses - More Rum For We (03:09)
07. Royal Gordon - Puncheon (02:55)
08. Yankee Boy - Come Test Me (03:16)
09. Dan Mas Riddim (Instrumental) (03:14)
 
REM ACCURATERIPID 00091735-00426b77-6c064409REM COMMENT "CUETools generated dummy CUE sheet"TITLE "Dan Mas Riddim (Jouvert Effect)"REM DATE 2011REM GENRE "Dance Hall"FILE "01. Jumbie - Makamillion.flac" WAVE TRACK 01 AUDIO PERFORMER "Jumbie" TITLE "Makamillion" INDEX 01 00:00:00FILE "02. Orlando Octave - Gyal Alone.flac" WAVE TRACK 02 AUDIO PERFORMER "Orlando Octave" TITLE "Gyal Alone" INDEX 01 00:00:00FILE "03. Kerry John - J'ouvert.flac" WAVE TRACK 03 AUDIO PERFORMER "Kerry John" TITLE "J'ouvert" INDEX 01 00:00:00FILE "04. Jah Mel - Feeling.flac" WAVE TRACK 04 AUDIO PERFORMER "Jah Mel" TITLE "Feeling" INDEX 01 00:00:00FILE "05. Buffy - Taking A Drink.flac" WAVE TRACK 05 AUDIO PERFORMER "Buffy" TITLE "Taking A Drink" INDEX 01 00:00:00FILE "06. Fada Moses - More Rum For We.flac" WAVE TRACK 06 AUDIO PERFORMER "Fada Moses" TITLE "More Rum For We" INDEX 01 00:00:00FILE "07. Royal Gordon - Puncheon.flac" WAVE TRACK 07 AUDIO PERFORMER "Royal Gordon" TITLE "Puncheon" INDEX 01 00:00:00FILE "08. Yankee Boy - Come Test Me.flac" WAVE TRACK 08 AUDIO PERFORMER "Yankee Boy" TITLE "Come Test Me" INDEX 01 00:00:00FILE "09. Dan Mas Riddim (Instrumental).flac" WAVE TRACK 09 AUDIO TITLE "Dan Mas Riddim (Instrumental)" INDEX 01 00:00:00
 
-----------------------

DON'T MODIFY THIS FILE

-----------------------

PERFORMER: auCDtect Task Manager, ver. 1.5.1RC4 build 1.5.1.5Copyright (c) 2008-2010 y-soft. All rights reservedhttp://y-soft.org

ANALYZER: auCDtect: CD records authenticity detector, version 0.8.2Copyright (c) 2004 Oleg Berngardt. All rights reserved.Copyright (c) 2004 Alexander Djourik. All rights reserved.

FILE: 09. Dan Mas Riddim (Instrumental).flac Size: 24293617 Hash: D9E9893D4CC8424513F20E854BA5AF63 Accuracy: -m0 Conclusion: ??? Signature: 9F773311B7E9FA41ED1A932DEF2A040FE6BD857AFILE: 08. Yankee Boy - Come Test Me.flac Size: 24517997 Hash: AE15D9FF40740FAAA7ADA1234C09CE37 Accuracy: -m0 Conclusion: CDDA 94% Signature: 5C51A534BD557EB158967610C9C41D133996E5F8FILE: 07. Royal Gordon - Puncheon.flac Size: 21797793 Hash: A32B727370C7BDF870F355E8911EAB23 Accuracy: -m0 Conclusion: CDDA 62% Signature: 05EA729EBA9F98CBCA7276BE0EAD23E2DFFFE6EDFILE: 06. Fada Moses - More Rum For We.flac Size: 23044803 Hash: 0EC179AEC2D35E2239F184BA9F2D2319 Accuracy: -m0 Conclusion: CDDA 92% Signature: 42BC4F12BBF2F2D7F1AC20B392A7F2F69593B857FILE: 05. Buffy - Taking A Drink.flac Size: 20377839 Hash: 4079E186BBCE960534C43EDE738C26AD Accuracy: -m0 Conclusion: CDDA 86% Signature: 133600F602C5643A2C9D0D4FC84184B5AA6BC335FILE: 04. Jah Mel - Feeling.flac Size: 16997891 Hash: F40CC9D907134ED6FFB15D693BFCA1D1 Accuracy: -m0 Conclusion: CDDA 86% Signature: F1D95FC2BAABC80109870B6A4DCF315F8E4E1AB5FILE: 03. Kerry John - J'ouvert.flac Size: 19085590 Hash: 6E7745C130B3F874E8C632B2A478E79A Accuracy: -m0 Conclusion: CDDA 43% Signature: 0E49DCFABAFFB958DBADE1A66EDDAF1F3DCF7495FILE: 02. Orlando Octave - Gyal Alone.flac Size: 24151049 Hash: CD18C243DDD8D83E342F862FF1F4B8BE Accuracy: -m0 Conclusion: CDDA 76% Signature: 0C5B6F32ACF2457F07AE45DC3F586D82EE22CE0DFILE: 01. Jumbie - Makamillion.flac Size: 23436507 Hash: FBA73746E4B8986C1B491BABE9FB09C8 Accuracy: -m0 Conclusion: CDDA 76% Signature: 34F711C128EC1E02AF1A28B6B82CB54974AD2AB0
WEB.
Релиз изначально в WAV формате (tracks). Конверт во FLAC при помощи CUETools (2.1.2a).
Спектры оригиналов (WAV tracks):


Трекер:  [ 03-Фев-2012 01:22 ]

  

Скачать .torrent

Размер .torrent файла 16 KB


Размер: 189 MB
Хэш (hash) релиза: ae5f443948ffed1b3dc9cc881692202669c79e50

Еще никто не оставлял запись к записи скачать торрент VA - Dan Mas Riddim . Будь первым!

!Обратная связь