When You Dare (Men Who Walk the Edge of Honor #1) | Rzeka / The River | Insecure

Скачать через торрент музыку Skarface - Cheap Pounk Skaaaaa!!! - 1992, FLAC бесплатно без регистрации torrent

Статистика раздачи
Размер:  321 MB   |    Зарегистрирован:  6 лет 5 месяцев   |    .torrent скачан:  29 раз   |   
Раздают:  1  
   
загрузка...
 
Автор Сообщение

Galfimbul

avatar Galfimbul


Skarface / Cheap Pounk Skaaaaa!!!
Жанр: Third Wave Ska
Год издания диска: 1992
Аудиокодек: FLAC (*.flac)
Тип рипа: tracks+.cue
Битрейт аудио: lossless
Продолжительность: 49:13
Источник (релизер): maxxim1979
Наличие сканов в содержимом раздачи: нет
Треклист:
01. Soul Start (2:21)
02. Intro (1:41)
03. Stranger (2:53)
04. Skarface (3:10)
05. Scooters'r back (2:43)
06. Jamaika ska (4:27)
07. Freddy goes (2:59)
08. Violence (3:03)
09. Blue mood (4:40)
10. Special France (2:47)
11. I hate you so (3:29)
12. Jeune vaurien (2:59)
13. Best friend (4:08)
14. Midnignt hour (2:49)
15. Tribus (2:29)
16. Rude girl (2:38)
Отчёт EAC об извлечении, выполненном 8. января 2012, 21:51 для диска:
Skarface / Cheap Pounk Skaa !

Дисковод: HL-DT-STDVD-RAM GH22NS30 Adapter: 0 ID: 0
Режим чтения: Достоверный (C2: нет, Точный поток: да, Отключение кэша: да)
Коррекция смещения при чтении: 102
Способность читать области Lead-in и Lead-out : Нет

Выходной формат: Внутренние WAV-операции
44.100 Гц; 16 бит; стерео

Другие параметры:
Заполнение пропущенных сэмплов тишиной : Да
Удаление блоков с тишиной в начале и конце : Нет
Встроенный Win32-интерфейс для Win NT/2000

Трек 1
Имя файла E:\Music (Part 2)\Ska\Skarface - Cheap Pounk Skaaaaa!!! (1992)\01 - Soul Start.wav

Пиковый уровень 81.6 %
Качество трека 100.0 %
CRC теста 6A03FD20
CRC копии 6A03FD20
Копирование... OK

Трек 2
Имя файла E:\Music (Part 2)\Ska\Skarface - Cheap Pounk Skaaaaa!!! (1992)\02 - Intro.wav

Пиковый уровень 75.9 %
Качество трека 100.0 %
CRC теста 0F6EB7B6
CRC копии 0F6EB7B6
Копирование... OK

Трек 3
Имя файла E:\Music (Part 2)\Ska\Skarface - Cheap Pounk Skaaaaa!!! (1992)\03 - Stranger.wav

Пиковый уровень 80.8 %
Качество трека 100.0 %
CRC теста DEFEA071
CRC копии DEFEA071
Копирование... OK

Трек 4
Имя файла E:\Music (Part 2)\Ska\Skarface - Cheap Pounk Skaaaaa!!! (1992)\04 - Skarface.wav

Пиковый уровень 79.5 %
Качество трека 100.0 %
CRC теста F16B78E3
CRC копии F16B78E3
Копирование... OK

Трек 5
Имя файла E:\Music (Part 2)\Ska\Skarface - Cheap Pounk Skaaaaa!!! (1992)\05 - Scooters'r back.wav

Пиковый уровень 78.2 %
Качество трека 100.0 %
CRC теста 10E6EC66
CRC копии 10E6EC66
Копирование... OK

Трек 6
Имя файла E:\Music (Part 2)\Ska\Skarface - Cheap Pounk Skaaaaa!!! (1992)\06 - Jamaika ska.wav

Пиковый уровень 76.8 %
Качество трека 100.0 %
CRC теста D216BC17
CRC копии D216BC17
Копирование... OK

Трек 7
Имя файла E:\Music (Part 2)\Ska\Skarface - Cheap Pounk Skaaaaa!!! (1992)\07 - Freddy goes.wav

Пиковый уровень 76.8 %
Качество трека 100.0 %
CRC теста E524E524
CRC копии E524E524
Копирование... OK

Трек 8
Имя файла E:\Music (Part 2)\Ska\Skarface - Cheap Pounk Skaaaaa!!! (1992)\08 - Violence.wav

Пиковый уровень 75.6 %
Качество трека 100.0 %
CRC теста 9545C051
CRC копии 9545C051
Копирование... OK

Трек 9
Имя файла E:\Music (Part 2)\Ska\Skarface - Cheap Pounk Skaaaaa!!! (1992)\09 - Blue mood.wav

Пиковый уровень 78.1 %
Качество трека 100.0 %
CRC теста 4D3A33EE
CRC копии 4D3A33EE
Копирование... OK

Трек 10
Имя файла E:\Music (Part 2)\Ska\Skarface - Cheap Pounk Skaaaaa!!! (1992)\10 - Special France.wav

Пиковый уровень 78.7 %
Качество трека 100.0 %
CRC теста CBB9B3D2
CRC копии CBB9B3D2
Копирование... OK

Трек 11
Имя файла E:\Music (Part 2)\Ska\Skarface - Cheap Pounk Skaaaaa!!! (1992)\11 - I hate you so.wav

Пиковый уровень 80.4 %
Качество трека 100.0 %
CRC теста 1A82E1F6
CRC копии 1A82E1F6
Копирование... OK

Трек 12
Имя файла E:\Music (Part 2)\Ska\Skarface - Cheap Pounk Skaaaaa!!! (1992)\12 - Jeune vaurien.wav

Пиковый уровень 74.4 %
Качество трека 100.0 %
CRC теста BA868CB8
CRC копии BA868CB8
Копирование... OK

Трек 13
Имя файла E:\Music (Part 2)\Ska\Skarface - Cheap Pounk Skaaaaa!!! (1992)\13 - Best friend.wav

Пиковый уровень 90.0 %
Качество трека 100.0 %
CRC теста 5BB0B84C
CRC копии 5BB0B84C
Копирование... OK

Трек 14
Имя файла E:\Music (Part 2)\Ska\Skarface - Cheap Pounk Skaaaaa!!! (1992)\14 - Midnignt hour.wav

Пиковый уровень 77.8 %
Качество трека 100.0 %
CRC теста C2821BE2
CRC копии C2821BE2
Копирование... OK

Трек 15
Имя файла E:\Music (Part 2)\Ska\Skarface - Cheap Pounk Skaaaaa!!! (1992)\15 - Tribus.wav

Пиковый уровень 78.6 %
Качество трека 100.0 %
CRC теста BC76DAE0
CRC копии BC76DAE0
Копирование... OK

Трек 16
Имя файла E:\Music (Part 2)\Ska\Skarface - Cheap Pounk Skaaaaa!!! (1992)\16 - Rude girl.wav

Пиковый уровень 74.3 %
Качество трека 100.0 %
CRC теста 494F4CDA
CRC копии 494F4CDA
Копирование... OK

Ошибок не произошло

Конец отчёта
REM GENRE " Third Wave Ska "
REM DATE 1992
REM DISCID DD0B8910
REM COMMENT "ExactAudioCopy v0.95b4"
PERFORMER "Skarface"
TITLE "Cheap Pounk Skaa !"
FILE "01 - Soul Start.wav" WAVE
TRACK 01 AUDIO
TITLE "Soul Start"
PERFORMER "Skarface"
PREGAP 00:00:32
INDEX 01 00:00:00
TRACK 02 AUDIO
TITLE "Intro"
PERFORMER "Skarface"
INDEX 00 02:11:63
FILE "02 - Intro.wav" WAVE
INDEX 01 00:00:00
FILE "03 - Stranger.wav" WAVE
TRACK 03 AUDIO
TITLE "Stranger"
PERFORMER "Skarface"
INDEX 01 00:00:00
TRACK 04 AUDIO
TITLE "Skarface"
PERFORMER "Skarface"
INDEX 00 02:43:27
FILE "04 - Skarface.wav" WAVE
INDEX 01 00:00:00
FILE "05 - Scooters'r back.wav" WAVE
TRACK 05 AUDIO
TITLE "Scooters'r back"
PERFORMER "Skarface"
INDEX 01 00:00:00
TRACK 06 AUDIO
TITLE "Jamaika ska"
PERFORMER "Skarface"
INDEX 00 02:30:07
FILE "06 - Jamaika ska.wav" WAVE
INDEX 01 00:00:00
TRACK 07 AUDIO
TITLE "Freddy goes"
PERFORMER "Skarface"
INDEX 00 04:12:03
FILE "07 - Freddy goes.wav" WAVE
INDEX 01 00:00:00
FILE "08 - Violence.wav" WAVE
TRACK 08 AUDIO
TITLE "Violence"
PERFORMER "Skarface"
INDEX 01 00:00:00
FILE "09 - Blue mood.wav" WAVE
TRACK 09 AUDIO
TITLE "Blue mood"
PERFORMER "Skarface"
INDEX 01 00:00:00
TRACK 10 AUDIO
TITLE "Special France"
PERFORMER "Skarface"
INDEX 00 04:27:62
FILE "10 - Special France.wav" WAVE
INDEX 01 00:00:00
FILE "11 - I hate you so.wav" WAVE
TRACK 11 AUDIO
TITLE "I hate you so"
PERFORMER "Skarface"
INDEX 01 00:00:00
TRACK 12 AUDIO
TITLE "Jeune vaurien"
PERFORMER "Skarface"
INDEX 00 03:10:33
FILE "12 - Jeune vaurien.wav" WAVE
INDEX 01 00:00:00
FILE "13 - Best friend.wav" WAVE
TRACK 13 AUDIO
TITLE "Best friend"
PERFORMER "Skarface"
INDEX 01 00:00:00
FILE "14 - Midnignt hour.wav" WAVE
TRACK 14 AUDIO
TITLE "Midnignt hour"
PERFORMER "Skarface"
INDEX 01 00:00:00
TRACK 15 AUDIO
TITLE "Tribus"
PERFORMER "Skarface"
INDEX 00 02:02:65
FILE "15 - Tribus.wav" WAVE
INDEX 01 00:00:00
FILE "16 - Rude girl.wav" WAVE
TRACK 16 AUDIO
TITLE "Rude girl"
PERFORMER "Skarface"
INDEX 01 00:00:00


Трекер:  [ 03-Фев-2012 01:21 ]

  

Скачать .torrent

Размер .torrent файла 14 KB


Размер: 321 MB
Хэш (hash) релиза: 9f5451673ae299fe2cef3531cefb3b6ecc208b7b

Еще никто не оставлял запись к записи скачать торрент Skarface - Cheap Pounk Skaaaaa!!! - 1992, FLAC . Будь первым!

!Обратная связь