Watch Movie | Domhnall Gleeson | Recherche : « Prison Break »

Скачать через торрент музыку Burning Spear - Dry & Heavy - 1977 бесплатно без регистрации torrent

Статистика раздачи
Размер:  179 MB   |    Зарегистрирован:  6 лет 5 месяцев   |    .torrent скачан:  38 раз   |   
Раздают:  1  
   
загрузка...
 
Автор Сообщение

Galfimbul

avatar Galfimbul


Burning Spear
Dry & Heavy
CD, Album, Reissue.
Жанр: Roots Reggae
Год выпуска диска: 1977 (Reissue 1992)
Производитель диска: Mango | US
Аудио кодек: FLAC
Тип рипа: tracks+.cue
Битрейт аудио: lossless
Продолжительность: 00:32:09
.
Трэклист:

01. Burning Spear - Any River - (03:20)
02. Burning Spear - The Sun - (03:43)
03. Burning Spear - It's A Long Way Around - (03:06)
04. Burning Spear - I W.I.N. - (03:47)
05. Burning Spear - Throw Down Your Arms - (04:06)
06. Burning Spear - Dry And Heavy - (03:30)
07. Burning Spear - Wailing - (02:47)
08. Burning Spear - Black Disciples - (04:23)
09. Burning Spear - Shout It Out - (03:29)
.
from waffles.fm thnx 2 vermonster
 
EAC extraction logfile from 8. September 2007, 11:35 for CDBurning Spear / Dry And Heavy

Used drive : LITE-ON DVD SOHD-16P9S Adapter: 1 ID: 1Read mode : Secure with C2, accurate stream, disable cacheRead offset correction : 6Overread into Lead-In and Lead-Out : No

Used output format : Internal WAV Routines 44.100 Hz; 16 Bit; Stereo

Other options : Fill up missing offset samples with silence : Yes Delete leading and trailing silent blocks : No Installed external ASPI interface

Track 1 Filename J:\Oink - Reggae & Dub\1977--Burning Spear - Dry & Heavy\Burning Spear - Dry And Heavy - 01 - Any River.wav

Pre-gap length 0:00:02.00

Peak level 75.3 % Track quality 100.0 % Test CRC 7615FEC0 Copy CRC 7615FEC0 Copy OK

Track 2 Filename J:\Oink - Reggae & Dub\1977--Burning Spear - Dry & Heavy\Burning Spear - Dry And Heavy - 02 - The Sun.wav

Pre-gap length 0:00:01.89

Peak level 77.3 % Track quality 100.0 % Test CRC 9DB1F528 Copy CRC 9DB1F528 Copy OK

Track 3 Filename J:\Oink - Reggae & Dub\1977--Burning Spear - Dry & Heavy\Burning Spear - Dry And Heavy - 03 - It's a Long Way Around.wav

Pre-gap length 0:00:00.40

Peak level 64.6 % Track quality 100.0 % Test CRC 682A81E4 Copy CRC 682A81E4 Copy OK

Track 4 Filename J:\Oink - Reggae & Dub\1977--Burning Spear - Dry & Heavy\Burning Spear - Dry And Heavy - 04 - Iw.i.n.wav

Pre-gap length 0:00:01.06

Peak level 81.7 % Track quality 100.0 % Test CRC 8CF73513 Copy CRC 8CF73513 Copy OK

Track 5 Filename J:\Oink - Reggae & Dub\1977--Burning Spear - Dry & Heavy\Burning Spear - Dry And Heavy - 05 - Throw Down Your Arms.wav

Peak level 65.8 % Track quality 100.0 % Test CRC 89E3535E Copy CRC 89E3535E Copy OK

Track 6 Filename J:\Oink - Reggae & Dub\1977--Burning Spear - Dry & Heavy\Burning Spear - Dry And Heavy - 06 - Dry And Heavy.wav

Pre-gap length 0:00:00.64

Peak level 77.3 % Track quality 100.0 % Test CRC C4FFE2B7 Copy CRC C4FFE2B7 Copy OK

Track 7 Filename J:\Oink - Reggae & Dub\1977--Burning Spear - Dry & Heavy\Burning Spear - Dry And Heavy - 07 - Wailing.wav

Pre-gap length 0:00:00.86

Peak level 74.6 % Track quality 100.0 % Test CRC D818B6FF Copy CRC D818B6FF Copy OK

Track 8 Filename J:\Oink - Reggae & Dub\1977--Burning Spear - Dry & Heavy\Burning Spear - Dry And Heavy - 08 - Black Disciples.wav

Peak level 71.7 % Track quality 100.0 % Test CRC 9E982E89 Copy CRC 9E982E89 Copy OK

Track 9 Filename J:\Oink - Reggae & Dub\1977--Burning Spear - Dry & Heavy\Burning Spear - Dry And Heavy - 09 - Shout It Out.wav

Pre-gap length 0:00:00.20

Peak level 80.7 % Track quality 100.0 % Test CRC 67872794 Copy CRC 67872794 Copy OK

No errors occured

End of status report
 
REM GENRE ReggaeREM DATE 1977REM DISCID 61078909REM COMMENT "ExactAudioCopy v0.95b4"PERFORMER "Burning Spear"TITLE "Dry And Heavy"FILE "Burning Spear - Dry And Heavy - 01 - Any River.wav" WAVE TRACK 01 AUDIO TITLE "Any River" PERFORMER "Burning Spear" INDEX 01 00:00:00 TRACK 02 AUDIO TITLE "The Sun" PERFORMER "Burning Spear" INDEX 00 03:17:55FILE "Burning Spear - Dry And Heavy - 02 - The Sun.wav" WAVE INDEX 01 00:00:00 TRACK 03 AUDIO TITLE "It's a Long Way Around" PERFORMER "Burning Spear" INDEX 00 03:42:25FILE "Burning Spear - Dry And Heavy - 03 - It's a Long Way Around.wav" WAVE INDEX 01 00:00:00 TRACK 04 AUDIO TITLE "Iw.i.n" PERFORMER "Burning Spear" INDEX 00 03:05:13FILE "Burning Spear - Dry And Heavy - 04 - Iw.i.n.wav" WAVE INDEX 01 00:00:00FILE "Burning Spear - Dry And Heavy - 05 - Throw Down Your Arms.wav" WAVE TRACK 05 AUDIO TITLE "Throw Down Your Arms" PERFORMER "Burning Spear" INDEX 01 00:00:00 TRACK 06 AUDIO TITLE "Dry And Heavy" PERFORMER "Burning Spear" INDEX 00 04:04:70FILE "Burning Spear - Dry And Heavy - 06 - Dry And Heavy.wav" WAVE INDEX 01 00:00:00 TRACK 07 AUDIO TITLE "Wailing" PERFORMER "Burning Spear" INDEX 00 03:28:52FILE "Burning Spear - Dry And Heavy - 07 - Wailing.wav" WAVE INDEX 01 00:00:00FILE "Burning Spear - Dry And Heavy - 08 - Black Disciples.wav" WAVE TRACK 08 AUDIO TITLE "Black Disciples" PERFORMER "Burning Spear" INDEX 01 00:00:00 TRACK 09 AUDIO TITLE "Shout It Out" PERFORMER "Burning Spear" INDEX 00 04:23:15FILE "Burning Spear - Dry And Heavy - 09 - Shout It Out.wav" WAVE INDEX 01 00:00:00

eNJ0Y!Machine

Трекер:  [ 03-Фев-2012 01:20 ]

  

Скачать .torrent

Размер .torrent файла 15 KB


Размер: 179 MB
Хэш (hash) релиза: b77062916043dd5a4058023bedc7c5d41d98a36d

Еще никто не оставлял запись к записи скачать торрент Burning Spear - Dry & Heavy - 1977 . Будь первым!

!Обратная связь