Revo Uninstaller PRO v3.2.1 Multilingual (Windows) | Natti Natasha ❌ Ozuna - Criminal [Official Video] | Sakura Quest

Скачать через торрент музыку Dennis Bovell - Decibel - 2003, APE бесплатно без регистрации torrent

Статистика раздачи
Размер:  334 MB   |    Зарегистрирован:  6 лет 5 месяцев   |    .torrent скачан:  28 раз   |   
Раздают:  1  
   
загрузка...
 
Автор Сообщение

Galfimbul

avatar Galfimbul


Dennis Bovell / Decibel

Жанр: Dub, Roots Reggae
Год издания диска: 2003
Производитель диска:: Pressure Sounds * PS39 *
Аудиокодек: APE (*.ape)
Тип рипа: image+.cue
Битрейт аудио: lossless
Продолжительность: 56:57
Источник (релизер): Домашняя копия оригинального CD
Наличие сканов в содержимом раздачи: да
Треклист:
01 The Grunwick Affair 4:04
02 Harmoniser Dub 4:27
03 Dominium Dub 3:32
04 Rowing 12'' Version 7:02
05 Zombie Zones 4:00
06 Zion Dub 2:46
07 Higher Ranking 4:31
08 Ranking High 2:44
09 Scientific 2:59
10 Shi-cago 2:51
11 None Jah Jah Children 3:12
12 Uganda Crisis 2:26
13 Ah Fi Wi Dis 2:52
14 Entebbe 3:00
15 Blood A Go Run 3:38
16 Dub'er 2:53
 
Exact Audio Copy V1.0 beta 3 from 29. August 2011

EAC extraction logfile from 10. January 2012, 23:15

Dennis Bovell / Decibel

Used drive : TEAC DV-W520GS Adapter: 3 ID: 0

Read mode : SecureUtilize accurate stream : YesDefeat audio cache : NoMake use of C2 pointers : Yes

Read offset correction : 6Overread into Lead-In and Lead-Out : NoFill up missing offset samples with silence : YesDelete leading and trailing silent blocks : NoNull samples used in CRC calculations : YesUsed interface : Native Win32 interface for Win NT & 2000

Used output format : Monkey's Audio Lossless EncoderSelected bitrate : Fast Lossless CompressionQuality : HighAdd ID3 tag : YesCommand line compressor : C:\Program Files (x86)\Monkey's Audio\MAC.exe

TOC of the extracted CD

Track | Start | Length | Start sector | End sector --------------------------------------------------------- 1 | 0:00.00 | 4:04.21 | 0 | 18320 2 | 4:04.21 | 4:27.32 | 18321 | 38377 3 | 8:31.53 | 3:32.03 | 38378 | 54280 4 | 12:03.56 | 7:01.70 | 54281 | 85925 5 | 19:05.51 | 4:00.31 | 85926 | 103956 6 | 23:06.07 | 2:46.21 | 103957 | 116427 7 | 25:52.28 | 4:30.58 | 116428 | 136735 8 | 30:23.11 | 2:43.68 | 136736 | 149028 9 | 33:07.04 | 2:58.69 | 149029 | 162447 10 | 36:05.73 | 2:51.34 | 162448 | 175306 11 | 38:57.32 | 3:11.60 | 175307 | 189691 12 | 42:09.17 | 2:25.74 | 189692 | 200640 13 | 44:35.16 | 2:52.04 | 200641 | 213544 14 | 47:27.20 | 3:00.05 | 213545 | 227049 15 | 50:27.25 | 3:37.48 | 227050 | 243372 16 | 54:04.73 | 2:52.46 | 243373 | 256318

Range status and errors

Selected range

Filename C:\Users\Anton\Desktop\RIPs\Dennis Bovell - Decibel.wav

Suspicious position 0:41:17 - 0:41:18

Peak level 100.0 % Extraction speed 16.4 X Range quality 99.8 % Test CRC CF14FF7C Copy CRC 5985FCC4 Copy finished

There were errors

End of status report
Снято было с копии оригинального диска. Первая моя раздача lossless. За не имением лучшего предлагаю оставить. Со временем буду заменять на на более четкие рипы, и рипы с винила. (в частности этот в том же 2003 году вышел на 2xLP)
If any one individual can be credited with being the catalyst for English reggae and dub then Dennis Bovell is that man. From the mid seventies onwards he has been at the centre of the English reggae scene. Pressure Sounds have now gathered sixteen of Dennis' must have rare dubs and instrumentals as well as a couple of outstanding vocal tracks on one essential album.

'Decibel' brings together some of his heaviest productions out for the first time since their original release in the mid-seventies on Dennis' 'Rama' and 'More Cut' labels.

Dennis also produced many dub plates and specials that have never been heard outside of sound system dances and several of these dubs are also featured on 'Decibel'.

At the same time as he was producing and playing bass on these records he was doing the same in the band Matumbi and also produced the UK National number one 'Silly Games' by Janet Kay.

Dennis went on to become a much sought after producer outside of the reggae genre and produced the debut albums of both The Slits and The Pop Group. In more recent times he worked with Edwyn Collins on 'Never Known A Girl Like You Before' both producing and playing bass on this hit single. He has always fronted The Dub Band who back LKJ in the studio and live and have remained one of the biggest attractions in reggae. Dennis Bovell has somehow managed to be in the unique position of both a producer outside of the reggae genre and a driving force within it.

The music in 'Decibel' concentrates on Dennis' early output with the emphasis on his 'out there' dub productions. 'The Grunwick Affair' kicks the album off with a full horn section and is as good as anything produced in Jamaica from the same period. UK musicians from Matumbi and Aswad and the Jamaican drummer 'Style' Scott from the Dub Syndicate all appear on the album. 'Harmoniser Dub' with Angus Gaye from Aswad on drums and Dennis playing driving rhythm on bass is a killer. 'Zombie Zones', taken from the rare album 'Audio Active' (where the Japanese band got their name), is as 'thundering' as anything ever released in the UK.

With super rare photos from the period and comprehensive sleevenotes we think you will find this an original and exciting release.

взято с сайта http://www.pressure.co.uk/store/PS39/dennis-bovell-decibel-more-cuts-dubs-1976-to-1983/


Трекер:  [ 03-Фев-2012 01:20 ]

  

Скачать .torrent

Размер .torrent файла 13 KB


Размер: 334 MB
Хэш (hash) релиза: aed57c3c2e4d4bcda30a19c0a85a7c01a77ae7dc

Еще никто не оставлял запись к записи скачать торрент Dennis Bovell - Decibel - 2003, APE . Будь первым!

!Обратная связь