Half-Life 2: Legacy (2007) PC | padmavat 2018 movie 1080p | [Cleo] Sword Art Online Alternative: Gun Gale Online [10bit 1080p][HEVC-x265]

Скачать через торрент музыку VA - Soul Power - Funky Kingston 2: Reggae Dance Floor Grooves 1968-74 - 2005 бесплатно без регистрации torrent

Статистика раздачи
Размер:  392 MB   |    Зарегистрирован:  6 лет 5 месяцев   |    .torrent скачан:  38 раз   |   
Раздают:  1  
   
загрузка...
 
Автор Сообщение

Galfimbul

avatar Galfimbul


Various Artists
Soul Power - Funky Kingston 2
Reggae Dance Floor Grooves 1968-74
CD, Compilation.
Жанр: Reaggae, Funk / Soul, Rocksteady
Год выпуска диска: 2005
Производитель диска: Trojan Records | UK
Аудио кодек: FLAC
Тип рипа: tracks+.cue
Битрейт аудио: lossless
Продолжительность: 01:07:58
.
Трэклист:

01. Shark Wilson & The Basement Heaters - Make It Reggae - (03:13)
02. The Chosen Few - Funky Buttercup - (02:49)
03. Nicky Thomas - Soul Power - (03:03)
04. The Cimarons - Wicky Wacky - (02:38)
05. Horace Faith - Spinning Wheel - (02:13)
06. James Brown - Do It - (02:00)
07. Jamaica Jam - Sticky Fingers - (02:53)
08. Annetta Jackson - Meditation - (03:30)
09. The Chequers - Get Up, Stand Up - (06:55)
10. Mike Dorane - The Cimarons - Penguin Funk - (02:57)
11. Zap Pow - Funking Skank - (03:02)
12. Tinga Stewart - The Message - (02:55)
13. Bunny Scott - Lee Perry - Kinky Fly - (02:43)
14. The Studio Sound - Give Me Some More - (04:14)
15. The Aquarians - Medusa Parts 1 & 2 - (04:44)
16. Hopeton Lewis - Express Yourself - (02:33)
17. Alton Ellis - It's Your Thing - (02:58)
18. Matumbi - (I Can't Get Enough Of That) Reggae Stuff - (03:00)
19. Greyhound - The Change - (06:02)
20. The Chosen Few - Shaft - (03:38)
.
+ cover_art 300 dpi
.
from waffles.fm thnx 2 Dubhead
 
EAC extraction logfile from 6. March 2008, 20:31 for CD /

Used drive : PHILIPS DVDR1648P1 Adapter: 0 ID: 1Read mode : Secure with NO C2, accurate stream, disable cacheRead offset correction : 618Overread into Lead-In and Lead-Out : No

Used output format : Internal WAV Routines 44.100 Hz; 16 Bit; Stereo

Other options : Fill up missing offset samples with silence : Yes Delete leading and trailing silent blocks : No Native Win32 interface for Win NT & 2000

Track 1 Filename F:\~ fertig ~\01 Shark Wilson & The Basement Heaters - Make It Reggae.wav

Peak level 88.9 % Track quality 99.9 % Test CRC 48BD567D Copy CRC 48BD567D Copy OK

Track 2 Filename F:\~ fertig ~\02 The Chosen Few - Funky Buttercup.wav

Peak level 98.6 % Track quality 100.0 % Test CRC B132C8F4 Copy CRC B132C8F4 Copy OK

Track 3 Filename F:\~ fertig ~\03 Nicky Thomas - Soul Power.wav

Peak level 96.4 % Track quality 100.0 % Test CRC C726B7FA Copy CRC C726B7FA Copy OK

Track 4 Filename F:\~ fertig ~\04 The Cimarons - Wicky Wacky.wav

Peak level 96.8 % Track quality 100.0 % Test CRC E5389494 Copy CRC E5389494 Copy OK

Track 5 Filename F:\~ fertig ~\05 Horace Faith - Spinning Wheel.wav

Peak level 99.7 % Track quality 100.0 % Test CRC E07A8807 Copy CRC E07A8807 Copy OK

Track 6 Filename F:\~ fertig ~\06 James Brown - Do It.wav

Peak level 97.5 % Track quality 99.9 % Test CRC 1A40130A Copy CRC 1A40130A Copy OK

Track 7 Filename F:\~ fertig ~\07 Jamaica Jam - Sticky Fingers.wav

Peak level 83.9 % Track quality 99.9 % Test CRC 41143234 Copy CRC 41143234 Copy OK

Track 8 Filename F:\~ fertig ~\08 Anetta Jackson - Meditation.wav

Peak level 93.3 % Track quality 100.0 % Test CRC 07EA97D6 Copy CRC 07EA97D6 Copy OK

Track 9 Filename F:\~ fertig ~\09 The Chequers - Get Up, Stand Up.wav

Peak level 94.8 % Track quality 100.0 % Test CRC CF7AB56E Copy CRC CF7AB56E Copy OK

Track 10 Filename F:\~ fertig ~\10 Mike Dorane & The Cimarons - Penguin Funk.wav

Peak level 85.6 % Track quality 100.0 % Test CRC 03EC6A7C Copy CRC 03EC6A7C Copy OK

Track 11 Filename F:\~ fertig ~\11 Zap Pow - Funking Skank.wav

Peak level 98.3 % Track quality 99.9 % Test CRC 0E72DDCD Copy CRC 0E72DDCD Copy OK

Track 12 Filename F:\~ fertig ~\12 Tinga Stewart - The Message.wav

Peak level 88.0 % Track quality 100.0 % Test CRC BF5D1F87 Copy CRC BF5D1F87 Copy OK

Track 13 Filename F:\~ fertig ~\13 Bunny Scott & Lee Perry - Kinky Fly.wav

Peak level 94.8 % Track quality 100.0 % Test CRC 480D25AB Copy CRC 480D25AB Copy OK

Track 14 Filename F:\~ fertig ~\14 The Studio Sound - Give Me Some More.wav

Peak level 82.7 % Track quality 100.0 % Test CRC C3F48ECC Copy CRC C3F48ECC Copy OK

Track 15 Filename F:\~ fertig ~\15 H2O (The Aquarians) - Medusa Parts 1 & 2.wav

Peak level 77.7 % Track quality 100.0 % Test CRC 505FFF19 Copy CRC 505FFF19 Copy OK

Track 16 Filename F:\~ fertig ~\16 Hopeton Lewis - Express Yourself.wav

Peak level 79.8 % Track quality 100.0 % Test CRC 4FA7448B Copy CRC 4FA7448B Copy OK

Track 17 Filename F:\~ fertig ~\17 Alton Ellis - It's Your Thing.wav

Peak level 92.7 % Track quality 100.0 % Test CRC 494368B6 Copy CRC 494368B6 Copy OK

Track 18 Filename F:\~ fertig ~\18 Matumbi - (I Can't Get Enough Of That) Reggae Stuff.wav

Peak level 99.3 % Track quality 100.0 % Test CRC B5D84476 Copy CRC B5D84476 Copy OK

Track 19 Filename F:\~ fertig ~\19 Greyhound - The Change.wav

Peak level 87.7 % Track quality 100.0 % Test CRC 320ADE2E Copy CRC 320ADE2E Copy OK

Track 20 Filename F:\~ fertig ~\20 The Chosen Few - Shaft.wav

Peak level 99.7 % Track quality 100.0 % Test CRC DFD12A61 Copy CRC DFD12A61 Copy OK

No errors occured

End of status report
 
PERFORMER ""TITLE ""FILE "01 Shark Wilson & The Basement Heaters - Make It Reggae.wav" WAVE TRACK 01 AUDIO TITLE "Shark Wilson & The Basement Heaters - Make It Reggae" PERFORMER "" INDEX 01 00:00:00 TRACK 02 AUDIO TITLE "The Chosen Few - Funky Buttercup" PERFORMER "" INDEX 00 03:10:25FILE "02 The Chosen Few - Funky Buttercup.wav" WAVE INDEX 01 00:00:00 TRACK 03 AUDIO TITLE "Nicky Thomas - Soul Power" PERFORMER "" INDEX 00 02:46:10FILE "03 Nicky Thomas - Soul Power.wav" WAVE INDEX 01 00:00:00 TRACK 04 AUDIO TITLE "The Cimarons - Wicky Wacky" PERFORMER "" INDEX 00 03:00:23FILE "04 The Cimarons - Wicky Wacky.wav" WAVE INDEX 01 00:00:00 TRACK 05 AUDIO TITLE "Horace Faith - Spinning Wheel" PERFORMER "" INDEX 00 02:34:71FILE "05 Horace Faith - Spinning Wheel.wav" WAVE INDEX 01 00:00:00 TRACK 06 AUDIO TITLE "James Brown - Do It" PERFORMER "" INDEX 00 02:10:67FILE "06 James Brown - Do It.wav" WAVE INDEX 01 00:00:00 TRACK 07 AUDIO TITLE "Jamaica Jam - Sticky Fingers" PERFORMER "" INDEX 00 01:56:70FILE "07 Jamaica Jam - Sticky Fingers.wav" WAVE INDEX 01 00:00:00 TRACK 08 AUDIO TITLE "Anetta Jackson - Meditation" PERFORMER "" INDEX 00 02:50:05FILE "08 Anetta Jackson - Meditation.wav" WAVE INDEX 01 00:00:00 TRACK 09 AUDIO TITLE "The Chequers - Get Up, Stand Up" PERFORMER "" INDEX 00 03:27:05FILE "09 The Chequers - Get Up, Stand Up.wav" WAVE INDEX 01 00:00:00 TRACK 10 AUDIO TITLE "Mike Dorane & The Cimarons - Penguin Funk" PERFORMER "" INDEX 00 06:52:32FILE "10 Mike Dorane & The Cimarons - Penguin Funk.wav" WAVE INDEX 01 00:00:00 TRACK 11 AUDIO TITLE "Zap Pow - Funking Skank" PERFORMER "" INDEX 00 02:54:32FILE "11 Zap Pow - Funking Skank.wav" WAVE INDEX 01 00:00:00 TRACK 12 AUDIO TITLE "Tinga Stewart - The Message" PERFORMER "" INDEX 00 02:59:50FILE "12 Tinga Stewart - The Message.wav" WAVE INDEX 01 00:00:00 TRACK 13 AUDIO TITLE "Bunny Scott & Lee Perry - Kinky Fly" PERFORMER "" INDEX 00 02:52:32FILE "13 Bunny Scott & Lee Perry - Kinky Fly.wav" WAVE INDEX 01 00:00:00 TRACK 14 AUDIO TITLE "The Studio Sound - Give Me Some More" PERFORMER "" INDEX 00 02:40:50FILE "14 The Studio Sound - Give Me Some More.wav" WAVE INDEX 01 00:00:00 TRACK 15 AUDIO TITLE "H2O (The Aquarians) - Medusa Parts 1 & 2" PERFORMER "" INDEX 00 04:11:34FILE "15 H2O (The Aquarians) - Medusa Parts 1 & 2.wav" WAVE INDEX 01 00:00:00 TRACK 16 AUDIO TITLE "Hopeton Lewis - Express Yourself" PERFORMER "" INDEX 00 04:41:13FILE "16 Hopeton Lewis - Express Yourself.wav" WAVE INDEX 01 00:00:00 TRACK 17 AUDIO TITLE "Alton Ellis - It's Your Thing" PERFORMER "" INDEX 00 02:30:67FILE "17 Alton Ellis - It's Your Thing.wav" WAVE INDEX 01 00:00:00 TRACK 18 AUDIO TITLE "Matumbi - (I Can't Get Enough Of That) Reggae Stuff" PERFORMER "" INDEX 00 02:55:15FILE "18 Matumbi - (I Can't Get Enough Of That) Reggae Stuff.wav" WAVE INDEX 01 00:00:00 TRACK 19 AUDIO TITLE "Greyhound - The Change" PERFORMER "" INDEX 00 02:57:14FILE "19 Greyhound - The Change.wav" WAVE INDEX 01 00:00:00 TRACK 20 AUDIO TITLE "The Chosen Few - Shaft" PERFORMER "" INDEX 00 05:59:11FILE "20 The Chosen Few - Shaft.wav" WAVE INDEX 01 00:00:00

eNJ0Y!Machine

Трекер:  [ 03-Фев-2012 01:20 ]

  

Скачать .torrent

Размер .torrent файла 17 KB


Размер: 392 MB
Хэш (hash) релиза: 96fa56d158f77d428670dec02c6540d041c2a74c

Еще никто не оставлял запись к записи скачать торрент VA - Soul Power - Funky Kingston 2: Reggae Dance Floor Grooves 1968-74 - 2005 . Будь первым!

!Обратная связь