The Affair 3.Sezon izle | Suivant → | Fantasia

Скачать через торрент музыку Dry & Heavy - From Creation - 2002 бесплатно без регистрации torrent

Статистика раздачи
Размер:  404 MB   |    Зарегистрирован:  6 лет 5 месяцев   |    .torrent скачан:  34 раза   |   
Раздают:  1  
   
загрузка...
 
Автор Сообщение

Galfimbul

avatar Galfimbul


Dry & Heavy
From Creation
CD, Album.
Жанр: Reggae, Dub
Год выпуска диска: 13 May 2002
Производитель диска: Beat Records | Japan
Аудио кодек: FLAC
Тип рипа: tracks+.cue
Битрейт аудио: lossless
Продолжительность: 01:05:01
.
Трэклист:

01. Dry & Heavy - Reverse Again - (05:16)
02. Dry & Heavy - New Creation - (05:47)
03. Dry & Heavy - Strictly Baby - (04:48)
04. Dry & Heavy - Show A Fine Smile - (04:41)
05. Dry & Heavy - Silent Drive - (06:12)
06. Dry & Heavy - Watch Your Step - (04:09)
07. Dry & Heavy - Kombu - (04:05)
08. Dry & Heavy - The Dog And The Chicken - (04:55)
09. Dry & Heavy - Don't Make The Children Cry - (07:00)
10. Dry & Heavy - Riders On The Storm - (05:43)
11. Dry & Heavy - Right Track - (06:03)
12. Dry & Heavy - Bright Shining Star - (06:23)
.
from waffles.fm thnx 2 anonymous
 
X Lossless Decoder version 20111113 (137.1)

XLD extraction logfile from 2554-12-07 16:06:19 +0000

Dry & Heavy / From Creation

Used drive : MATSHITA DVD-R UJ-867 (revision HA13)

Ripper mode : XLD Secure RipperDisable audio cache : OK for the drive with a cache less than 1375KiBMake use of C2 pointers : NORead offset correction : 102Max retry count : 20Gap status : Analyzed, Appended (except HTOA)

TOC of the extracted CD Track | Start | Length | Start sector | End sector --------------------------------------------------------- 1 | 00:00:00 | 05:16:25 | 0 | 23724 2 | 05:16:25 | 05:46:65 | 23725 | 49739 3 | 11:03:15 | 04:48:02 | 49740 | 71341 4 | 15:51:17 | 04:40:53 | 71342 | 92394 5 | 20:31:70 | 06:11:55 | 92395 | 120274 6 | 26:43:50 | 04:08:62 | 120275 | 138936 7 | 30:52:37 | 04:05:08 | 138937 | 157319 8 | 34:57:45 | 04:54:70 | 157320 | 179439 9 | 39:52:40 | 07:00:27 | 179440 | 210966 10 | 46:52:67 | 05:42:50 | 210967 | 236666 11 | 52:35:42 | 06:02:70 | 236667 | 263886 12 | 58:38:37 | 06:23:10 | 263887 | 292621

List of alternate offset correction values # | Absolute | Relative | Confidence ------------------------------------------ 1 | 396 | 294 | 1

AccurateRip Summary Track 01 : NG Track 02 : NG Track 03 : NG Track 04 : NG Track 05 : NG Track 06 : NG Track 07 : OK (confidence 1, with different offset) Track 08 : NG Track 09 : NG Track 10 : NG Track 11 : NG Track 12 : OK (confidence 1, with different offset) ->2 track(s) accurately ripped, 10 track(s) not, 0 track(s) not found

All Tracks Album gain : -7.62 dB Peak : 1.000000 Statistics Read error : 0 Jitter error (maybe fixed) : 0 Retry sector count : 0 Damaged sector count : 0

Track 01 Filename : /Users/Dragon/Downloads/4_WAFfles/SheDees/01 Dry & Heavy - Reverse Again.flac Pre-gap length : 00:02:00

Track gain : -6.75 dB Peak : 1.000000 CRC32 hash (test run) : 77720647 CRC32 hash : 77720647 CRC32 hash (skip zero) : 4C536F5B AccurateRip signature : 7AF43B1B ->Rip may not be accurate. Statistics Read error : 0 Jitter error (maybe fixed) : 0 Retry sector count : 0 Damaged sector count : 0

Track 02 Filename : /Users/Dragon/Downloads/4_WAFfles/SheDees/02 Dry & Heavy - New Creation.flac

Track gain : -6.98 dB Peak : 1.000000 CRC32 hash (test run) : 88EC9541 CRC32 hash : 88EC9541 CRC32 hash (skip zero) : BED9F27F AccurateRip signature : 234654F0 ->Rip may not be accurate. Statistics Read error : 0 Jitter error (maybe fixed) : 0 Retry sector count : 0 Damaged sector count : 0

Track 03 Filename : /Users/Dragon/Downloads/4_WAFfles/SheDees/03 Dry & Heavy - Strictly Baby.flac Pre-gap length : 00:01:73

Track gain : -7.55 dB Peak : 1.000000 CRC32 hash (test run) : DBD99800 CRC32 hash : DBD99800 CRC32 hash (skip zero) : 87DC1FB1 AccurateRip signature : FB9EB47E ->Rip may not be accurate. Statistics Read error : 0 Jitter error (maybe fixed) : 0 Retry sector count : 0 Damaged sector count : 0

Track 04 Filename : /Users/Dragon/Downloads/4_WAFfles/SheDees/04 Dry & Heavy - Show A Fine Smile.flac

Track gain : -8.24 dB Peak : 1.000000 CRC32 hash (test run) : DCD9AD51 CRC32 hash : DCD9AD51 CRC32 hash (skip zero) : 8D86E041 AccurateRip signature : F5365158 ->Rip may not be accurate. Statistics Read error : 0 Jitter error (maybe fixed) : 0 Retry sector count : 0 Damaged sector count : 0

Track 05 Filename : /Users/Dragon/Downloads/4_WAFfles/SheDees/05 Dry & Heavy - Silent Drive.flac Pre-gap length : 00:02:15

Track gain : -5.60 dB Peak : 1.000000 CRC32 hash (test run) : F180EA7C CRC32 hash : F180EA7C CRC32 hash (skip zero) : AB65E63C AccurateRip signature : B29CEC9E ->Rip may not be accurate. Statistics Read error : 0 Jitter error (maybe fixed) : 0 Retry sector count : 0 Damaged sector count : 0

Track 06 Filename : /Users/Dragon/Downloads/4_WAFfles/SheDees/06 Dry & Heavy - Watch Your Step.flac

Track gain : -5.06 dB Peak : 1.000000 CRC32 hash (test run) : FF5E8138 CRC32 hash : FF5E8138 CRC32 hash (skip zero) : 3E4204C0 AccurateRip signature : 6530B9A5 ->Rip may not be accurate. Statistics Read error : 0 Jitter error (maybe fixed) : 0 Retry sector count : 0 Damaged sector count : 0

Track 07 Filename : /Users/Dragon/Downloads/4_WAFfles/SheDees/07 Dry & Heavy - Kombu.flac

Track gain : -1.62 dB Peak : 1.000000 CRC32 hash (test run) : 882130B1 CRC32 hash : 882130B1 CRC32 hash (skip zero) : F4B39478 AccurateRip signature : 3B43CF42 ->Accurately ripped! (confidence 1) (matched with the different offset correction value; calculated using an additional offset of 294; the signature after correction is: 0B834010) Statistics Read error : 0 Jitter error (maybe fixed) : 0 Retry sector count : 0 Damaged sector count : 0

Track 08 Filename : /Users/Dragon/Downloads/4_WAFfles/SheDees/08 Dry & Heavy - The Dog And The Chicken.flac

Track gain : -9.65 dB Peak : 0.977173 CRC32 hash (test run) : 8C630488 CRC32 hash : 8C630488 CRC32 hash (skip zero) : 55DF8DBF AccurateRip signature : 84F7128E ->Rip may not be accurate. Statistics Read error : 0 Jitter error (maybe fixed) : 0 Retry sector count : 0 Damaged sector count : 0

Track 09 Filename : /Users/Dragon/Downloads/4_WAFfles/SheDees/09 Dry & Heavy - Don't Make The Children Cry.flac Pre-gap length : 00:01:73

Track gain : -6.26 dB Peak : 1.000000 CRC32 hash (test run) : 9D8BAE0D CRC32 hash : 9D8BAE0D CRC32 hash (skip zero) : 2B978B6E AccurateRip signature : 9BE579DD ->Rip may not be accurate. Statistics Read error : 0 Jitter error (maybe fixed) : 0 Retry sector count : 0 Damaged sector count : 0

Track 10 Filename : /Users/Dragon/Downloads/4_WAFfles/SheDees/10 Dry & Heavy - Riders On The Storm.flac

Track gain : -8.35 dB Peak : 1.000000 CRC32 hash (test run) : 22EAD720 CRC32 hash : 22EAD720 CRC32 hash (skip zero) : 57E4851B AccurateRip signature : F8E26FD7 ->Rip may not be accurate. Statistics Read error : 0 Jitter error (maybe fixed) : 0 Retry sector count : 0 Damaged sector count : 0

Track 11 Filename : /Users/Dragon/Downloads/4_WAFfles/SheDees/11 Dry & Heavy - Right Track.flac Pre-gap length : 00:01:72

Track gain : -7.86 dB Peak : 1.000000 CRC32 hash (test run) : 806B6E8D CRC32 hash : 806B6E8D CRC32 hash (skip zero) : 8EBE278E AccurateRip signature : 63999DD0 ->Rip may not be accurate. Statistics Read error : 0 Jitter error (maybe fixed) : 0 Retry sector count : 0 Damaged sector count : 0

Track 12 Filename : /Users/Dragon/Downloads/4_WAFfles/SheDees/12 Dry & Heavy - Bright Shining Star.flac Pre-gap length : 00:01:72

Track gain : -6.15 dB Peak : 1.000000 CRC32 hash (test run) : 08D84070 CRC32 hash : 08D84070 CRC32 hash (skip zero) : 2D578F6F AccurateRip signature : 2839B309 ->Accurately ripped! (confidence 1) (matched with the different offset correction value; calculated using an additional offset of 294; the signature after correction is: C14FA1C3) Statistics Read error : 0 Jitter error (maybe fixed) : 0 Retry sector count : 0 Damaged sector count : 0

No errors occurred

End of status report
 
TITLE "From Creation"PERFORMER "Dry & Heavy"REM GENRE "Reggae"REM DATE "2002"REM DISCNUMBER 1REM TOTALDISCS 1REM DISCID A60F3D0CFILE "01 Dry & Heavy - Reverse Again.wav" WAVE TRACK 01 AUDIO TITLE "Reverse Again" INDEX 01 00:00:00FILE "02 Dry & Heavy - New Creation.wav" WAVE TRACK 02 AUDIO TITLE "New Creation" INDEX 01 00:00:00 TRACK 03 AUDIO TITLE "Strictly Baby" INDEX 00 05:44:67FILE "03 Dry & Heavy - Strictly Baby.wav" WAVE INDEX 01 00:00:00FILE "04 Dry & Heavy - Show A Fine Smile.wav" WAVE TRACK 04 AUDIO TITLE "Show A Fine Smile" INDEX 01 00:00:00 TRACK 05 AUDIO TITLE "Silent Drive" INDEX 00 04:38:38FILE "05 Dry & Heavy - Silent Drive.wav" WAVE INDEX 01 00:00:00FILE "06 Dry & Heavy - Watch Your Step.wav" WAVE TRACK 06 AUDIO TITLE "Watch Your Step" INDEX 01 00:00:00FILE "07 Dry & Heavy - Kombu.wav" WAVE TRACK 07 AUDIO TITLE "Kombu" INDEX 01 00:00:00FILE "08 Dry & Heavy - The Dog And The Chicken.wav" WAVE TRACK 08 AUDIO TITLE "The Dog And The Chicken" INDEX 01 00:00:00 TRACK 09 AUDIO TITLE "Don't Make The Children Cry" INDEX 00 04:52:72FILE "09 Dry & Heavy - Don't Make The Children Cry.wav" WAVE INDEX 01 00:00:00FILE "10 Dry & Heavy - Riders On The Storm.wav" WAVE TRACK 10 AUDIO TITLE "Riders On The Storm" INDEX 01 00:00:00 TRACK 11 AUDIO TITLE "Right Track" INDEX 00 05:40:53FILE "11 Dry & Heavy - Right Track.wav" WAVE INDEX 01 00:00:00 TRACK 12 AUDIO TITLE "Bright Shining Star" INDEX 00 06:00:73FILE "12 Dry & Heavy - Bright Shining Star.wav" WAVE INDEX 01 00:00:00

eNJ0Y!Machine

Трекер:  [ 03-Фев-2012 01:18 ]

  

Скачать .torrent

Размер .torrent файла 17 KB


Размер: 404 MB
Хэш (hash) релиза: 6f76bf402cd14e802fddd1473897f07e90f56bbd

Еще никто не оставлял запись к записи скачать торрент Dry & Heavy - From Creation - 2002 . Будь первым!

!Обратная связь