1x189 Huerfanas 2017 | Busy Philipps | CrypticHavenComedyClub | CCC | MisC/ComedY | 2017 Review

Скачать через торрент музыку Madness - Live Madness бесплатно без регистрации torrent

Статистика раздачи
Размер:  385 MB   |    Зарегистрирован:  6 лет 6 месяцев   |    .torrent скачан:  39 раз   |   
Раздают:  1  
   
загрузка...
 
Автор Сообщение

XmalcolmX

avatar XmalcolmX


Madness / Live Madness (bootleg, live in USA, summer 1983)

Жанр: Ska Revival / 2 Tone Ska
Страна-производитель диска: Люксембург
Год издания диска: 1992
Издатель (лейбл): Flashback World Productions
Страна: Великобритания
Аудио кодек: FLAC (*.flac)
Тип рипа: image+.cue
Битрейт аудио: lossless
Продолжительность: 00:56:32
Наличие сканов в содержимом раздачи: да
Треклист:

01. House Of Fun 03:34
02. Disappear 02:39
03. Close Escape 02:40
04. My Girl 02:51
05. Night Boat to Cairo 04:00
06. Tomorrow's Dream 04:28
07. Razor Blade Alley 03:07
08. Tomorrow's (Just Another Day) 02:57
09. Grey Day 05:20
10. Shut Up 03:20
11. Madness 02:50
12. Baggy Trousers 02:59
13. Our House 04:05
14. Madness (Is All In The Mind) 02:39
15. It Must Be Love 03:45
16. Primrose Hill 02:54
17. One Step Beyond 02:18
 
Exact Audio Copy V0.99 prebeta 5 from 4. May 2009

Отчёт EAC об извлечении, выполненном 19. марта 2011, 14:42

Madness / Live Madness

Дисковод: _NEC DVD_RW ND-3550A Adapter: 0 ID: 1

Режим чтения : ДостоверностьИспользование точного потока : ДаОтключение кэша аудио : ДаИспользование указателей C2 : Нет

Коррекция смещения при чтении : 48Способность читать области Lead-in и Lead-out : НетЗаполнение пропущенных сэмплов тишиной : ДаУдаление блоков с тишиной в начале и конце : НетПри вычислениях CRC использовались нулевые сэмплы : ДаИнтерфейс : Установленный внешний ASPI-интерфейс

Выходной формат : Пользовательский кодировщикВыбранный битрейт : 1024 kBit/sКачество : ВысокийДобавление ID3-тэга : НетУтилита сжатия : C:\Program Files\Exact Audio Copy\flac.exeДополнительные параметры : -8 -V %s

TOC извлечённого CD

Трек | Старт | Длительность | Начальный сектор | Конечный сектор --------------------------------------------------------------------- 1 | 0:00.00 | 3:34.45 | 0 | 16094 2 | 3:34.45 | 2:39.47 | 16095 | 28066 3 | 6:14.17 | 2:40.45 | 28067 | 40111 4 | 8:54.62 | 2:51.30 | 40112 | 52966 5 | 11:46.17 | 4:00.13 | 52967 | 70979 6 | 15:46.30 | 4:28.40 | 70980 | 91119 7 | 20:14.70 | 3:07.20 | 91120 | 105164 8 | 23:22.15 | 2:57.25 | 105165 | 118464 9 | 26:19.40 | 5:20.10 | 118465 | 142474 10 | 31:39.50 | 3:20.10 | 142475 | 157484 11 | 34:59.60 | 2:50.55 | 157485 | 170289 12 | 37:50.40 | 2:59.57 | 170290 | 183771 13 | 40:50.22 | 4:05.18 | 183772 | 202164 14 | 44:55.40 | 2:39.15 | 202165 | 214104 15 | 47:34.55 | 3:45.35 | 214105 | 231014 16 | 51:20.15 | 2:54.02 | 231015 | 244066 17 | 54:14.17 | 2:18.08 | 244067 | 254424

Характеристики диапазона извлечения и сообщения об ошибках

Выбранный диапазон

Имя файла E:\Torrents_razdacha\Madness - Live Madness\Madness - Live Madness.wav

Пиковый уровень 95.6 % Качество диапазона 100.0 % CRC теста 0F7463AB CRC копии 0F7463AB Копирование... OK

Ошибок не произошло

AccurateRip: сводка

Трек 1 нет в базе данныхТрек 2 нет в базе данныхТрек 3 нет в базе данныхТрек 4 нет в базе данныхТрек 5 нет в базе данныхТрек 6 нет в базе данныхТрек 7 нет в базе данныхТрек 8 нет в базе данныхТрек 9 нет в базе данныхТрек 10 нет в базе данныхТрек 11 нет в базе данныхТрек 12 нет в базе данныхТрек 13 нет в базе данныхТрек 14 нет в базе данныхТрек 15 нет в базе данныхТрек 16 нет в базе данныхТрек 17 нет в базе данных

Ни одного трека нет в базе AccurateRip

Конец отчёта
 
REM GENRE SkaREM DATE 1992REM DISCID E20D4011REM COMMENT "ExactAudioCopy v0.99pb5"PERFORMER "Madness"TITLE "Live Madness"FILE "Madness - Live Madness.flac" WAVE TRACK 01 AUDIO TITLE "House Of Fun" PERFORMER "Madness" INDEX 01 00:00:00 TRACK 02 AUDIO TITLE "Disappear" PERFORMER "Madness" INDEX 01 03:34:45 TRACK 03 AUDIO TITLE "Close Escape" PERFORMER "Madness" INDEX 01 06:14:17 TRACK 04 AUDIO TITLE "My Girl" PERFORMER "Madness" INDEX 01 08:54:62 TRACK 05 AUDIO TITLE "Night Boat to Cairo" PERFORMER "Madness" INDEX 01 11:46:17 TRACK 06 AUDIO TITLE "Tomorrow's Dream" PERFORMER "Madness" INDEX 01 15:46:30 TRACK 07 AUDIO TITLE "Razor Blade Alley" PERFORMER "Madness" INDEX 01 20:14:70 TRACK 08 AUDIO TITLE "Tomorrow's (Just Another Day)" PERFORMER "Madness" INDEX 01 23:22:15 TRACK 09 AUDIO TITLE "Grey Day" PERFORMER "Madness" INDEX 01 26:19:40 TRACK 10 AUDIO TITLE "Shut Up" PERFORMER "Madness" INDEX 01 31:39:50 TRACK 11 AUDIO TITLE "Madness" PERFORMER "Madness" INDEX 01 34:59:60 TRACK 12 AUDIO TITLE "Baggy Trousers" PERFORMER "Madness" INDEX 01 37:50:40 TRACK 13 AUDIO TITLE "Our House" PERFORMER "Madness" INDEX 01 40:50:22 TRACK 14 AUDIO TITLE "Madness (Is All In The Mind)" PERFORMER "Madness" INDEX 01 44:55:40 TRACK 15 AUDIO TITLE "It Must Be Love" PERFORMER "Madness" INDEX 01 47:34:55 TRACK 16 AUDIO TITLE "Primrose Hill" PERFORMER "Madness" INDEX 01 51:20:15 TRACK 17 AUDIO TITLE "One Step Beyond" PERFORMER "Madness" INDEX 01 54:14:17


Трекер:  [ 26-Дек-2011 17:39 ]

  

Скачать .torrent

Размер .torrent файла 16 KB


Размер: 385 MB
Хэш (hash) релиза: 1be7789f927edeb91bfa1d7a463e600a9c7e0a54

Торренты, похожие на Madness - Live Madness скачать торрент

Форум Название Автор Размер S L Добавлен
Rосk | Mеtаl | Аltеrnаtivе, Рunk, Indереndеnt (mр3) ·· (Alternative/Hard Rock) Shadowqueen - Living Madness - 2017, MP3, 320 kbps Galfimbul 9739579993 MB 0 0 1505558416

13:40

16-Сен-17

Электронная музыка (mp3) ·· (darkwave/outrun/retrowave/synthwave) ARCADISE - Empire of the madness (+ Living grave [single]) - 2016, MP3, 320 kbps Galfimbul 109978499105 MB 0 0 1482222955

11:35

20-Дек-16

Rосk | Mеtаl | Аltеrnаtivе, Рunk, Indереndеnt (mр3) ·· (Progressive Metal) Vangough - Living Madness - 2015, MP3, 320 kbps Galfimbul 10026620096 MB 0 0 1434784534

10:15

20-Июн-15

Reggae, Ska, Dub (video) ·· Madness - Live at the Benicassim festival, 23/07/2006 [2006 г., Ska, SATRip] _N_ 36370554883.39 GB 0 0 1323981240

23:34

15-Дек-11

Reggae, Ska, Dub (lossless) ·· (Ska Revival) Madness. Live at the Astoria, 3.12.07 (2CD Strictly Limited Edition) - 2008, FLAC (tracks+.cue), lossless Galfimbul 648342863618 MB 0 0 1323981082

23:31

15-Дек-11

Электронная музыка (video) ·· Inna - Hot, Amazing ( Live mad awards remix 2010 ) [2010 г., Pop, TVRip] Galfimbul 198004039189 MB 0 0 1294846002

18:26

12-Янв-11

Reggae, Ska, Dub (video) ·· Madness with Prince Buster - Live at Astoria. 31.12.2007 [2008 г., Ska, CAMRip] _N_ 20103018481.87 GB 0 0 1323981236

23:33

15-Дек-11

bot

Топик был перенесен в форум Зарубежный Reggae, Ska, Dub (lossless)

Перенес XmalcolmX

Хотите добавить комментарий к записи скачать торрент Madness - Live Madness

!Обратная связь