Eps2 Man in an Orange Shirt (2017) | In forma in 15 | Télécharger Part 4

Скачать через торрент музыку Patrice - Collection - 2000-2010, FLAC бесплатно без регистрации torrent

Статистика раздачи
Размер:  2.21 GB   |    Зарегистрирован:  6 лет 5 месяцев   |    .torrent скачан:  54 раза   |   
Раздают:  1  
   
загрузка...
 
Автор Сообщение

Galfimbul

avatar Galfimbul


Patrice / Collection

Жанр: Reggae, Hip-Hop, Electronic, Dub, Rock, RnB/Swing
Год издания дисков: 2000-2010
Страна: Germany
Аудиокодек: FLAC (*.flac)
Тип рипа: tracks
Битрейт аудио: lossless
Продолжительность: 06:22:24
Источник: What.CD

Официальный сайт: http://www.patrice.net/
Жанр: Reggae
Страна-производитель диска: Germany
Год издания диска: 2000
Издатель (лейбл): Yo Mama's Recording
Номер по каталогу: YPS 7027-2
Страна: Germany
Аудиокодек: FLAC (*.flac)
Тип рипа: tracks+.cue
Битрейт аудио: lossless
Продолжительность: 00:52:52
Источник (релизер): What.CD (willy_terror)
Наличие сканов в содержимом раздачи: да

Треклист:
<div style="margin-left: 2em">01. Shine On My Way (02:40)
02. Everyday Good (03:38)
03. Fear Rules (04:17)
04. You Always You (04:00)
05. Wonder (Shinin' On) (03:57)
06. Million Miles (03:20)
07. Queens (04:27)
08. Ocra & Saltfish (00:28)
09. Party (03:37)
10. Murderer (03:11)
11. Love (03:48)
12. Life Hard (04:33)
13. Fear Dub (01:35)
14. No Excuse (02:15)
15. Moneypulation (03:49)
16. Make We Go (03:17)</div>
 
Exact Audio Copy V0.99 prebeta 3 from 28. July 2007

EAC extraction logfile from 21. May 2009, 16:52

Patrice / Ancient Spirit

Used drive : HL-DT-STRW/DVD GCC-4480B Adapter: 1 ID: 0

Read mode : SecureUtilize accurate stream : YesDefeat audio cache : YesMake use of C2 pointers : No

Read offset correction : 6Overread into Lead-In and Lead-Out : NoFill up missing offset samples with silence : YesDelete leading and trailing silent blocks : NoNull samples used in CRC calculations : NoUsed interface : Native Win32 interface for Win NT & 2000Gap handling : Appended to previous track

Used output format : User Defined EncoderSelected bitrate : 768 kBit/sQuality : HighAdd ID3 tag : NoCommand line compressor : C:\Program Files\Exact Audio Copy\FLAC\FLAC.EXEAdditional command line options : -6 -V -T "ARTIST=%a" -T "TITLE=%t" -T "ALBUM=%g" -T "DATE=%y" -T "TRACKNUMBER=%n" -T "GENRE=%m" -T "COMMENT=%e" %s -o %d

TOC of the extracted CD

Track | Start | Length | Start sector | End sector --------------------------------------------------------- 1 | 0:00.00 | 2:39.45 | 0 | 11969 2 | 2:39.45 | 3:38.35 | 11970 | 28354 3 | 6:18.05 | 4:17.05 | 28355 | 47634 4 | 10:35.10 | 4:00.15 | 47635 | 65649 5 | 14:35.25 | 3:56.40 | 65650 | 83389 6 | 18:31.65 | 3:19.62 | 83390 | 98376 7 | 21:51.52 | 4:27.28 | 98377 | 118429 8 | 26:19.05 | 0:27.40 | 118430 | 120494 9 | 26:46.45 | 3:36.47 | 120495 | 136741 10 | 30:23.17 | 3:11.33 | 136742 | 151099 11 | 33:34.50 | 3:47.60 | 151100 | 168184 12 | 37:22.35 | 4:33.15 | 168185 | 188674 13 | 41:55.50 | 1:34.65 | 188675 | 195789 14 | 43:30.40 | 2:14.65 | 195790 | 205904 15 | 45:45.30 | 3:49.35 | 205905 | 223114 16 | 49:34.65 | 3:16.55 | 223115 | 237869

Track 1

Filename G:\utorrent\#RIPS\patrice - 2000 - ancient spirit\01 - Shine On My Way.wav

Pre-gap length 0:00:02.00

Peak level 96.3 % Track quality 100.0 % Test CRC 0B4EDE12 Copy CRC 0B4EDE12 Track not present in AccurateRip database Copy OK

Track 2

Filename G:\utorrent\#RIPS\patrice - 2000 - ancient spirit\02 - Everyday Good.wav

Peak level 99.3 % Track quality 99.9 % Test CRC 1F04F953 Copy CRC 1F04F953 Track not present in AccurateRip database Copy OK

Track 3

Filename G:\utorrent\#RIPS\patrice - 2000 - ancient spirit\03 - Fear Rules.wav

Peak level 97.6 % Track quality 100.0 % Test CRC EFC2D12A Copy CRC EFC2D12A Track not present in AccurateRip database Copy OK

Track 4

Filename G:\utorrent\#RIPS\patrice - 2000 - ancient spirit\04 - You Always You.wav

Peak level 97.3 % Track quality 100.0 % Test CRC F8495A78 Copy CRC F8495A78 Track not present in AccurateRip database Copy OK

Track 5

Filename G:\utorrent\#RIPS\patrice - 2000 - ancient spirit\05 - Wonder (Shinin' On).wav

Peak level 97.8 % Track quality 100.0 % Test CRC 59BF7EE1 Copy CRC 59BF7EE1 Track not present in AccurateRip database Copy OK

Track 6

Filename G:\utorrent\#RIPS\patrice - 2000 - ancient spirit\06 - Million Miles.wav

Peak level 98.4 % Track quality 100.0 % Test CRC B0F0E821 Copy CRC B0F0E821 Track not present in AccurateRip database Copy OK

Track 7

Filename G:\utorrent\#RIPS\patrice - 2000 - ancient spirit\07 - Queens.wav

Peak level 97.6 % Track quality 100.0 % Test CRC 884A25E6 Copy CRC 884A25E6 Track not present in AccurateRip database Copy OK

Track 8

Filename G:\utorrent\#RIPS\patrice - 2000 - ancient spirit\08 - Ocra & Saltfish.wav

Peak level 63.5 % Track quality 100.0 % Test CRC 93C86258 Copy CRC 93C86258 Track not present in AccurateRip database Copy OK

Track 9

Filename G:\utorrent\#RIPS\patrice - 2000 - ancient spirit\09 - Party.wav

Peak level 97.6 % Track quality 100.0 % Test CRC 0DF97C4C Copy CRC 0DF97C4C Track not present in AccurateRip database Copy OK

Track 10

Filename G:\utorrent\#RIPS\patrice - 2000 - ancient spirit\10 - Murderer.wav

Pre-gap length 0:00:00.55

Peak level 99.1 % Track quality 100.0 % Test CRC 843F60E4 Copy CRC 843F60E4 Track not present in AccurateRip database Copy OK

Track 11

Filename G:\utorrent\#RIPS\patrice - 2000 - ancient spirit\11 - Love.wav

Peak level 97.8 % Track quality 99.9 % Test CRC DDE5C093 Copy CRC DDE5C093 Track not present in AccurateRip database Copy OK

Track 12

Filename G:\utorrent\#RIPS\patrice - 2000 - ancient spirit\12 - Life Hard.wav

Peak level 89.6 % Track quality 100.0 % Test CRC 1A4F672A Copy CRC 1A4F672A Track not present in AccurateRip database Copy OK

Track 13

Filename G:\utorrent\#RIPS\patrice - 2000 - ancient spirit\13 - Fear Dub.wav

Peak level 96.7 % Track quality 100.0 % Test CRC BC7A6F21 Copy CRC BC7A6F21 Track not present in AccurateRip database Copy OK

Track 14

Filename G:\utorrent\#RIPS\patrice - 2000 - ancient spirit\14 - No Excuse.wav

Peak level 56.3 % Track quality 100.0 % Test CRC 49FD1574 Copy CRC 49FD1574 Track not present in AccurateRip database Copy OK

Track 15

Filename G:\utorrent\#RIPS\patrice - 2000 - ancient spirit\15 - Moneypulation.wav

Peak level 98.5 % Track quality 99.9 % Test CRC 5038AEEB Copy CRC 5038AEEB Track not present in AccurateRip database Copy OK

Track 16

Filename G:\utorrent\#RIPS\patrice - 2000 - ancient spirit\16 - Make We Go.wav

Peak level 98.2 % Track quality 100.0 % Test CRC A08FE087 Copy CRC A08FE087 Track not present in AccurateRip database Copy OK

None of the tracks are present in the AccurateRip database

No errors occurred

End of status report
 
REM GENRE ReggaeREM DATE 2000REM DISCID D20C6310REM COMMENT "ExactAudioCopy v0.99pb3"PERFORMER "Patrice"TITLE "Ancient Spirit"FILE "01. Patrice - Shine On My Way.wav" WAVE TRACK 01 AUDIO TITLE "Shine On My Way" PERFORMER "Patrice" INDEX 01 00:00:00FILE "02. Patrice - Everyday Good.wav" WAVE TRACK 02 AUDIO TITLE "Everyday Good" PERFORMER "Patrice" INDEX 01 00:00:00FILE "03. Patrice - Fear Rules.wav" WAVE TRACK 03 AUDIO TITLE "Fear Rules" PERFORMER "Patrice" INDEX 01 00:00:00FILE "04. Patrice - You Always You.wav" WAVE TRACK 04 AUDIO TITLE "You Always You" PERFORMER "Patrice" INDEX 01 00:00:00FILE "05. Patrice - Wonder (Shinin' On).wav" WAVE TRACK 05 AUDIO TITLE "Wonder (Shinin' On)" PERFORMER "Patrice" INDEX 01 00:00:00FILE "06. Patrice - Million Miles.wav" WAVE TRACK 06 AUDIO TITLE "Million Miles" PERFORMER "Patrice" INDEX 01 00:00:00FILE "07. Patrice - Queens.wav" WAVE TRACK 07 AUDIO TITLE "Queens" PERFORMER "Patrice" INDEX 01 00:00:00FILE "08. Patrice - Ocra & Saltfish.wav" WAVE TRACK 08 AUDIO TITLE "Ocra & Saltfish" PERFORMER "Patrice" INDEX 01 00:00:00FILE "09. Patrice - Party.wav" WAVE TRACK 09 AUDIO TITLE "Party" PERFORMER "Patrice" INDEX 01 00:00:00 TRACK 10 AUDIO TITLE "Murderer" PERFORMER "Patrice" INDEX 00 03:35:67FILE "10. Patrice - Murderer.wav" WAVE INDEX 01 00:00:00FILE "11. Patrice - Love.wav" WAVE TRACK 11 AUDIO TITLE "Love" PERFORMER "Patrice" INDEX 01 00:00:00FILE "12. Patrice - Life Hard.wav" WAVE TRACK 12 AUDIO TITLE "Life Hard" PERFORMER "Patrice" INDEX 01 00:00:00FILE "13. Patrice - Fear Dub.wav" WAVE TRACK 13 AUDIO TITLE "Fear Dub" PERFORMER "Patrice" INDEX 01 00:00:00FILE "14. Patrice - No Excuse.wav" WAVE TRACK 14 AUDIO TITLE "No Excuse" PERFORMER "Patrice" INDEX 01 00:00:00FILE "15. Patrice - Moneypulation.wav" WAVE TRACK 15 AUDIO TITLE "Moneypulation" PERFORMER "Patrice" INDEX 01 00:00:00FILE "16. Patrice - Make We Go.wav" WAVE TRACK 16 AUDIO TITLE "Make We Go" PERFORMER "Patrice" INDEX 01 00:00:00
 
-----------------------

DON'T MODIFY THIS FILE

-----------------------

PERFORMER: auCDtect Task Manager, ver. 1.5.1RC4 build 1.5.1.5Copyright (c) 2008-2010 y-soft. All rights reservedhttp://y-soft.org

ANALYZER: auCDtect: CD records authenticity detector, version 0.8.2Copyright (c) 2004 Oleg Berngardt. All rights reserved.Copyright (c) 2004 Alexander Djourik. All rights reserved.

FILE: 16. Patrice - Make We Go.flac Size: 19960279 Hash: 5367C78C9B210BEFAF4C5C6AD832A42B Accuracy: -m0 Conclusion: CDDA 100% Signature: DFBE5A23A142E5ECA51C10B4B07A22D6D782121AFILE: 15. Patrice - Moneypulation.flac Size: 22178569 Hash: 08B3A2ABCEF1CDE1C3B1CD5D20462F08 Accuracy: -m0 Conclusion: CDDA 100% Signature: 8A9CA2BC0D61048634A88740BEB92F3C375F7577FILE: 14. Patrice - No Excuse.flac Size: 12669107 Hash: 21ED65B9B034AA2A7C0E55D79F6CA1AE Accuracy: -m0 Conclusion: CDDA 100% Signature: 5959DB8174571C46DAA8B0C7A185BECA61E57371FILE: 13. Patrice - Fear Dub.flac Size: 8143984 Hash: BD6C57FCE7E740D6AC6C00F7E94DCCDC Accuracy: -m0 Conclusion: CDDA 100% Signature: BEDA6E7CC468255F65C0497AE2A95CA6317A5773FILE: 12. Patrice - Life Hard.flac Size: 28657045 Hash: 1CD899797EB90A2B3B69283334147B0A Accuracy: -m0 Conclusion: CDDA 100% Signature: D1E6465F94558C59564D07C2BC5E216200659471FILE: 11. Patrice - Love.flac Size: 20702537 Hash: 051CF0EB116761148ABC75D86CBA8928 Accuracy: -m0 Conclusion: CDDA 100% Signature: BDEB8E0A66CC5DBAB93272ED8C4B9C3E21D6266EFILE: 10. Patrice - Murderer.flac Size: 19280717 Hash: A6D129934072818520E1DE03CC4B7E32 Accuracy: -m0 Conclusion: CDDA 100% Signature: 1F79C4C513CD665819BC7BF38ACB031715A1F11EFILE: 09. Patrice - Party.flac Size: 23223727 Hash: C482D78B4A7B65BBE3F9D01D9CFA8A52 Accuracy: -m0 Conclusion: CDDA 100% Signature: F6A37DE4B5F49F9C4B3F2FFAC141F8D6075B46CCFILE: 08. Patrice - Ocra & Saltfish.flac Size: 1963312 Hash: 3E4DECB5FDE83DF66DF6E60CDF518B83 Accuracy: -m0 Conclusion: CDDA 99% Signature: 6068DF68B1DCE8E1547BBB9E7DEDD65731B462F3FILE: 07. Patrice - Queens.flac Size: 25932576 Hash: 50A80F001011CC38A897FAC94F92AB26 Accuracy: -m0 Conclusion: CDDA 99% Signature: D9D73AB530E54DED3061F3B159259330545E799AFILE: 06. Patrice - Million Miles.flac Size: 22279712 Hash: 5293CBEB1111AC1B9C216057DF8E946E Accuracy: -m0 Conclusion: CDDA 100% Signature: 7188677EBE4CAF0D2C996F542F86F7152EEF07CCFILE: 05. Patrice - Wonder (Shinin' On).flac Size: 23460197 Hash: D42A57CB90DB6419E9BBFB288277CE9B Accuracy: -m0 Conclusion: CDDA 100% Signature: 9231D89E4F8FA9B7C74561E587A1ABA9716FB432FILE: 04. Patrice - You Always You.flac Size: 25102446 Hash: EF44D62732B024AF7B7ADD2AED4E7336 Accuracy: -m0 Conclusion: CDDA 100% Signature: C0FF512ACBC71677A953A29DB1868C2AFFBB7B12FILE: 03. Patrice - Fear Rules.flac Size: 26019134 Hash: 45E47B168E928F2A15368EC570DBCA24 Accuracy: -m0 Conclusion: CDDA 100% Signature: C354B4A6DA9EEEABAD63FA1E62ED0D79072547B3FILE: 02. Patrice - Everyday Good.flac Size: 22627824 Hash: D201B39CEDAA38131C3F014C5589936B Accuracy: -m0 Conclusion: CDDA 100% Signature: B59B63CBAFF5199FA0E1B1855057E3F46073F5A5FILE: 01. Patrice - Shine On My Way.flac Size: 14833423 Hash: 747CB744DFCA10FEB274C64F96A9F3B1 Accuracy: -m0 Conclusion: CDDA 100% Signature: B90E3FF5A25CD82C893181F90F36E4BBA372133D
Жанр: Reggae
Страна-производитель диска: Germany
Год издания диска: 2002
Издатель (лейбл): Yo Mama's Recording
Номер по каталогу: 7243 5 43241 2 3
Страна: Germany
Аудиокодек: FLAC (*.flac)
Тип рипа: tracks+.cue
Битрейт аудио: lossless
Продолжительность: 01:01:00
Источник (релизер): What.CD (Razor912)
Наличие сканов в содержимом раздачи: да

Треклист:
<div style="margin-left: 2em">01. Sneakers (04:16)
02. Where Do We Go Wrong (04:16)
03. Up In My Room (03:36)
04. How Do You Call It (03:50)
05. Head To Toe (05:47)
06. Yes Or No (04:17)
07. Music (03:20)
08. Thought I Knew (03:28)
09. Sunshine (05:01)
10. Seasons (03:05)
11. Jah Jah Deh Deh (04:06)
12. Household (05:14)
13. Scared (10:44)</div>
 
Exact Audio Copy V0.99 prebeta 3 from XXX

EAC extraction logfile from XXX

Patrice / How Do You Call It?

Used drive : HL-DT-STDVDRAM GSA-4083N Adapter: 1 ID: 0

Read mode : SecureUtilize accurate stream : YesDefeat audio cache : NoMake use of C2 pointers : No

Combined read/write offset correction : 0Overread into Lead-In and Lead-Out : NoFill up missing offset samples with silence : YesDelete leading and trailing silent blocks : NoNull samples used in CRC calculations : YesUsed interface : Installed external ASPI interfaceGap handling : Appended to previous track

Used output format : User Defined EncoderSelected bitrate : 1024 kBit/sQuality : HighAdd ID3 tag : NoCommand line compressor : C:\Program Files\FLAC\flac.exeAdditional command line options : -8 -V -T "artist=%a" -T "title=%t" -T "album=%g" -T "date=%y" -T "tracknumber=%n" -T "genre=%m" -T comment="%e" -T "comment=EAC-Secure Mode" %s

TOC of the extracted CD

Track | Start | Length | Start sector | End sector --------------------------------------------------------- 1 | 0:00.00 | 4:16.15 | 0 | 19214 2 | 4:16.15 | 4:16.13 | 19215 | 38427 3 | 8:32.28 | 3:36.15 | 38428 | 54642 4 | 12:08.43 | 3:50.20 | 54643 | 71912 5 | 15:58.63 | 5:46.47 | 71913 | 97909 6 | 21:45.35 | 4:16.53 | 97910 | 117162 7 | 26:02.13 | 3:19.65 | 117163 | 132152 8 | 29:22.03 | 3:28.07 | 132153 | 147759 9 | 32:50.10 | 5:00.68 | 147760 | 170327 10 | 37:51.03 | 3:04.67 | 170328 | 184194 11 | 40:55.70 | 4:05.38 | 184195 | 202607 12 | 45:01.33 | 5:14.36 | 202608 | 226193 13 | 50:15.69 | 10:43.68 | 226194 | 274486

Track 1

Filename D:\Patrice-How_Do_You_Call_It-2002\01-Patrice-Sneakers.wav

Pre-gap length 0:00:02.00

Peak level 96.6 % Track quality 100.0 % Test CRC 99C99C9E Copy CRC 99C99C9E Copy OK

Track 2

Filename D:\Patrice-How_Do_You_Call_It-2002\02-Patrice-Where_Do_We_Go_Wrong.wav

Pre-gap length 0:00:01.96

Peak level 96.6 % Track quality 100.0 % Test CRC 615166DB Copy CRC 615166DB Copy OK

Track 3

Filename D:\Patrice-How_Do_You_Call_It-2002\03-Patrice-Up_In_My_Room.wav

Peak level 91.0 % Track quality 99.9 % Test CRC D5BA9CC2 Copy CRC D5BA9CC2 Copy OK

Track 4

Filename D:\Patrice-How_Do_You_Call_It-2002\04-Patrice-How_Do_You_Call_It.wav

Peak level 96.6 % Track quality 100.0 % Test CRC 77FE48C5 Copy CRC 77FE48C5 Copy OK

Track 5

Filename D:\Patrice-How_Do_You_Call_It-2002\05-Patrice-Head_To_Toe.wav

Peak level 96.6 % Track quality 100.0 % Test CRC 50AEC5AF Copy CRC 50AEC5AF Copy OK

Track 6

Filename D:\Patrice-How_Do_You_Call_It-2002\06-Patrice-Yes_Or_No.wav

Peak level 96.6 % Track quality 99.9 % Test CRC 9CCA21F2 Copy CRC 9CCA21F2 Copy OK

Track 7

Filename D:\Patrice-How_Do_You_Call_It-2002\07-Patrice-Music.wav

Peak level 96.6 % Track quality 100.0 % Test CRC 53AAADD2 Copy CRC 53AAADD2 Copy OK

Track 8

Filename D:\Patrice-How_Do_You_Call_It-2002\08-Patrice-Thought_I_Knew.wav

Peak level 96.6 % Track quality 100.0 % Test CRC 1A54A190 Copy CRC 1A54A190 Copy OK

Track 9

Filename D:\Patrice-How_Do_You_Call_It-2002\09-Patrice-Sunshine.wav

Pre-gap length 0:00:01.86

Peak level 96.6 % Track quality 100.0 % Test CRC 1F4F2E2B Copy CRC 1F4F2E2B Copy OK

Track 10

Filename D:\Patrice-How_Do_You_Call_It-2002\10-Patrice-Seasons.wav

Peak level 96.6 % Track quality 100.0 % Test CRC D0C5321D Copy CRC D0C5321D Copy OK

Track 11

Filename D:\Patrice-How_Do_You_Call_It-2002\11-Patrice-Jah_Jah_Deh_Deh.wav

Peak level 96.6 % Track quality 100.0 % Test CRC 0925F019 Copy CRC 0925F019 Copy OK

Track 12

Filename D:\Patrice-How_Do_You_Call_It-2002\12-Patrice-Household.wav

Peak level 96.6 % Track quality 99.9 % Test CRC 12BE9174 Copy CRC 12BE9174 Copy OK

Track 13

Filename D:\Patrice-How_Do_You_Call_It-2002\13-Patrice-Scared.wav

Pre-gap length 0:00:00.14

Peak level 98.9 % Track quality 100.0 % Test CRC 8654E265 Copy CRC 8654E265 Copy OK

No errors occurred

End of status report
 
REM ACCURATERIPID 001a8125-010a9472-ab0e4b0dREM GENRE "Reggae"REM DATE 2002REM DISCID A70B730EREM COMMENT "ExactAudioCopy v0.95b4"CATALOG 0886971264722PERFORMER "Patrice"TITLE "How Do You Call It?"FILE "01. Patrice - Sneakers.flac" WAVE TRACK 01 AUDIO PERFORMER "Patrice" TITLE "Sneakers" INDEX 01 00:00:00 TRACK 02 AUDIO PERFORMER "Patrice" TITLE "Where Do We Go Wrong" INDEX 00 04:14:18FILE "02. Patrice - Where Do We Go Wrong.flac" WAVE INDEX 01 00:00:00FILE "03. Patrice - Up In My Room.flac" WAVE TRACK 03 AUDIO PERFORMER "Patrice" TITLE "Up In My Room" INDEX 01 00:00:00FILE "04. Patrice - How Do You Call It.flac" WAVE TRACK 04 AUDIO PERFORMER "Patrice" TITLE "How Do You Call It" INDEX 01 00:00:00FILE "05. Patrice - Head To Toe.flac" WAVE TRACK 05 AUDIO PERFORMER "Patrice" TITLE "Head To Toe" INDEX 01 00:00:00FILE "06. Patrice - Yes Or No.flac" WAVE TRACK 06 AUDIO PERFORMER "Patrice" TITLE "Yes Or No" INDEX 01 00:00:00FILE "07. Patrice - Music.flac" WAVE TRACK 07 AUDIO PERFORMER "Patrice" TITLE "Music" INDEX 01 00:00:00FILE "08. Patrice - Thought I Knew.flac" WAVE TRACK 08 AUDIO PERFORMER "Patrice" TITLE "Thought I Knew" INDEX 01 00:00:00 TRACK 09 AUDIO PERFORMER "Patrice" TITLE "Sunshine" INDEX 00 03:26:17FILE "09. Patrice - Sunshine.flac" WAVE INDEX 01 00:00:00FILE "10. Patrice - Seasons.flac" WAVE TRACK 10 AUDIO PERFORMER "Patrice" TITLE "Seasons" INDEX 01 00:00:00FILE "11. Patrice - Jah Jah Deh Deh.flac" WAVE TRACK 11 AUDIO PERFORMER "Patrice" TITLE "Jah Jah Deh Deh" INDEX 01 00:00:00FILE "12. Patrice - Household.flac" WAVE TRACK 12 AUDIO PERFORMER "Patrice" TITLE "Household" INDEX 01 00:00:00 TRACK 13 AUDIO PERFORMER "Patrice" TITLE "Scared" INDEX 00 05:14:25FILE "13. Patrice - Scared.flac" WAVE INDEX 01 00:00:00
 
-----------------------

DON'T MODIFY THIS FILE

-----------------------

PERFORMER: auCDtect Task Manager, ver. 1.5.1RC4 build 1.5.1.5Copyright (c) 2008-2010 y-soft. All rights reservedhttp://y-soft.org

ANALYZER: auCDtect: CD records authenticity detector, version 0.8.2Copyright (c) 2004 Oleg Berngardt. All rights reserved.Copyright (c) 2004 Alexander Djourik. All rights reserved.

FILE: 13. Patrice - Scared.flac Size: 35577577 Hash: 814D696B432A413CEC245D7FCC09CF26 Accuracy: -m0 Conclusion: CDDA 100% Signature: 47446ACFEE47569D18AA12C16FC6A491ADC6256EFILE: 12. Patrice - Household.flac Size: 34035493 Hash: B26D0B04BD0F56C011513C5EDD75C270 Accuracy: -m0 Conclusion: CDDA 100% Signature: AF7B6FA161B85A6F94621B11865444CD7B6F7F64FILE: 11. Patrice - Jah Jah Deh Deh.flac Size: 28729818 Hash: CE6DD6B0E870C735139CA5F53BDB9834 Accuracy: -m0 Conclusion: CDDA 100% Signature: 26C7BB53DD59B19FF9EA7FDA434622ACDC167565FILE: 10. Patrice - Seasons.flac Size: 20723711 Hash: 5E18FE992DB0E63B401E9B6F3C8D4650 Accuracy: -m0 Conclusion: CDDA 100% Signature: 70DE7DFEED042FFB1F7378F6F821BC42046E1DCBFILE: 09. Patrice - Sunshine.flac Size: 33552664 Hash: 9E405FCB75D5EBDA1C8D36BD784A93BD Accuracy: -m0 Conclusion: CDDA 100% Signature: 42E7028184F0B205C71EF51AE72DDF594C912C21FILE: 08. Patrice - Thought I Knew.flac Size: 21106037 Hash: 3DE5FCFDBA0F3A08154833A1A2803CB8 Accuracy: -m0 Conclusion: CDDA 100% Signature: 193A64748C376FDC9EF40585F3A6D282E1989C72FILE: 07. Patrice - Music.flac Size: 22589441 Hash: DA1A25CE0CABF913D499E542C2570725 Accuracy: -m0 Conclusion: CDDA 100% Signature: 88D28333E3CB8269F1C2E5E303BBC190259DF0E4FILE: 06. Patrice - Yes Or No.flac Size: 25760768 Hash: 379186CE7355FC11F2CBF30BC23EB043 Accuracy: -m0 Conclusion: CDDA 100% Signature: 8C93A773D1CDEDBE49CD2251841ACDAA90B58B43FILE: 05. Patrice - Head To Toe.flac Size: 33474366 Hash: 1ECC165210FDD79725775F2BCC249B72 Accuracy: -m0 Conclusion: CDDA 100% Signature: BB606935FD36EB5610043AE58090C5D54A4C8B6EFILE: 04. Patrice - How Do You Call It.flac Size: 22896366 Hash: F2CC466D6BB21A703A0AB33203C5EE3E Accuracy: -m0 Conclusion: CDDA 100% Signature: DA253A61E884571762A03E242805BC1765EEAFB1FILE: 03. Patrice - Up In My Room.flac Size: 24275409 Hash: 18E8CAC707D67A53E42CB56511E93D1E Accuracy: -m0 Conclusion: CDDA 100% Signature: 9AF4BCDEC5234B67DD13574BF6F0ACAF180740D6FILE: 02. Patrice - Where Do We Go Wrong.flac Size: 27983793 Hash: 7E8D66E17DCCC414A787C5923EEBF7B9 Accuracy: -m0 Conclusion: CDDA 100% Signature: A7FBA85F4329217088D97817242ED38BD5D6C0D8FILE: 01. Patrice - Sneakers.flac Size: 27042677 Hash: 381F7EEE3CB9EB2C82628C34838772B8 Accuracy: -m0 Conclusion: CDDA 100% Signature: 93EFE46AF66E98DCA35C8FC8E9AF60DBA92F512F
Жанр: Reggae
Страна-производитель диска: Germany
Год издания диска: 2003
Издатель (лейбл): Four Music
Номер по каталогу: FOR 513980 2
Страна: Germany
Аудиокодек: FLAC (*.flac)
Тип рипа: tracks+.cue
Битрейт аудио: lossless
Продолжительность: 00:39:19
Источник (релизер): What.CD (Unknown [235086])
Наличие сканов в содержимом раздачи: да

Треклист:
<div style="margin-left: 2em">01. Truly Majestic (02:50)
02. Moonrise (03:50)
03. Truth No More (04:19)
04. Write Your Name (03:55)
05. Feel it Now (04:11)
06. Everyday Good (03:47)
07. Feel Alone (03:49)
08. I'll Be Near (03:29)
09. Oness (04:34)
10. Oness Dub (04:35)</div>
 
X Lossless Decoder version 20100904 (120.7)

XLD extraction logfile from 2010-09-03 23:11:14 +0200

Patrice / Meets Patrice

Used drive : MATSHITA DVD-R UJ-868 (revision KB19)

Use cdparanoia mode : YES (CDParanoia III 10.2 engine)Disable audio cache : OK for the drive with cache less than 2750KBMake use of C2 pointers : NORead offset correction : 102Max retry count : 100Gap status : Analyzed, Appended

TOC of the extracted CD Track | Start | Length | Start sector | End sector --------------------------------------------------------- 1 | 00:00:00 | 02:50:16 | 0 | 12765 2 | 02:50:16 | 03:49:74 | 12766 | 30014 3 | 06:40:15 | 04:19:09 | 30015 | 49448 4 | 10:59:24 | 03:54:48 | 49449 | 67046 5 | 14:53:72 | 04:11:37 | 67047 | 85908 6 | 19:05:34 | 03:46:63 | 85909 | 102921 7 | 22:52:22 | 03:48:51 | 102922 | 120072 8 | 26:40:73 | 03:29:33 | 120073 | 135780 9 | 30:10:31 | 04:34:04 | 135781 | 156334 10 | 34:44:35 | 04:35:17 | 156335 | 176976

Track 01 Filename : /Users/xxxx/Music/FLAC Rips/Silly Walks Movement Meets Patrice (2003) - FLAC/01 - Truly Majestic.flac Pre-gap length : 00:02:00

CRC32 hash (test run) : B8E8F788 CRC32 hash : B8E8F788 CRC32 hash (skip zero) : A5C15E4D AccurateRip signature : 42AB619D ->Accurately ripped! (confidence 14) Statistics Read error : 0 Skipped (treated as error) : 0 Edge jitter error (maybe fixed) : 0 Atom jitter error (maybe fixed) : 0 Drift error (maybe fixed) : 0 Dropped bytes error (maybe fixed) : 0 Duplicated bytes error (maybe fixed) : 0 Inconsistency in error sectors : 0

Track 02 Filename : /Users/xxxx/Music/FLAC Rips/Silly Walks Movement Meets Patrice (2003) - FLAC/02 - Moonrise.flac Pre-gap length : 00:01:05

CRC32 hash (test run) : 708041EA CRC32 hash : 708041EA CRC32 hash (skip zero) : 2A55A31D AccurateRip signature : 3607E668 ->Accurately ripped! (confidence 14) Statistics Read error : 0 Skipped (treated as error) : 0 Edge jitter error (maybe fixed) : 0 Atom jitter error (maybe fixed) : 0 Drift error (maybe fixed) : 0 Dropped bytes error (maybe fixed) : 0 Duplicated bytes error (maybe fixed) : 0 Inconsistency in error sectors : 0

Track 03 Filename : /Users/xxxx/Music/FLAC Rips/Silly Walks Movement Meets Patrice (2003) - FLAC/03 - Truth No More.flac Pre-gap length : 00:01:00

CRC32 hash (test run) : B197D602 CRC32 hash : B197D602 CRC32 hash (skip zero) : FF41C28A AccurateRip signature : 1F6DE184 ->Accurately ripped! (confidence 14) Statistics Read error : 0 Skipped (treated as error) : 0 Edge jitter error (maybe fixed) : 0 Atom jitter error (maybe fixed) : 0 Drift error (maybe fixed) : 0 Dropped bytes error (maybe fixed) : 0 Duplicated bytes error (maybe fixed) : 0 Inconsistency in error sectors : 0

Track 04 Filename : /Users/xxxx/Music/FLAC Rips/Silly Walks Movement Meets Patrice (2003) - FLAC/04 - Write Your Name.flac Pre-gap length : 00:01:20

CRC32 hash (test run) : 9143DF59 CRC32 hash : 9143DF59 CRC32 hash (skip zero) : 05F3B7EE AccurateRip signature : EE2D963E ->Accurately ripped! (confidence 14) Statistics Read error : 0 Skipped (treated as error) : 0 Edge jitter error (maybe fixed) : 0 Atom jitter error (maybe fixed) : 0 Drift error (maybe fixed) : 0 Dropped bytes error (maybe fixed) : 0 Duplicated bytes error (maybe fixed) : 0 Inconsistency in error sectors : 0

Track 05 Filename : /Users/xxxx/Music/FLAC Rips/Silly Walks Movement Meets Patrice (2003) - FLAC/05 - Feel it Now.flac Pre-gap length : 00:01:00

CRC32 hash (test run) : AAD8CB45 CRC32 hash : AAD8CB45 CRC32 hash (skip zero) : 1FF639F7 AccurateRip signature : 963B1F16 ->Accurately ripped! (confidence 14) Statistics Read error : 0 Skipped (treated as error) : 0 Edge jitter error (maybe fixed) : 0 Atom jitter error (maybe fixed) : 0 Drift error (maybe fixed) : 0 Dropped bytes error (maybe fixed) : 0 Duplicated bytes error (maybe fixed) : 0 Inconsistency in error sectors : 0

Track 06 Filename : /Users/xxxx/Music/FLAC Rips/Silly Walks Movement Meets Patrice (2003) - FLAC/06 - Everyday Good.flac Pre-gap length : 00:01:00

CRC32 hash (test run) : 6A3690C8 CRC32 hash : 6A3690C8 CRC32 hash (skip zero) : AE7562F5 AccurateRip signature : 62A2C612 ->Accurately ripped! (confidence 14) Statistics Read error : 0 Skipped (treated as error) : 0 Edge jitter error (maybe fixed) : 0 Atom jitter error (maybe fixed) : 0 Drift error (maybe fixed) : 0 Dropped bytes error (maybe fixed) : 0 Duplicated bytes error (maybe fixed) : 0 Inconsistency in error sectors : 0

Track 07 Filename : /Users/xxxx/Music/FLAC Rips/Silly Walks Movement Meets Patrice (2003) - FLAC/07 - Feel Alone.flac Pre-gap length : 00:01:00

CRC32 hash (test run) : F461AC23 CRC32 hash : F461AC23 CRC32 hash (skip zero) : 58C6E074 AccurateRip signature : CE768DF6 ->Accurately ripped! (confidence 14) Statistics Read error : 0 Skipped (treated as error) : 0 Edge jitter error (maybe fixed) : 0 Atom jitter error (maybe fixed) : 0 Drift error (maybe fixed) : 0 Dropped bytes error (maybe fixed) : 0 Duplicated bytes error (maybe fixed) : 0 Inconsistency in error sectors : 0

Track 08 Filename : /Users/xxxx/Music/FLAC Rips/Silly Walks Movement Meets Patrice (2003) - FLAC/08 - I'll Be Near.flac Pre-gap length : 00:01:50

CRC32 hash (test run) : F4C9A0F7 CRC32 hash : F4C9A0F7 CRC32 hash (skip zero) : E8C7DB9E AccurateRip signature : E560DB94 ->Accurately ripped! (confidence 14) Statistics Read error : 0 Skipped (treated as error) : 0 Edge jitter error (maybe fixed) : 0 Atom jitter error (maybe fixed) : 0 Drift error (maybe fixed) : 0 Dropped bytes error (maybe fixed) : 0 Duplicated bytes error (maybe fixed) : 0 Inconsistency in error sectors : 0

Track 09 Filename : /Users/xxxx/Music/FLAC Rips/Silly Walks Movement Meets Patrice (2003) - FLAC/09 - Oness.flac Pre-gap length : 00:01:00

CRC32 hash (test run) : 0A830FE7 CRC32 hash : 0A830FE7 CRC32 hash (skip zero) : 84FFB13A AccurateRip signature : 96370929 ->Accurately ripped! (confidence 14) Statistics Read error : 0 Skipped (treated as error) : 0 Edge jitter error (maybe fixed) : 0 Atom jitter error (maybe fixed) : 0 Drift error (maybe fixed) : 0 Dropped bytes error (maybe fixed) : 0 Duplicated bytes error (maybe fixed) : 0 Inconsistency in error sectors : 0

Track 10 Filename : /Users/xxxx/Music/FLAC Rips/Silly Walks Movement Meets Patrice (2003) - FLAC/10 - Oness Dub.flac Pre-gap length : 00:00:30

CRC32 hash (test run) : E53988A1 CRC32 hash : E53988A1 CRC32 hash (skip zero) : 268F9403 AccurateRip signature : A1DA9DED ->Accurately ripped! (confidence 13) Statistics Read error : 0 Skipped (treated as error) : 0 Edge jitter error (maybe fixed) : 0 Atom jitter error (maybe fixed) : 0 Drift error (maybe fixed) : 0 Dropped bytes error (maybe fixed) : 0 Duplicated bytes error (maybe fixed) : 0 Inconsistency in error sectors : 0

No errors occurred

End of status report
 
TITLE "Meets Patrice"PERFORMER "Patrice"REM GENRE "Reggae"REM DATE 2003REM DISCNUMBER 1REM TOTALDISCS 1REM DISCID 7609370AFILE "01. Patrice & Silly Walks Movement - Truly Majestic.wav" WAVE TRACK 01 AUDIO TITLE "Truly Majestic" INDEX 01 00:00:00 TRACK 02 AUDIO TITLE "Moonrise" INDEX 00 02:49:11FILE "02. Patrice & Silly Walks Movement - Moonrise.wav" WAVE INDEX 01 00:00:00 TRACK 03 AUDIO TITLE "Truth No More" INDEX 00 03:48:74FILE "03. Patrice & Silly Walks Movement - Truth No More.wav" WAVE INDEX 01 00:00:00 TRACK 04 AUDIO TITLE "Write Your Name" INDEX 00 04:17:64FILE "04. Patrice & Silly Walks Movement - Write Your Name.wav" WAVE INDEX 01 00:00:00 TRACK 05 AUDIO TITLE "Feel it Now" INDEX 00 03:53:48FILE "05. Patrice & Silly Walks Movement - Feel it Now.wav" WAVE INDEX 01 00:00:00 TRACK 06 AUDIO TITLE "Everyday Good" INDEX 00 04:10:37FILE "06. Patrice & Silly Walks Movement - Everyday Good.wav" WAVE INDEX 01 00:00:00 TRACK 07 AUDIO TITLE "Feel Alone" INDEX 00 03:45:63FILE "07. Patrice & Silly Walks Movement - Feel Alone.wav" WAVE INDEX 01 00:00:00 TRACK 08 AUDIO TITLE "I'll Be Near" INDEX 00 03:47:01FILE "08. Patrice & Silly Walks Movement - I'll Be Near.wav" WAVE INDEX 01 00:00:00 TRACK 09 AUDIO TITLE "Oness" INDEX 00 03:28:33FILE "09. Patrice & Silly Walks Movement - Oness.wav" WAVE INDEX 01 00:00:00 TRACK 10 AUDIO TITLE "Oness Dub" INDEX 00 04:33:49FILE "10. Patrice & Silly Walks Movement - Oness Dub.wav" WAVE INDEX 01 00:00:00
 
-----------------------

DON'T MODIFY THIS FILE

-----------------------

PERFORMER: auCDtect Task Manager, ver. 1.5.1RC4 build 1.5.1.5Copyright (c) 2008-2010 y-soft. All rights reservedhttp://y-soft.org

ANALYZER: auCDtect: CD records authenticity detector, version 0.8.2Copyright (c) 2004 Oleg Berngardt. All rights reserved.Copyright (c) 2004 Alexander Djourik. All rights reserved.

FILE: 10. Patrice & Silly Walks Movement - Oness Dub.flac Size: 27143344 Hash: A9483D072A9BC2272F05410212D36D54 Accuracy: -m0 Conclusion: CDDA 100% Signature: E3A3DFA0C4C5A5E01AA1D42255F3A059F11CB64FFILE: 09. Patrice & Silly Walks Movement - Oness.flac Size: 30232785 Hash: 14C210E04D6534A7099D2DD02B275B6D Accuracy: -m0 Conclusion: CDDA 99% Signature: 2EBA8EDE5D50B1C2AD69BE952B37FDA55470E7A1FILE: 08. Patrice & Silly Walks Movement - I'll Be Near.flac Size: 20751276 Hash: 8E4CF355E1DFA55BFAA0C7D39DF16DE1 Accuracy: -m0 Conclusion: CDDA 100% Signature: C7694DCB867F72717316A7028F3524CEF9698D5DFILE: 07. Patrice & Silly Walks Movement - Feel Alone.flac Size: 25144018 Hash: 61F5718E0FD13BA7799ED4F04BCC531D Accuracy: -m0 Conclusion: CDDA 100% Signature: 0E10FF2A5FEB6095FE009B00DC4E5BEF3A7DDCFDFILE: 06. Patrice & Silly Walks Movement - Everyday Good.flac Size: 26098590 Hash: 267220028C83E27A24EEB4CFDD5C650F Accuracy: -m0 Conclusion: CDDA 100% Signature: C7A196098BCE94D355D1916F07C098B5A6B9DE12FILE: 05. Patrice & Silly Walks Movement - Feel it Now.flac Size: 28024290 Hash: 4072D3DD2E5311E12AF3313C3750C80B Accuracy: -m0 Conclusion: CDDA 100% Signature: ECE41F2FC40CD0CBF0CA2620C21EBF1204D792F0FILE: 04. Patrice & Silly Walks Movement - Write Your Name.flac Size: 27389061 Hash: F273C7F8EDC44011925B76B25FBAD856 Accuracy: -m0 Conclusion: CDDA 100% Signature: 05F57FCDC47A7A019A9CE63A6BB78723CBF6B747FILE: 03. Patrice & Silly Walks Movement - Truth No More.flac Size: 30662233 Hash: EE7EC9F67B5C07297D2446B7B32DDC34 Accuracy: -m0 Conclusion: CDDA 99% Signature: 22A3DD3A7F6B7D2EDDD0EC776C66E40863A754D3FILE: 02. Patrice & Silly Walks Movement - Moonrise.flac Size: 27007256 Hash: 85938F73B9A464D974F87B709D6AF17E Accuracy: -m0 Conclusion: CDDA 100% Signature: 63BFCA94BFC826E6BF3B7AC4FEC816C6EE83B927FILE: 01. Patrice & Silly Walks Movement - Truly Majestic.flac Size: 17399179 Hash: AC82D5B48D357D3432948F0D88203599 Accuracy: -m0 Conclusion: CDDA 100% Signature: 3C90AD6BDD1D2EC2D52425236C8EF21E6E18D519
Жанр: Reggae
Страна-производитель диска: Germany
Год издания диска: 2005
Издатель (лейбл): Yo Mama's Recording
Номер по каталогу: YPS 9370012
Страна: Germany
Аудиокодек: FLAC (*.flac)
Тип рипа: tracks+.cue
Битрейт аудио: lossless
Продолжительность: 01:15:27
Источник (релизер): What.CD (ledoc)
Наличие сканов в содержимом раздачи: да

Треклист:
<div style="margin-left: 2em">01. 1st Cateract (00:32)
02. Today (04:40)
03. Africanize Dem (05:23)
04. Done (Where Is Love to Be Found?) (04:31)
05. Soulstorm (03:55)
06. It Hurts to Be Alone (03:08)
07. Only Believers (03:57)
08. Uncried (05:17)
09. Rememba (04:06)
10. Victoriously (04:39)
11. Have You Seen It? (03:34)
12. Lil Paradise (03:34)
13. Here Again (04:48)
14. Town (03:55)
15. Gun (04:30)
16. Lead the Way (04:50)
17. Be Your Man (05:02)
18. Slave to the River (05:06)</div>
 
Exact Audio Copy V0.99 prebeta 5 from 4. May 2009

EAC extraction logfile from 27. November 2009, 13:39

Patrice / Nile

Used drive : TSSTcorpDVD-ROM TS-H352A Adapter: 3 ID: 0

Read mode : SecureUtilize accurate stream : YesDefeat audio cache : YesMake use of C2 pointers : No

Read offset correction : 12Overread into Lead-In and Lead-Out : NoFill up missing offset samples with silence : YesDelete leading and trailing silent blocks : NoNull samples used in CRC calculations : YesUsed interface : Native Win32 interface for Win NT & 2000Gap handling : Appended to previous track

Used output format : User Defined EncoderSelected bitrate : 1024 kBit/sQuality : HighAdd ID3 tag : NoCommand line compressor : C:\Program Files\Exact Audio Copy\Flac\flac.exeAdditional command line options : -V -8 -T "artist=%a" -T "title=%t" -T "album=%g" -T "date=%y" -T "tracknumber=%n" -T "genre=%m" %s

TOC of the extracted CD

Track | Start | Length | Start sector | End sector --------------------------------------------------------- 1 | 0:00.00 | 0:31.47 | 0 | 2371 2 | 0:31.47 | 4:40.14 | 2372 | 23385 3 | 5:11.61 | 5:23.24 | 23386 | 47634 4 | 10:35.10 | 4:30.53 | 47635 | 67937 5 | 15:05.63 | 3:54.63 | 67938 | 85550 6 | 19:00.51 | 3:07.70 | 85551 | 99645 7 | 22:08.46 | 3:56.70 | 99646 | 117415 8 | 26:05.41 | 5:17.10 | 117416 | 141200 9 | 31:22.51 | 4:06.06 | 141201 | 159656 10 | 35:28.57 | 4:38.52 | 159657 | 180558 11 | 40:07.34 | 3:34.11 | 180559 | 196619 12 | 43:41.45 | 3:33.71 | 196620 | 212665 13 | 47:15.41 | 4:48.05 | 212666 | 234270 14 | 52:03.46 | 3:54.48 | 234271 | 251868 15 | 55:58.19 | 4:29.64 | 251869 | 272107 16 | 60:28.08 | 4:50.22 | 272108 | 293879 17 | 65:18.30 | 5:02.37 | 293880 | 316566 18 | 70:20.67 | 5:05.45 | 316567 | 339486

Track 1

Filename D:\mnt\data\rips\Patrice - Nile (2005) [FLAC]\01 - 1st Cateract (Album Version).wav

Pre-gap length 0:00:02.00

Peak level 90.4 % Track quality 100.0 % Test CRC 5A92A6CD Copy CRC 5A92A6CD Accurately ripped (confidence 4) [D2DA3D84] Copy OK

Track 2

Filename D:\mnt\data\rips\Patrice - Nile (2005) [FLAC]\02 - Today (Album Version).wav

Peak level 100.0 % Track quality 100.0 % Test CRC C7C2386F Copy CRC C7C2386F Accurately ripped (confidence 4) [6F319475] Copy OK

Track 3

Filename D:\mnt\data\rips\Patrice - Nile (2005) [FLAC]\03 - Africanize Dem (Album Version).wav

Peak level 100.0 % Track quality 100.0 % Test CRC 616B1082 Copy CRC 616B1082 Accurately ripped (confidence 4) [C47B2B97] Copy OK

Track 4

Filename D:\mnt\data\rips\Patrice - Nile (2005) [FLAC]\04 - Done (Where Is Luv To Be Found ) (Album Version).wav

Peak level 100.0 % Track quality 100.0 % Test CRC CE3A0197 Copy CRC CE3A0197 Accurately ripped (confidence 4) [926B5716] Copy OK

Track 5

Filename D:\mnt\data\rips\Patrice - Nile (2005) [FLAC]\05 - Soulstorm (Album Version).wav

Pre-gap length 0:00:00.01

Peak level 95.6 % Track quality 100.0 % Test CRC CCF17198 Copy CRC CCF17198 Accurately ripped (confidence 4) [E52726A2] Copy OK

Track 6

Filename D:\mnt\data\rips\Patrice - Nile (2005) [FLAC]\06 - It Hurts To Be Alone (Album Version).wav

Pre-gap length 0:00:00.01

Peak level 100.0 % Track quality 99.9 % Test CRC 81BA4C1F Copy CRC 81BA4C1F Accurately ripped (confidence 4) [58F842C3] Copy OK

Track 7

Filename D:\mnt\data\rips\Patrice - Nile (2005) [FLAC]\07 - Only Believers (Album Version).wav

Pre-gap length 0:00:00.01

Peak level 100.0 % Track quality 100.0 % Test CRC D5638182 Copy CRC D5638182 Accurately ripped (confidence 4) [BE8494D5] Copy OK

Track 8

Filename D:\mnt\data\rips\Patrice - Nile (2005) [FLAC]\08 - Uncried (Album Version).wav

Pre-gap length 0:00:00.01

Peak level 100.0 % Track quality 99.9 % Test CRC CD9120A8 Copy CRC CD9120A8 Accurately ripped (confidence 4) [185FED13] Copy OK

Track 9

Filename D:\mnt\data\rips\Patrice - Nile (2005) [FLAC]\09 - Rememba (Album Version).wav

Pre-gap length 0:00:00.01

Peak level 100.0 % Track quality 100.0 % Test CRC B1719755 Copy CRC B1719755 Accurately ripped (confidence 4) [3D164FE1] Copy OK

Track 10

Filename D:\mnt\data\rips\Patrice - Nile (2005) [FLAC]\10 - Victoriously (Album Version).wav

Pre-gap length 0:00:02.30

Peak level 100.0 % Track quality 100.0 % Test CRC B0E905FE Copy CRC B0E905FE Accurately ripped (confidence 4) [47014DEA] Copy OK

Track 11

Filename D:\mnt\data\rips\Patrice - Nile (2005) [FLAC]\11 - Have You Seen It (Album Version).wav

Pre-gap length 0:00:00.01

Peak level 100.0 % Track quality 100.0 % Test CRC 46874924 Copy CRC 46874924 Accurately ripped (confidence 4) [D3F8D36B] Copy OK

Track 12

Filename D:\mnt\data\rips\Patrice - Nile (2005) [FLAC]\12 - Lil Paradise (Album Version).wav

Pre-gap length 0:00:00.01

Peak level 100.0 % Track quality 100.0 % Test CRC 059BD2B3 Copy CRC 059BD2B3 Accurately ripped (confidence 4) [1565E89A] Copy OK

Track 13

Filename D:\mnt\data\rips\Patrice - Nile (2005) [FLAC]\13 - Here Again (Album Version).wav

Pre-gap length 0:00:00.01

Peak level 100.0 % Track quality 100.0 % Test CRC 19D7E0F1 Copy CRC 19D7E0F1 Accurately ripped (confidence 4) [9732EA8F] Copy OK

Track 14

Filename D:\mnt\data\rips\Patrice - Nile (2005) [FLAC]\14 - Town (Album Version).wav

Pre-gap length 0:00:00.01

Peak level 100.0 % Track quality 100.0 % Test CRC F6E6FE3B Copy CRC F6E6FE3B Accurately ripped (confidence 4) [C9D06FE5] Copy OK

Track 15

Filename D:\mnt\data\rips\Patrice - Nile (2005) [FLAC]\15 - Gun (Album Version).wav

Pre-gap length 0:00:00.01

Peak level 100.0 % Track quality 100.0 % Test CRC 4045A750 Copy CRC 4045A750 Accurately ripped (confidence 4) [05B88990] Copy OK

Track 16

Filename D:\mnt\data\rips\Patrice - Nile (2005) [FLAC]\16 - Lead The Way (Album Version).wav

Pre-gap length 0:00:00.01

Peak level 100.0 % Track quality 100.0 % Test CRC 16897526 Copy CRC 16897526 Accurately ripped (confidence 4) [2CE8ADB8] Copy OK

Track 17

Filename D:\mnt\data\rips\Patrice - Nile (2005) [FLAC]\17 - Be Your Man (Album Version).wav

Pre-gap length 0:00:00.01

Peak level 100.0 % Track quality 99.9 % Test CRC 0720B4BB Copy CRC 0720B4BB Accurately ripped (confidence 4) [112F85F3] Copy OK

Track 18

Filename D:\mnt\data\rips\Patrice - Nile (2005) [FLAC]\18 - Slave To The River (Album Version).wav

Pre-gap length 0:00:03.19

Peak level 76.0 % Track quality 100.0 % Test CRC 4347508F Copy CRC 4347508F Accurately ripped (confidence 4) [4E8C1AE6] Copy OK

All tracks accurately ripped

No errors occurred

End of status report
 
REM GENRE ReggaeREM DATE 2005REM DISCID D711AE12REM COMMENT "ExactAudioCopy v0.99pb5"CATALOG 5099751996422PERFORMER "Patrice"TITLE "Nile"FILE "01. Patrice - 1st Cateract.wav" WAVE TRACK 01 AUDIO TITLE "1st Cateract " PERFORMER "Patrice" ISRC DEK560512800 FLAGS DCP INDEX 01 00:00:00FILE "02. Patrice - Today.wav" WAVE TRACK 02 AUDIO TITLE "Today" PERFORMER "Patrice" ISRC DEK560512900 FLAGS DCP INDEX 01 00:00:00FILE "03. Patrice - Africanize Dem.wav" WAVE TRACK 03 AUDIO TITLE "Africanize Dem " PERFORMER "Patrice" ISRC DEK560513000 FLAGS DCP INDEX 01 00:00:00FILE "04. Patrice - Done (Where Is Love to Be Found_).wav" WAVE TRACK 04 AUDIO TITLE "Done (Where Is Luv To Be Found?)" PERFORMER "Patrice" ISRC DEK560512600 FLAGS DCP INDEX 01 00:00:00 TRACK 05 AUDIO TITLE "Soulstorm " PERFORMER "Patrice" ISRC DEK560512700 FLAGS DCP INDEX 00 04:30:52FILE "05. Patrice - Soulstorm.wav" WAVE INDEX 01 00:00:00 TRACK 06 AUDIO TITLE "It Hurts To Be Alone" PERFORMER "Patrice" ISRC DEK560513100 FLAGS DCP INDEX 00 03:54:62FILE "06. Patrice - It Hurts To Be Alone.wav" WAVE INDEX 01 00:00:00 TRACK 07 AUDIO TITLE "Only Believers" PERFORMER "Patrice" ISRC DEK560513200 FLAGS DCP INDEX 00 03:07:69FILE "07. Patrice - Only Believers.wav" WAVE INDEX 01 00:00:00 TRACK 08 AUDIO TITLE "Uncried " PERFORMER "Patrice" ISRC DEK560513300 FLAGS DCP INDEX 00 03:56:69FILE "08. Patrice - Uncried.wav" WAVE INDEX 01 00:00:00 TRACK 09 AUDIO TITLE "Rememba" PERFORMER "Patrice" ISRC DEK560513400 FLAGS DCP INDEX 00 05:17:09FILE "09. Patrice - Rememba.wav" WAVE INDEX 01 00:00:00 TRACK 10 AUDIO TITLE "Victoriously" PERFORMER "Patrice" ISRC DEK560513500 FLAGS DCP INDEX 00 04:03:51FILE "10. Patrice - Victoriously.wav" WAVE INDEX 01 00:00:00 TRACK 11 AUDIO TITLE "Have You Seen It?" PERFORMER "Patrice" ISRC DEK560513600 FLAGS DCP INDEX 00 04:38:51FILE "11. Patrice - Have You Seen It_.wav" WAVE INDEX 01 00:00:00 TRACK 12 AUDIO TITLE "Lil Paradise " PERFORMER "Patrice" ISRC DEK560513700 FLAGS DCP INDEX 00 03:34:10FILE "12. Patrice - Lil Paradise.wav" WAVE INDEX 01 00:00:00 TRACK 13 AUDIO TITLE "Here Again" PERFORMER "Patrice" ISRC DEK560513800 FLAGS DCP INDEX 00 03:33:70FILE "13. Patrice - Here Again.wav" WAVE INDEX 01 00:00:00 TRACK 14 AUDIO TITLE "Town " PERFORMER "Patrice" ISRC DEK560513900 FLAGS DCP INDEX 00 04:48:04FILE "14. Patrice - Town.wav" WAVE INDEX 01 00:00:00 TRACK 15 AUDIO TITLE "Gun" PERFORMER "Patrice" ISRC DEK560513900 FLAGS DCP INDEX 00 03:54:47FILE "15. Patrice - Gun.wav" WAVE INDEX 01 00:00:00 TRACK 16 AUDIO TITLE "Lead The Way " PERFORMER "Patrice" ISRC DEK560514100 FLAGS DCP INDEX 00 04:29:63FILE "16. Patrice - Lead The Way.wav" WAVE INDEX 01 00:00:00 TRACK 17 AUDIO TITLE "Be Your Man" PERFORMER "Patrice" ISRC DEK560514200 FLAGS DCP INDEX 00 04:50:21FILE "17. Patrice - Be Your Man.wav" WAVE INDEX 01 00:00:00 TRACK 18 AUDIO TITLE "Slave To The River " PERFORMER "Patrice" ISRC DEK560514300 FLAGS DCP INDEX 00 04:59:18FILE "18. Patrice - Slave To The River.wav" WAVE INDEX 01 00:00:00
 
-----------------------

DON'T MODIFY THIS FILE

-----------------------

PERFORMER: auCDtect Task Manager, ver. 1.5.1RC4 build 1.5.1.5Copyright (c) 2008-2010 y-soft. All rights reservedhttp://y-soft.org

ANALYZER: auCDtect: CD records authenticity detector, version 0.8.2Copyright (c) 2004 Oleg Berngardt. All rights reserved.Copyright (c) 2004 Alexander Djourik. All rights reserved.

FILE: 18. Patrice - Slave to the River.flac Size: 29600719 Hash: D538ABAB4DA483883C90AD1546FF3FD7 Accuracy: -m0 Conclusion: CDDA 100% Signature: AC2BA7634464A34F08D60A133958293026E3FB60FILE: 17. Patrice - Be Your Man.flac Size: 30419671 Hash: A47BD2DC5023DDD19C2889378D72599C Accuracy: -m0 Conclusion: CDDA 100% Signature: D5845949E142E6402775B6FC3A2E2D5CBE993821FILE: 16. Patrice - Lead the Way.flac Size: 32118892 Hash: 73CB4833C6078281C957CDB3B1637540 Accuracy: -m0 Conclusion: CDDA 100% Signature: 7F202ED7CB48217C986FAC7A60AFBA58CC87CF9CFILE: 15. Patrice - Gun.flac Size: 28900982 Hash: A099A27DE2CED2C2FE2616B9AE37CE30 Accuracy: -m0 Conclusion: CDDA 100% Signature: 1933DF0BCF56BD5E0AF8A3714C8E19F34FD3FDCAFILE: 14. Patrice - Town.flac Size: 21718810 Hash: E2550781A00F08FA53EF7AB6F01DB23C Accuracy: -m0 Conclusion: CDDA 99% Signature: 418E268AC22067EBC22632C1D03878D222192E81FILE: 13. Patrice - Here Again.flac Size: 29039635 Hash: 07762BB35D105E873EE95265F8E16EEC Accuracy: -m0 Conclusion: CDDA 99% Signature: 550850EEB0233ED1A2182A81606EFBE77B4B791BFILE: 12. Patrice - Lil Paradise.flac Size: 24107612 Hash: 81144F7A193EBCF83CE1AF2FBB74AB57 Accuracy: -m0 Conclusion: CDDA 100% Signature: 088853DF605CD83FFB9A874FA94B0202AF545630FILE: 11. Patrice - Have You Seen It_.flac Size: 22662913 Hash: 359A109D74E3F3A4EFD0A97AE41D5500 Accuracy: -m0 Conclusion: CDDA 100% Signature: 21F698DC5FA28F421B8A1DC9C4538EEA507BDEA9FILE: 10. Patrice - Victoriously.flac Size: 30513253 Hash: 69CF57FDB2336868A931306518223789 Accuracy: -m0 Conclusion: CDDA 100% Signature: 5F4EB20C3178C29E8CE9EB67228F74962E3A55D1FILE: 09. Patrice - Rememba.flac Size: 26399048 Hash: 83A410DA410B00E42D97D7AC2AA2AA28 Accuracy: -m0 Conclusion: CDDA 100% Signature: 2144C4ADB67B68655C7017126022C9976493C7C6FILE: 08. Patrice - Uncried.flac Size: 29444120 Hash: 821575897066F0F1F99D6B4293F0A942 Accuracy: -m0 Conclusion: CDDA 100% Signature: 482DE115F22236BE6473EBDF07C31F9EA50DD508FILE: 07. Patrice - Only Believers.flac Size: 25932870 Hash: 84E4DF59EC3A9B207EF99610251F9494 Accuracy: -m0 Conclusion: CDDA 100% Signature: 3F46665961F0D4CD4386729E46709E345602D27BFILE: 06. Patrice - It Hurts to Be Alone.flac Size: 18374618 Hash: 422C9A6702D7791C31F32B3861BFEB97 Accuracy: -m0 Conclusion: CDDA 100% Signature: 7074BE232C258681E40B965A5A1BEC92968AA32AFILE: 05. Patrice - Soulstorm.flac Size: 21077870 Hash: 346A4921BDC24156C7976A701E77D39D Accuracy: -m0 Conclusion: CDDA 100% Signature: C4858CA121F11C36EDF3C52DE688504F4BA45867FILE: 04. Patrice - Done (Where Is Love to Be Found_).flac Size: 28850389 Hash: E3CD037DB1AEB391678622627360B34C Accuracy: -m0 Conclusion: CDDA 100% Signature: 0E9DF39307523ED4A07DFD78CE8F2A08D2AE35CEFILE: 03. Patrice - Africanize Dem.flac Size: 33838505 Hash: 434AE370DCF3A649ABB8E14A12D09808 Accuracy: -m0 Conclusion: CDDA 100% Signature: FB708E3F2E974FB505093EF0AD80696965EBEF93FILE: 02. Patrice - Today.flac Size: 30055626 Hash: B69A5E37304D1A2E8A985AE57BCFED08 Accuracy: -m0 Conclusion: CDDA 100% Signature: DC90A24C97307E24A780E9727FA174ED0941450EFILE: 01. Patrice - 1st Cateract.flac Size: 2285310 Hash: 23F9480081D94B4B345AA4D4168C96BF Accuracy: -m0 Conclusion: CDDA 99% Signature: 55CBA371518D0B9BD71EA01E56E02489A5236F22
Жанр: Reggae
Страна-производитель диска: Europe
Год издания диска: 2008
Издатель (лейбл): Supow Music
Номер по каталогу: 0602517681781
Страна: Germany
Аудиокодек: FLAC (*.flac)
Тип рипа: tracks+.cue
Битрейт аудио: lossless
Продолжительность: 01:06:23
Источник (релизер): What.CD (NoNeck)
Наличие сканов в содержимом раздачи: да
Треклист:
<div style="margin-left: 2em">01. Clouds (03:13)
02. Another One (03:22)
03. Dove of Peace (04:03)
04. Is It Me (03:22)
05. Praise His Name (03:10)
06. Same Ol' Story feat. Ayo (03:47)
07. Justifed (04:29)
08. He Don't Answer (03:54)
09. No Screwface feat. Seun Kuti (04:01)
10. Appreci-Luv (03:24)
11. Do Things To You (02:16)
12. Speeding Into The Dark (04:07)</div>
 
Exact Audio Copy 0.99 prebeta 4 from XXX

EAC extraction logfile from XXX

Patrice / Free PatriAtion

Used drive : HL-DT-STDVDRAM GSA-4083N Adapter: 1 ID: 0

Read mode : SecureUtilize accurate stream : YesDefeat audio cache : NoMake use of C2 pointers : No

Read offset correction : 0Overread into Lead-In and Lead-Out : NoFill up missing offset samples with silence : YesDelete leading and trailing silent blocks : NoNull samples used in CRC calculations : YesUsed interface : Native Win32 interface for Win NT & 2000Gap handling : Appended to previous track

Used output format : User Defined EncoderSelected bitrate : 1024 kBit/sQuality : HighAdd ID3 tag : NoCommand line compressor : C:\Programme\FLAC\flac.exeAdditional command line options : -8 -V -T "artist=%a" -T "title=%t" -T "album=%g" -T "date=%y" -T "tracknumber=%n" -T "genre=%m" -T comment="FTA" -T "comment=EAC-Secure Mode" %s

TOC of the extracted CD

Track | Start | Length | Start sector | End sector --------------------------------------------------------- 1 | 0:00.00 | 3:13.11 | 0 | 14485 2 | 3:13.11 | 3:22.35 | 14486 | 29670 3 | 6:35.46 | 4:02.62 | 29671 | 47882 4 | 10:38.33 | 3:21.39 | 47883 | 62996 5 | 13:59.72 | 3:10.17 | 62997 | 77263 6 | 17:10.14 | 3:46.58 | 77264 | 94271 7 | 20:56.72 | 4:29.17 | 94272 | 114463 8 | 25:26.14 | 3:53.72 | 114464 | 132010 9 | 29:20.11 | 4:00.59 | 132011 | 150069 10 | 33:20.70 | 3:23.60 | 150070 | 165354 11 | 36:44.55 | 2:16.12 | 165355 | 175566 12 | 39:00.67 | 4:06.57 | 175567 | 194073

Track 1

Filename C:\Patrice-Free PatriAtion-2008\01-Patrice-Clouds.wav

Pre-gap length 0:00:02.00

Peak level 99.9 % Track quality 100.0 % Test CRC EAE47E8D Copy CRC EAE47E8D Copy OK

Track 2

Filename C:\Patrice-Free PatriAtion-2008\02-Patrice-Another_One.wav

Pre-gap length 0:00:00.74

Peak level 99.9 % Track quality 100.0 % Test CRC CDE099BE Copy CRC CDE099BE Copy OK

Track 3

Filename C:\Patrice-Free PatriAtion-2008\03-Patrice-Dove_of_Peace.wav

Pre-gap length 0:00:02.20

Peak level 99.9 % Track quality 100.0 % Test CRC D660960E Copy CRC D660960E Copy OK

Track 4

Filename C:\Patrice-Free PatriAtion-2008\04-Patrice-Is_it_me.wav

Pre-gap length 0:00:02.28

Peak level 99.9 % Track quality 100.0 % Test CRC 0CDE6EB1 Copy CRC 0CDE6EB1 Copy OK

Track 5

Filename C:\Patrice-Free PatriAtion-2008\05-Patrice-Praise_his_Name.wav

Pre-gap length 0:00:01.98

Peak level 99.9 % Track quality 100.0 % Test CRC AB949137 Copy CRC AB949137 Copy OK

Track 6

Filename C:\Patrice-Free PatriAtion-2008\06-Patrice-Same_olґStory_feat._Ayo.wav

Pre-gap length 0:00:01.57

Peak level 99.9 % Track quality 100.0 % Test CRC 474F08FF Copy CRC 474F08FF Copy OK

Track 7

Filename C:\Patrice-Free PatriAtion-2008\07-Patrice-Justifed.wav

Pre-gap length 0:00:00.45

Peak level 99.9 % Track quality 100.0 % Test CRC 3A3F9F9D Copy CRC 3A3F9F9D Copy OK

Track 8

Filename C:\Patrice-Free PatriAtion-2008\08-Patrice-He_donґt_answer.wav

Pre-gap length 0:00:00.33

Peak level 99.9 % Track quality 100.0 % Test CRC E033D0CA Copy CRC E033D0CA Copy OK

Track 9

Filename C:\Patrice-Free PatriAtion-2008\09-Patrice-No_Screwface_feat._Seun_Kuti.wav

Pre-gap length 0:00:02.10

Peak level 99.9 % Track quality 100.0 % Test CRC B5FCECD9 Copy CRC B5FCECD9 Copy OK

Track 10

Filename C:\Patrice-Free PatriAtion-2008\10-Patrice-Appreci-Luv.wav

Pre-gap length 0:00:01.34

Peak level 99.9 % Track quality 100.0 % Test CRC A0273AA4 Copy CRC A0273AA4 Copy OK

Track 11

Filename C:\Patrice-Free PatriAtion-2008\11-Patrice-Do_Things_to_You.wav

Pre-gap length 0:00:02.30

Peak level 99.9 % Track quality 99.9 % Test CRC 2D302564 Copy CRC 2D302564 Copy OK

Track 12

Filename C:\Patrice-Free PatriAtion-2008\12-Patrice-Speeding_into_the_Dark.wav

Pre-gap length 0:00:02.46

Peak level 99.9 % Track quality 100.0 % Test CRC 815DE965 Copy CRC 815DE965 Copy OK

No errors occurred

End of status report
 
REM GENRE ReggaeREM DATE 2008REM DISCID 8A0A1B0CREM COMMENT "ExactAudioCopy v0.99pb4"CATALOG 0602517661028PERFORMER "Patrice"TITLE "Free PatriAtion"FILE "01. Patrice - Clouds.wav" WAVE TRACK 01 AUDIO TITLE "Clouds" PERFORMER "Patrice" ISRC DEUM70802720 INDEX 01 00:00:00 TRACK 02 AUDIO TITLE "Another One" PERFORMER "Patrice" ISRC DEUM70802313 INDEX 00 03:12:30FILE "02. Patrice - Another One.wav" WAVE INDEX 01 00:00:00 TRACK 03 AUDIO TITLE "Dove of Peace" PERFORMER "Patrice" ISRC DEUM70802319 INDEX 00 03:20:20FILE "03. Patrice - Dove of Peace.wav" WAVE INDEX 01 00:00:00 TRACK 04 AUDIO TITLE "Is It Me" PERFORMER "Patrice" ISRC DEUM70802320 INDEX 00 04:00:41FILE "04. Patrice - Is It Me.wav" WAVE INDEX 01 00:00:00 TRACK 05 AUDIO TITLE "Praise His Name" PERFORMER "Patrice" ISRC DEUM70802324 INDEX 00 03:19:40FILE "05. Patrice - Praise His Name.wav" WAVE INDEX 01 00:00:00 TRACK 06 AUDIO TITLE "Same Ol' Story feat. Ayo" PERFORMER "Patrice" ISRC DEUM70802312 INDEX 00 03:08:49FILE "06. Patrice - Same Ol' Story feat. Ayo.wav" WAVE INDEX 01 00:00:00 TRACK 07 AUDIO TITLE "Justifed" PERFORMER "Patrice" ISRC DEUM70802321 INDEX 00 03:46:24FILE "07. Patrice - Justifed.wav" WAVE INDEX 01 00:00:00 TRACK 08 AUDIO TITLE "He Don't Answer" PERFORMER "Patrice" ISRC DEUM70802314 INDEX 00 04:28:67FILE "08. Patrice - He Don't Answer.wav" WAVE INDEX 01 00:00:00 TRACK 09 AUDIO TITLE "No Screwface feat. Seun Kuti" PERFORMER "Patrice" ISRC DEUM70802311 INDEX 00 03:51:64FILE "09. Patrice - No Screwface feat. Seun Kuti.wav" WAVE INDEX 01 00:00:00 TRACK 10 AUDIO TITLE "Appreci-Luv" PERFORMER "Patrice" ISRC DEUM70802315 INDEX 00 03:59:33FILE "10. Patrice - Appreci-Luv.wav" WAVE INDEX 01 00:00:00 TRACK 11 AUDIO TITLE "Do Things to You" PERFORMER "Patrice" ISRC DEUM70802318 INDEX 00 03:21:37FILE "11. Patrice - Do Things to You.wav" WAVE INDEX 01 00:00:00 TRACK 12 AUDIO TITLE "Speeding Into The Dark" PERFORMER "Patrice" ISRC DEUM70802325 INDEX 00 02:13:52FILE "12. Patrice - Speeding Into The Dark.wav" WAVE INDEX 01 00:00:00
 
-----------------------

DON'T MODIFY THIS FILE

-----------------------

PERFORMER: auCDtect Task Manager, ver. 1.5.1RC4 build 1.5.1.5Copyright (c) 2008-2010 y-soft. All rights reservedhttp://y-soft.org

ANALYZER: auCDtect: CD records authenticity detector, version 0.8.2Copyright (c) 2004 Oleg Berngardt. All rights reserved.Copyright (c) 2004 Alexander Djourik. All rights reserved.

FILE: 12. Patrice - Speeding Into The Dark.flac Size: 24248356 Hash: 5CCA00D630F0293202F1CEA9351D8A81 Accuracy: -m0 Conclusion: CDDA 100% Signature: 0FA4DBD1B3E9C13187067B84AE43A20FE918C51DFILE: 11. Patrice - Do Things To You.flac Size: 14240429 Hash: E05AB74C0E534282CD191959A2F858F3 Accuracy: -m0 Conclusion: CDDA 100% Signature: 74ACDF062244841C114ECFFF5295482943A8FC9DFILE: 10. Patrice - Appreci-Luv.flac Size: 26078502 Hash: D5A2C8D307504640664D69DC0332CCE8 Accuracy: -m0 Conclusion: CDDA 100% Signature: AC91604310DFB32B372716BEAD322471FAE5DDEDFILE: 09. Patrice - No Screwface feat. Seun Kuti.flac Size: 26841516 Hash: 8DBDD631A7BCC12D27E3B9CA907C8FC1 Accuracy: -m0 Conclusion: CDDA 100% Signature: BD55B7F5B8B35648F52C9C32EAF603BE4937A92DFILE: 08. Patrice - He Don't Answer.flac Size: 24880314 Hash: 3AE2DFA2EF8629302579586E248C47CC Accuracy: -m0 Conclusion: CDDA 100% Signature: E8250B2D7FA5757AC0DAC5D9CC8761E255DA1238FILE: 07. Patrice - Justifed.flac Size: 31043502 Hash: 34260FF13741F07F495F80665AAE1B45 Accuracy: -m0 Conclusion: CDDA 100% Signature: 10D75BAED45E2B264899484F6E9539A642CEB3D1FILE: 06. Patrice - Same Ol' Story feat. Ayo.flac Size: 23578028 Hash: 249D9E4C12601CE3C89BB9CA7C5349AD Accuracy: -m0 Conclusion: CDDA 100% Signature: D8F90E85F884AD6DBC0DE85C8E943C68F37726BFFILE: 05. Patrice - Praise His Name.flac Size: 20027787 Hash: 4A6B3965FA0D2A0E588F5063939686B2 Accuracy: -m0 Conclusion: CDDA 100% Signature: 7834CC65544FC82F3E0BEF2B07F3F613E0DC064AFILE: 04. Patrice - Is It Me.flac Size: 19286880 Hash: 0980D457D328878F9B41EA9A55536D69 Accuracy: -m0 Conclusion: CDDA 100% Signature: C645E069E2754BCCFF9DE5734307FD01CF597602FILE: 03. Patrice - Dove of Peace.flac Size: 28086708 Hash: 4A0DBDC4254B09CE1273D634240CE7FD Accuracy: -m0 Conclusion: CDDA 100% Signature: 0E510F78D11DDB83C757D4ECF1C2779C8F8E9CDAFILE: 02. Patrice - Another One.flac Size: 23270166 Hash: FB394DC98140BC25DC726B20F1A41DD1 Accuracy: -m0 Conclusion: CDDA 100% Signature: D7FC3D50768BD7E3D1D3B5E25C159196ACCEC67BFILE: 01. Patrice - Clouds.flac Size: 19978977 Hash: 9B5669288F7153ACA6A837E990AFBC33 Accuracy: -m0 Conclusion: CDDA 100% Signature: 715EA9DE5272D788F4FAD36D8929154228556817
Треклист:
<div style="margin-left: 2em">01. Praise His Name (Unplugged) (03:29)
02. Babylon Is Against Me (05:39)
03. My Place (05:17)
04. Different Now (05:35)
05. Clouds (The Alpha Session) (03:15)</div>
 
Exact Audio Copy 0.99 prebeta 4 from XXX

EAC extraction logfile from XXX

Patrice / Free-Patri-Ation (Bonus CD)

Used drive : HL-DT-STDVDRAM GSA-4083N Adapter: 1 ID: 0

Read mode : SecureUtilize accurate stream : YesDefeat audio cache : NoMake use of C2 pointers : No

Read offset correction : 0Overread into Lead-In and Lead-Out : NoFill up missing offset samples with silence : YesDelete leading and trailing silent blocks : NoNull samples used in CRC calculations : YesUsed interface : Native Win32 interface for Win NT & 2000Gap handling : Appended to previous track

Used output format : User Defined EncoderSelected bitrate : 1024 kBit/sQuality : HighAdd ID3 tag : NoCommand line compressor : C:\Programme\FLAC\flac.exeAdditional command line options : -8 -V -T "artist=%a" -T "title=%t" -T "album=%g" -T "date=%y" -T "tracknumber=%n" -T "genre=%m" -T comment="FTA" -T "comment=EAC-Secure Mode" %s

TOC of the extracted CD

Track | Start | Length | Start sector | End sector --------------------------------------------------------- 1 | 0:00.00 | 3:29.02 | 0 | 15676 2 | 3:29.02 | 5:39.24 | 15677 | 41125 3 | 9:08.26 | 5:17.23 | 41126 | 64923 4 | 14:25.49 | 5:34.48 | 64924 | 90021 5 | 20:00.22 | 3:15.35 | 90022 | 104681 6 | 25:47.57 | 12:21.58 | 116082 | 171714

Track 1

Filename C:\Patrice-Free-Patri-Ation (Bonus CD)-2008\01-Patrice-Praise_His_Name_(Unplugged).wav

Pre-gap length 0:00:02.00

Peak level 99.9 % Track quality 100.0 % Test CRC 00189D8B Copy CRC 00189D8B Copy OK

Track 2

Filename C:\Patrice-Free-Patri-Ation (Bonus CD)-2008\02-Patrice-Babylon_Is_Against_Me.wav

Pre-gap length 0:00:00.08

Peak level 99.9 % Track quality 100.0 % Test CRC AB133964 Copy CRC AB133964 Copy OK

Track 3

Filename C:\Patrice-Free-Patri-Ation (Bonus CD)-2008\03-Patrice-My_Place.wav

Pre-gap length 0:00:01.12

Peak level 99.5 % Track quality 100.0 % Test CRC 4F90B0D4 Copy CRC 4F90B0D4 Copy OK

Track 4

Filename C:\Patrice-Free-Patri-Ation (Bonus CD)-2008\04-Patrice-Different_Now.wav

Pre-gap length 0:00:02.54

Peak level 99.0 % Track quality 100.0 % Test CRC CC19E6A9 Copy CRC CC19E6A9 Copy OK

Track 5

Filename C:\Patrice-Free-Patri-Ation (Bonus CD)-2008\05-Patrice-Clouds_(The_Alpha_Session).wav

Pre-gap length 0:00:01.29

Peak level 99.5 % Track quality 100.0 % Test CRC AC68919C Copy CRC AC68919C Copy OK

No errors occurred

End of status report
 
REM GENRE ReggaeREM DATE 2008REM DISCID 3D08F106REM COMMENT "ExactAudioCopy v0.99pb4"CATALOG 0602517681798PERFORMER "Patrice"TITLE "Free-Patri-Ation (Bonus CD)"FILE "01. Patrice - Praise His Name (Unplugged).wav" WAVE TRACK 01 AUDIO TITLE "Praise His Name (Unplugged)" PERFORMER "Patrice" ISRC DEUM70802979 INDEX 01 00:00:00 TRACK 02 AUDIO TITLE "Babylon Is Against Me" PERFORMER "Patrice" ISRC DEUM70802627 INDEX 00 03:28:71FILE "02. Patrice - Babylon Is Against Me.wav" WAVE INDEX 01 00:00:00 TRACK 03 AUDIO TITLE "My Place" PERFORMER "Patrice" ISRC DEUM70802323 INDEX 00 05:38:15FILE "03. Patrice - My Place.wav" WAVE INDEX 01 00:00:00 TRACK 04 AUDIO TITLE "Different Now" PERFORMER "Patrice" ISRC DEUM70802625 INDEX 00 05:14:57FILE "04. Patrice - Different Now.wav" WAVE INDEX 01 00:00:00 TRACK 05 AUDIO TITLE "Clouds (The Alpha Session)" PERFORMER "Patrice" ISRC DEUM70802626 INDEX 00 05:33:26FILE "05. Patrice - Clouds (The Alpha Session).wav" WAVE INDEX 01 00:00:00
 
-----------------------

DON'T MODIFY THIS FILE

-----------------------

PERFORMER: auCDtect Task Manager, ver. 1.5.1RC4 build 1.5.1.5Copyright (c) 2008-2010 y-soft. All rights reservedhttp://y-soft.org

ANALYZER: auCDtect: CD records authenticity detector, version 0.8.2Copyright (c) 2004 Oleg Berngardt. All rights reserved.Copyright (c) 2004 Alexander Djourik. All rights reserved.

FILE: 05. Patrice - Clouds (The Alpha Session).flac Size: 21016843 Hash: C9BD3C3C745271FA538D16AA64873343 Accuracy: -m0 Conclusion: CDDA 100% Signature: A3C6EBC664D43BBDDFCE1F4564D762C50A3480EAFILE: 04. Patrice - Different Now.flac Size: 35349581 Hash: 64CDBEEFCABD70CD9EBEB60D9A2E01F6 Accuracy: -m0 Conclusion: CDDA 100% Signature: E5083F9626750C8A1EACE6A17E0F8FAEA2C0021CFILE: 03. Patrice - My Place.flac Size: 31757413 Hash: 349BC2F196541C16787BA2E0D3403C67 Accuracy: -m0 Conclusion: CDDA 100% Signature: 6124DD66C71180994D5E5DCF82A3131A93C3954FFILE: 02. Patrice - Babylon Is Against Me.flac Size: 29479189 Hash: C4100FADEE3E29C75F56D16FBBABEB76 Accuracy: -m0 Conclusion: CDDA 86% Signature: 2A355593AC3F52253F0BC47CAE9A8527ED1A8FECFILE: 01. Patrice - Praise His Name (Unplugged).flac Size: 19381844 Hash: D6570CDFD74A650542395A76D9C72A80 Accuracy: -m0 Conclusion: CDDA 99% Signature: 598285C65998BA499B6817B325A80C8F1A299DC9
Жанр: Reggae
Страна-производитель диска: Europe
Год издания диска: 2010
Издатель (лейбл): Supow Music
Номер по каталогу: BEC5772711
Страна: Germany
Аудиокодек: FLAC (*.flac)
Тип рипа: tracks+.cue
Битрейт аудио: lossless
Продолжительность: 01:27:23
Источник (релизер): What.CD (kal0nji)
Наличие сканов в содержимом раздачи: да
Треклист:
<div style="margin-left: 2em">01. The Maker (04:45)
02. Ain't Got No (I Got Life) (03:45)
03. Walking Alone (04:15)
04. Kingfish (02:49)
05. New Day (03:45)
06. Ten Man Down (03:24)
07. Wiggle & Rock (02:59)
08. Nobody Else's (03:35)
09. Nothing Better (03:58)
10. Knockin' (03:13)
11. Situation (03:35)
12. Don't Cry (03:35)
13. Visions (03:41)</div>
 
X Lossless Decoder version 20101010 (123.3)

XLD extraction logfile from 2010-10-12 22:35:18 +0200

Patrice / One

Used drive : HL-DT-ST DVDRW GS23N (revision SB11)

Use cdparanoia mode : YES (CDParanoia III 10.2 engine)Disable audio cache : OK for the drive with cache less than 2750KBMake use of C2 pointers : NORead offset correction : 667Max retry count : 100Gap status : Analyzed, Appended

TOC of the extracted CD Track | Start | Length | Start sector | End sector --------------------------------------------------------- 1 | 00:00:00 | 04:45:29 | 0 | 21403 2 | 04:45:29 | 03:45:14 | 21404 | 38292 3 | 08:30:43 | 04:15:31 | 38293 | 57448 4 | 12:45:74 | 02:48:50 | 57449 | 70098 5 | 15:34:49 | 03:44:48 | 70099 | 86946 6 | 19:19:22 | 03:24:29 | 86947 | 102275 7 | 22:43:51 | 02:58:60 | 102276 | 115685 8 | 25:42:36 | 03:35:31 | 115686 | 131841 9 | 29:17:67 | 03:58:32 | 131842 | 149723 10 | 33:16:24 | 03:13:20 | 149724 | 164218 11 | 36:29:44 | 03:34:48 | 164219 | 180316 12 | 40:04:17 | 03:34:48 | 180317 | 196414 13 | 43:38:65 | 03:41:19 | 196415 | 213008

All Tracks Album gain : -8.53 dB Peak : 1.000000

Track 01 Filename : /Users/alex/work/Patrice - One [2010]/Patrice - One (2010) [FLAC]/01 The Maker.flac Pre-gap length : 00:02:00

Track gain : -7.81 dB Peak : 1.000000 CRC32 hash (test run) : E8DCE3D4 CRC32 hash : E8DCE3D4 CRC32 hash (skip zero) : 85E9BC91 AccurateRip signature : 58978C2F ->Accurately ripped! (confidence 1) Statistics Read error : 0 Skipped (treated as error) : 0 Edge jitter error (maybe fixed) : 0 Atom jitter error (maybe fixed) : 0 Drift error (maybe fixed) : 0 Dropped bytes error (maybe fixed) : 0 Duplicated bytes error (maybe fixed) : 0 Inconsistency in error sectors : 0

Track 02 Filename : /Users/alex/work/Patrice - One [2010]/Patrice - One (2010) [FLAC]/02 Ain't Got No (I Got Life).flac Pre-gap length : 00:02:00

Track gain : -9.94 dB Peak : 1.000000 CRC32 hash (test run) : D08FD81B CRC32 hash : D08FD81B CRC32 hash (skip zero) : 996F28A5 AccurateRip signature : 2C798BDF ->Accurately ripped! (confidence 1) Statistics Read error : 0 Skipped (treated as error) : 0 Edge jitter error (maybe fixed) : 0 Atom jitter error (maybe fixed) : 0 Drift error (maybe fixed) : 0 Dropped bytes error (maybe fixed) : 0 Duplicated bytes error (maybe fixed) : 0 Inconsistency in error sectors : 0

Track 03 Filename : /Users/alex/work/Patrice - One [2010]/Patrice - One (2010) [FLAC]/03 Walking Alone.flac Pre-gap length : 00:02:00

Track gain : -9.65 dB Peak : 1.000000 CRC32 hash (test run) : FEDDE19C CRC32 hash : FEDDE19C CRC32 hash (skip zero) : 98D93A3E AccurateRip signature : AED750A7 ->Accurately ripped! (confidence 1) Statistics Read error : 0 Skipped (treated as error) : 0 Edge jitter error (maybe fixed) : 0 Atom jitter error (maybe fixed) : 0 Drift error (maybe fixed) : 0 Dropped bytes error (maybe fixed) : 0 Duplicated bytes error (maybe fixed) : 0 Inconsistency in error sectors : 0

Track 04 Filename : /Users/alex/work/Patrice - One [2010]/Patrice - One (2010) [FLAC]/04 Kingfish.flac Pre-gap length : 00:02:00

Track gain : -7.27 dB Peak : 1.000000 CRC32 hash (test run) : 3DE03AB9 CRC32 hash : 3DE03AB9 CRC32 hash (skip zero) : 258CC077 AccurateRip signature : D6AF68E1 ->Accurately ripped! (confidence 1) Statistics Read error : 0 Skipped (treated as error) : 0 Edge jitter error (maybe fixed) : 0 Atom jitter error (maybe fixed) : 0 Drift error (maybe fixed) : 0 Dropped bytes error (maybe fixed) : 0 Duplicated bytes error (maybe fixed) : 0 Inconsistency in error sectors : 0

Track 05 Filename : /Users/alex/work/Patrice - One [2010]/Patrice - One (2010) [FLAC]/05 New Day.flac Pre-gap length : 00:02:00

Track gain : -8.05 dB Peak : 1.000000 CRC32 hash (test run) : 339682F6 CRC32 hash : 339682F6 CRC32 hash (skip zero) : 1C8D00E4 AccurateRip signature : 463A0826 ->Accurately ripped! (confidence 1) Statistics Read error : 0 Skipped (treated as error) : 0 Edge jitter error (maybe fixed) : 0 Atom jitter error (maybe fixed) : 0 Drift error (maybe fixed) : 0 Dropped bytes error (maybe fixed) : 0 Duplicated bytes error (maybe fixed) : 0 Inconsistency in error sectors : 0

Track 06 Filename : /Users/alex/work/Patrice - One [2010]/Patrice - One (2010) [FLAC]/06 Ten Man Down.flac Pre-gap length : 00:02:00

Track gain : -7.61 dB Peak : 1.000000 CRC32 hash (test run) : FF82AF00 CRC32 hash : FF82AF00 CRC32 hash (skip zero) : CFAAA80F AccurateRip signature : E57A4EC0 ->Accurately ripped! (confidence 1) Statistics Read error : 0 Skipped (treated as error) : 0 Edge jitter error (maybe fixed) : 0 Atom jitter error (maybe fixed) : 0 Drift error (maybe fixed) : 0 Dropped bytes error (maybe fixed) : 0 Duplicated bytes error (maybe fixed) : 0 Inconsistency in error sectors : 0

Track 07 Filename : /Users/alex/work/Patrice - One [2010]/Patrice - One (2010) [FLAC]/07 Wiggle & Rock.flac Pre-gap length : 00:02:00

Track gain : -7.64 dB Peak : 0.987854 CRC32 hash (test run) : B9D6B08E CRC32 hash : B9D6B08E CRC32 hash (skip zero) : D20243A6 AccurateRip signature : 03CE361A ->Accurately ripped! (confidence 1) Statistics Read error : 0 Skipped (treated as error) : 0 Edge jitter error (maybe fixed) : 0 Atom jitter error (maybe fixed) : 0 Drift error (maybe fixed) : 0 Dropped bytes error (maybe fixed) : 0 Duplicated bytes error (maybe fixed) : 0 Inconsistency in error sectors : 0

Track 08 Filename : /Users/alex/work/Patrice - One [2010]/Patrice - One (2010) [FLAC]/08 Nobody Else's.flac Pre-gap length : 00:02:00

Track gain : -6.80 dB Peak : 1.000000 CRC32 hash (test run) : A59DE636 CRC32 hash : A59DE636 CRC32 hash (skip zero) : 0A70E079 AccurateRip signature : C8A8E340 ->Accurately ripped! (confidence 1) Statistics Read error : 0 Skipped (treated as error) : 0 Edge jitter error (maybe fixed) : 0 Atom jitter error (maybe fixed) : 0 Drift error (maybe fixed) : 0 Dropped bytes error (maybe fixed) : 0 Duplicated bytes error (maybe fixed) : 0 Inconsistency in error sectors : 0

Track 09 Filename : /Users/alex/work/Patrice - One [2010]/Patrice - One (2010) [FLAC]/09 Nothing Better.flac Pre-gap length : 00:02:00

Track gain : -7.38 dB Peak : 1.000000 CRC32 hash (test run) : 65838C01 CRC32 hash : 65838C01 CRC32 hash (skip zero) : CF8DCB5C AccurateRip signature : 305D9BA3 ->Accurately ripped! (confidence 1) Statistics Read error : 0 Skipped (treated as error) : 0 Edge jitter error (maybe fixed) : 0 Atom jitter error (maybe fixed) : 0 Drift error (maybe fixed) : 0 Dropped bytes error (maybe fixed) : 0 Duplicated bytes error (maybe fixed) : 0 Inconsistency in error sectors : 0

Track 10 Filename : /Users/alex/work/Patrice - One [2010]/Patrice - One (2010) [FLAC]/10 Knockin'.flac Pre-gap length : 00:02:00

Track gain : -7.88 dB Peak : 1.000000 CRC32 hash (test run) : 4373F29A CRC32 hash : 4373F29A CRC32 hash (skip zero) : 1CC3C6A4 AccurateRip signature : D3F84300 ->Accurately ripped! (confidence 1) Statistics Read error : 0 Skipped (treated as error) : 0 Edge jitter error (maybe fixed) : 0 Atom jitter error (maybe fixed) : 0 Drift error (maybe fixed) : 0 Dropped bytes error (maybe fixed) : 0 Duplicated bytes error (maybe fixed) : 0 Inconsistency in error sectors : 0

Track 11 Filename : /Users/alex/work/Patrice - One [2010]/Patrice - One (2010) [FLAC]/11 Situation.flac Pre-gap length : 00:02:00

Track gain : -8.71 dB Peak : 1.000000 CRC32 hash (test run) : A7E70E39 CRC32 hash : A7E70E39 CRC32 hash (skip zero) : 6864BD4D AccurateRip signature : B35AB53E ->Accurately ripped! (confidence 1) Statistics Read error : 0 Skipped (treated as error) : 0 Edge jitter error (maybe fixed) : 0 Atom jitter error (maybe fixed) : 0 Drift error (maybe fixed) : 0 Dropped bytes error (maybe fixed) : 0 Duplicated bytes error (maybe fixed) : 0 Inconsistency in error sectors : 0

Track 12 Filename : /Users/alex/work/Patrice - One [2010]/Patrice - One (2010) [FLAC]/12 Don't Cry.flac Pre-gap length : 00:02:00

Track gain : -7.93 dB Peak : 1.000000 CRC32 hash (test run) : DF09FF36 CRC32 hash : DF09FF36 CRC32 hash (skip zero) : 5B0E9CE4 AccurateRip signature : DBC83B14 ->Accurately ripped! (confidence 1) Statistics Read error : 0 Skipped (treated as error) : 0 Edge jitter error (maybe fixed) : 0 Atom jitter error (maybe fixed) : 0 Drift error (maybe fixed) : 0 Dropped bytes error (maybe fixed) : 0 Duplicated bytes error (maybe fixed) : 0 Inconsistency in error sectors : 0

Track 13 Filename : /Users/alex/work/Patrice - One [2010]/Patrice - One (2010) [FLAC]/13 Visions.flac Pre-gap length : 00:02:00

Track gain : -3.95 dB Peak : 1.000000 CRC32 hash (test run) : 9B2D7D56 CRC32 hash : 9B2D7D56 CRC32 hash (skip zero) : FC048E48 AccurateRip signature : 880FEF40 ->Accurately ripped! (confidence 1) Statistics Read error : 0 Skipped (treated as error) : 0 Edge jitter error (maybe fixed) : 0 Atom jitter error (maybe fixed) : 0 Drift error (maybe fixed) : 0 Dropped bytes error (maybe fixed) : 0 Duplicated bytes error (maybe fixed) : 0 Inconsistency in error sectors : 0

No errors occurred

End of status report
 
TITLE "One"PERFORMER "Patrice"CATALOG 0602527437200REM DATE 2010REM DISCID BB0B180DFILE "01. Patrice - The Maker.wav" WAVE TRACK 01 AUDIO TITLE "The Maker" ISRC DEUM71013998 INDEX 01 00:00:00 TRACK 02 AUDIO TITLE "Ain't Got No (I Got Life)" ISRC DEUM71014005 INDEX 00 04:43:29FILE "02. Patrice - Ain't Got No (I Got Life).wav" WAVE INDEX 01 00:00:00 TRACK 03 AUDIO TITLE "Walking Alone" ISRC DEUM71016438 INDEX 00 03:43:14FILE "03. Patrice - Walking Alone.wav" WAVE INDEX 01 00:00:00 TRACK 04 AUDIO TITLE "Kingfish" ISRC DEUM71014008 INDEX 00 04:13:31FILE "04. Patrice - Kingfish.wav" WAVE INDEX 01 00:00:00 TRACK 05 AUDIO TITLE "New Day" ISRC DEUM71014013 INDEX 00 02:46:50FILE "05. Patrice - New Day.wav" WAVE INDEX 01 00:00:00 TRACK 06 AUDIO TITLE "Ten Man Down" ISRC DEUM71014009 INDEX 00 03:42:48FILE "06. Patrice - Ten Man Down.wav" WAVE INDEX 01 00:00:00 TRACK 07 AUDIO TITLE "Wiggle & Rock" ISRC DEUM71016404 INDEX 00 03:22:29FILE "07. Patrice - Wiggle & Rock.wav" WAVE INDEX 01 00:00:00 TRACK 08 AUDIO TITLE "Nobody Else's" ISRC DEUM71014010 INDEX 00 02:56:60FILE "08. Patrice - Nobody Else's.wav" WAVE INDEX 01 00:00:00 TRACK 09 AUDIO TITLE "Nothing Better" ISRC DEUM71014015 INDEX 00 03:33:31FILE "09. Patrice - Nothing Better.wav" WAVE INDEX 01 00:00:00 TRACK 10 AUDIO TITLE "Knockin'" ISRC DEUM71014014 INDEX 00 03:56:32FILE "10. Patrice - Knockin'.wav" WAVE INDEX 01 00:00:00 TRACK 11 AUDIO TITLE "Situation" ISRC DEUM71014012 INDEX 00 03:11:20FILE "11. Patrice - Situation.wav" WAVE INDEX 01 00:00:00 TRACK 12 AUDIO TITLE "Don't Cry" ISRC DEUM71014016 INDEX 00 03:32:48FILE "12. Patrice - Don't Cry.wav" WAVE INDEX 01 00:00:00 TRACK 13 AUDIO TITLE "Visions" ISRC DEUM71016405 INDEX 00 03:32:48FILE "13. Patrice - Visions.wav" WAVE INDEX 01 00:00:00
 
-----------------------

DON'T MODIFY THIS FILE

-----------------------

PERFORMER: auCDtect Task Manager, ver. 1.5.1RC4 build 1.5.1.5Copyright (c) 2008-2010 y-soft. All rights reservedhttp://y-soft.org

ANALYZER: auCDtect: CD records authenticity detector, version 0.8.2Copyright (c) 2004 Oleg Berngardt. All rights reserved.Copyright (c) 2004 Alexander Djourik. All rights reserved.

FILE: 13. Patrice - Visions.flac Size: 18998527 Hash: D3DE1258DFCF4DFDE4C2676F03F3D898 Accuracy: -m0 Conclusion: CDDA 100% Signature: A8A09B3B49A62AF46E60344284F7EB6F98D5C081FILE: 12. Patrice - Don't Cry.flac Size: 23708533 Hash: 8BA56E0893BB4AC211D4ACEED1E194E0 Accuracy: -m0 Conclusion: CDDA 100% Signature: 1D1D58CC8E54D790F8D1F96F57E4902DA6C5AF82FILE: 11. Patrice - Situation.flac Size: 23462197 Hash: 1A60829163CAE0FDF7750C5A9542FAFB Accuracy: -m0 Conclusion: CDDA 100% Signature: 6AE55166A34688DA057A18BD8C1F3F855759AA6EFILE: 10. Patrice - Knockin'.flac Size: 20754025 Hash: 1EACB36A8C9488F23860EEC731B4DF2A Accuracy: -m0 Conclusion: CDDA 100% Signature: 1CE527E14BBDAA800B59C675438040C5A022546BFILE: 09. Patrice - Nothing Better.flac Size: 24234861 Hash: B99F324DA0F2B3E92513FF3766343177 Accuracy: -m0 Conclusion: CDDA 99% Signature: 14BCF2CF6EC49A5D64D74CFA13B0E0C8B1E3FA5DFILE: 08. Patrice - Nobody Else's.flac Size: 23198043 Hash: B854CC151D63FF448CA29473883BFF19 Accuracy: -m0 Conclusion: CDDA 100% Signature: 0FF603425F0FA062B6D53287D197D6EEB143C958FILE: 07. Patrice - Wiggle & Rock.flac Size: 20324531 Hash: BA9CEF11E6C972547A9E46219B0BBB9E Accuracy: -m0 Conclusion: CDDA 100% Signature: 854083455B4EBBBD9D1A99228883DA83D4131BBDFILE: 06. Patrice - Ten Man Down.flac Size: 21958551 Hash: 886412324FB8AA6D505AD5032EF97B8F Accuracy: -m0 Conclusion: CDDA 100% Signature: 1C32A63EF399B60500D5A4A6A02C0AE71323C440FILE: 05. Patrice - New Day.flac Size: 23544263 Hash: CF4A8266E18E6D1D830F116DBE82C60E Accuracy: -m0 Conclusion: CDDA 100% Signature: B56E3C338EDEE23BC7D16FEE4EC441291C66CF0CFILE: 04. Patrice - Kingfish.flac Size: 17113832 Hash: EDA7FFD5C8CB433A578B9E4C18FA1562 Accuracy: -m0 Conclusion: CDDA 100% Signature: 0F236F8A3E95B0715633FCAE79AEDEDB1D253454FILE: 03. Patrice - Walking Alone.flac Size: 30478905 Hash: BB99111C564F82E59DDC4199D5B102DD Accuracy: -m0 Conclusion: CDDA 100% Signature: 359A1FD3A9AEA85CAE9C0B2FB8A37A707F07D7D1FILE: 02. Patrice - Ain't Got No (I Got Life).flac Size: 27090897 Hash: 92107CFB30C33BDC0604D6BD0EF72034 Accuracy: -m0 Conclusion: CDDA 100% Signature: 6E376483EF0EE40E87E5FCD8BB2930E334041CA2FILE: 01. Patrice - The Maker.flac Size: 29376384 Hash: C628AE9BBAA820AE68BD4DCAAD3BE8C8 Accuracy: -m0 Conclusion: CDDA 76% Signature: 3DE439ADC5DC7E01CCF44D4A55444D35AE4A7F6B
Треклист:
<div style="margin-left: 2em">01. New Day (Acoustic Version) (04:22)
02. Ain't Got No (I Got Life) (Acoustic Version) (03:44)
03. Nobody Else's (Acoustic Version) (03:54)
04. King's Love (Acoustic Version) (03:17)
05. Walking Alone (Acoustic Version) (05:25)
06. King's Love (04:13)
07. The Ghost (04:46)
08. My L (10:23)</div>
 
X Lossless Decoder version 20101010 (123.3)

XLD extraction logfile from 2010-10-12 23:08:13 +0200

Patrice / One (Special Edition Disc 2)

Used drive : HL-DT-ST DVDRW GS23N (revision SB11)

Use cdparanoia mode : YES (CDParanoia III 10.2 engine)Disable audio cache : OK for the drive with cache less than 2750KBMake use of C2 pointers : NORead offset correction : 667Max retry count : 100Gap status : Analyzed, Appended

TOC of the extracted CD Track | Start | Length | Start sector | End sector --------------------------------------------------------- 1 | 00:00:00 | 04:21:53 | 0 | 19627 2 | 04:21:53 | 03:43:69 | 19628 | 36421 3 | 08:05:47 | 03:54:10 | 36422 | 53981 4 | 11:59:57 | 03:16:48 | 53982 | 68729 5 | 15:16:30 | 05:24:65 | 68730 | 93094 6 | 20:41:20 | 04:13:25 | 93095 | 112094 7 | 24:54:45 | 04:46:12 | 112095 | 133556 8 | 29:40:57 | 10:22:73 | 133557 | 180279 9 | 42:35:55 | 33:48:74 | 191680 | 343853

List of alternate offset correction values # | Absolute | Relative | Confidence ------------------------------------------ 1 | 21 | -646 | 1

Track 01 Filename : /Users/alex/work/Patrice - One [2010]/Patrice - One (Special Edition Disc 2) (2010) [FLAC]/01 New Day (Acoustic Version).flac Pre-gap length : 00:02:00

Track gain : -8.52 dB Peak : 1.000000 CRC32 hash (test run) : 45593D2B CRC32 hash : 45593D2B CRC32 hash (skip zero) : 6545AC74 AccurateRip signature : 30D58A21 ->Accurately ripped! (confidence 1) (matched with the different offset correction value; calculated using an additional offset of -646; the signature after correction is: 33DC8617) Statistics Read error : 0 Skipped (treated as error) : 0 Edge jitter error (maybe fixed) : 0 Atom jitter error (maybe fixed) : 0 Drift error (maybe fixed) : 0 Dropped bytes error (maybe fixed) : 0 Duplicated bytes error (maybe fixed) : 0 Inconsistency in error sectors : 0

Track 02 Filename : /Users/alex/work/Patrice - One [2010]/Patrice - One (Special Edition Disc 2) (2010) [FLAC]/02 Ain't Got No (I Got Life) (Acoustic Version).flac Pre-gap length : 00:02:00

Track gain : -9.27 dB Peak : 1.000000 CRC32 hash (test run) : 30BAD546 CRC32 hash : 30BAD546 CRC32 hash (skip zero) : 91941226 AccurateRip signature : 8DD19735 ->Accurately ripped! (confidence 1) (matched with the different offset correction value; calculated using an additional offset of -646; the signature after correction is: 04F5283D) Statistics Read error : 0 Skipped (treated as error) : 0 Edge jitter error (maybe fixed) : 0 Atom jitter error (maybe fixed) : 0 Drift error (maybe fixed) : 0 Dropped bytes error (maybe fixed) : 0 Duplicated bytes error (maybe fixed) : 0 Inconsistency in error sectors : 0

Track 03 Filename : /Users/alex/work/Patrice - One [2010]/Patrice - One (Special Edition Disc 2) (2010) [FLAC]/03 Nobody Else's (Acoustic Version).flac Pre-gap length : 00:02:00

Track gain : -10.04 dB Peak : 1.000000 CRC32 hash (test run) : 8C5ADDF3 CRC32 hash : 8C5ADDF3 CRC32 hash (skip zero) : E5D96D30 AccurateRip signature : 851F9436 ->Accurately ripped! (confidence 1) (matched with the different offset correction value; calculated using an additional offset of -646; the signature after correction is: E86444D2) Statistics Read error : 0 Skipped (treated as error) : 0 Edge jitter error (maybe fixed) : 0 Atom jitter error (maybe fixed) : 0 Drift error (maybe fixed) : 0 Dropped bytes error (maybe fixed) : 0 Duplicated bytes error (maybe fixed) : 0 Inconsistency in error sectors : 0

Track 04 Filename : /Users/alex/work/Patrice - One [2010]/Patrice - One (Special Edition Disc 2) (2010) [FLAC]/04 King's Love (Acoustic Version).flac Pre-gap length : 00:02:00

Track gain : -8.57 dB Peak : 0.999969 CRC32 hash (test run) : 9821E692 CRC32 hash : 9821E692 CRC32 hash (skip zero) : 4D717920 AccurateRip signature : 14A26390 ->Accurately ripped! (confidence 1) (matched with the different offset correction value; calculated using an additional offset of -646; the signature after correction is: F987EEE4) Statistics Read error : 0 Skipped (treated as error) : 0 Edge jitter error (maybe fixed) : 0 Atom jitter error (maybe fixed) : 0 Drift error (maybe fixed) : 0 Dropped bytes error (maybe fixed) : 0 Duplicated bytes error (maybe fixed) : 0 Inconsistency in error sectors : 0

Track 05 Filename : /Users/alex/work/Patrice - One [2010]/Patrice - One (Special Edition Disc 2) (2010) [FLAC]/05 Walking Alone (Acoustic Version).flac Pre-gap length : 00:02:00

Track gain : -7.48 dB Peak : 0.999969 CRC32 hash (test run) : 39479A99 CRC32 hash : 39479A99 CRC32 hash (skip zero) : DA62EE9C AccurateRip signature : D4AE3BF3 ->Accurately ripped! (confidence 1) (matched with the different offset correction value; calculated using an additional offset of -646; the signature after correction is: 6A0A3BCD) Statistics Read error : 0 Skipped (treated as error) : 0 Edge jitter error (maybe fixed) : 0 Atom jitter error (maybe fixed) : 0 Drift error (maybe fixed) : 0 Dropped bytes error (maybe fixed) : 0 Duplicated bytes error (maybe fixed) : 0 Inconsistency in error sectors : 0

Track 06 Filename : /Users/alex/work/Patrice - One [2010]/Patrice - One (Special Edition Disc 2) (2010) [FLAC]/06 King's Love.flac Pre-gap length : 00:01:74

Track gain : -7.17 dB Peak : 1.000000 CRC32 hash (test run) : DE43A216 CRC32 hash : DE43A216 CRC32 hash (skip zero) : 62F1CD7F AccurateRip signature : 6ED0C07D ->Accurately ripped! (confidence 1) (matched with the different offset correction value; calculated using an additional offset of -646; the signature after correction is: D62F4A8B) Statistics Read error : 0 Skipped (treated as error) : 0 Edge jitter error (maybe fixed) : 0 Atom jitter error (maybe fixed) : 0 Drift error (maybe fixed) : 0 Dropped bytes error (maybe fixed) : 0 Duplicated bytes error (maybe fixed) : 0 Inconsistency in error sectors : 0

Track 07 Filename : /Users/alex/work/Patrice - One [2010]/Patrice - One (Special Edition Disc 2) (2010) [FLAC]/07 The Ghost.flac Pre-gap length : 00:02:00

Track gain : -6.46 dB Peak : 0.999939 CRC32 hash (test run) : 6890D050 CRC32 hash : 6890D050 CRC32 hash (skip zero) : E804696D AccurateRip signature : 69361CB7 ->Accurately ripped! (confidence 1) (matched with the different offset correction value; calculated using an additional offset of -646; the signature after correction is: 939BBFD9) Statistics Read error : 0 Skipped (treated as error) : 0 Edge jitter error (maybe fixed) : 0 Atom jitter error (maybe fixed) : 0 Drift error (maybe fixed) : 0 Dropped bytes error (maybe fixed) : 0 Duplicated bytes error (maybe fixed) : 0 Inconsistency in error sectors : 0

Track 08 Filename : /Users/alex/work/Patrice - One [2010]/Patrice - One (Special Edition Disc 2) (2010) [FLAC]/08 My L.flac Pre-gap length : 00:02:00

Track gain : -7.57 dB Peak : 1.000000 CRC32 hash (test run) : B20E67A0 CRC32 hash : B20E67A0 CRC32 hash (skip zero) : E497644E AccurateRip signature : E4FC6187 ->Rip may not be accurate. Statistics Read error : 0 Skipped (treated as error) : 0 Edge jitter error (maybe fixed) : 0 Atom jitter error (maybe fixed) : 0 Drift error (maybe fixed) : 0 Dropped bytes error (maybe fixed) : 0 Duplicated bytes error (maybe fixed) : 0 Inconsistency in error sectors : 0

No errors occurred

End of status report
 
TITLE "One (Special Edition Disc 2)"PERFORMER "Patrice"CATALOG 0602527448466REM DATE 2010REM DISCID 7F11E809FILE "01. Patrice - New Day (Acoustic Version).wav" WAVE TRACK 01 AUDIO TITLE "New Day (Acoustic Version)" ISRC DEUM71016427 INDEX 01 00:00:00 TRACK 02 AUDIO TITLE "Ain't Got No (I Got Life) (Acoustic Version)" ISRC DEUM71016428 INDEX 00 04:19:53FILE "02. Patrice - Ain't Got No (I Got Life) (Acoustic Version).wav" WAVE INDEX 01 00:00:00 TRACK 03 AUDIO TITLE "Nobody Else's (Acoustic Version)" ISRC DEUM71016429 INDEX 00 03:41:69FILE "03. Patrice - Nobody Else's (Acoustic Version).wav" WAVE INDEX 01 00:00:00 TRACK 04 AUDIO TITLE "King's Love (Acoustic Version)" ISRC DEUM71016430 INDEX 00 03:52:10FILE "04. Patrice - King's Love (Acoustic Version).wav" WAVE INDEX 01 00:00:00 TRACK 05 AUDIO TITLE "Walking Alone (Acoustic Version)" ISRC DEUM71016431 INDEX 00 03:14:48FILE "05. Patrice - Walking Alone (Acoustic Version).wav" WAVE INDEX 01 00:00:00 TRACK 06 AUDIO TITLE "King's Love" ISRC DEUM71014011 INDEX 00 05:22:66FILE "06. Patrice - King's Love.wav" WAVE INDEX 01 00:00:00 TRACK 07 AUDIO TITLE "The Ghost" ISRC DEUM71016432 INDEX 00 04:11:25FILE "07. Patrice - The Ghost.wav" WAVE INDEX 01 00:00:00 TRACK 08 AUDIO TITLE "My L" ISRC DEUM71016433 INDEX 00 04:44:12FILE "08. Patrice - My L.wav" WAVE INDEX 01 00:00:00
 
-----------------------

DON'T MODIFY THIS FILE

-----------------------

PERFORMER: auCDtect Task Manager, ver. 1.5.1RC4 build 1.5.1.5Copyright (c) 2008-2010 y-soft. All rights reservedhttp://y-soft.org

ANALYZER: auCDtect: CD records authenticity detector, version 0.8.2Copyright (c) 2004 Oleg Berngardt. All rights reserved.Copyright (c) 2004 Alexander Djourik. All rights reserved.

FILE: 08. Patrice - My L.flac Size: 71041946 Hash: DB49DEDED08FBAF8466415C6F9FC42C0 Accuracy: -m0 Conclusion: CDDA 100% Signature: 6D25141B2433EED3C874FF33F474727EB7FDC06CFILE: 07. Patrice - The Ghost.flac Size: 33816951 Hash: 7B1CBB67F8DCF2FE89C0A4614B374264 Accuracy: -m0 Conclusion: CDDA 99% Signature: BA229D11DE8A469FB0605D9BF06DF032E84337D0FILE: 06. Patrice - King's Love.flac Size: 27044018 Hash: 5F01EB10DC943E1A4301C751DF8C60F8 Accuracy: -m0 Conclusion: CDDA 100% Signature: E03AF3647EB15DBFD7AD926132BBA898D7A2F325FILE: 05. Patrice - Walking Alone (Acoustic Version).flac Size: 25279411 Hash: AAAF9AC8ADF2A2AB62AA0138476F669E Accuracy: -m0 Conclusion: CDDA 100% Signature: F2B683C60E7E0B5F89E3A109138D5F736E2E6990FILE: 04. Patrice - King's Love (Acoustic Version).flac Size: 19622527 Hash: 993D279788542588A67EEA8666FA0FAA Accuracy: -m0 Conclusion: CDDA 100% Signature: 6D91A0B2FFA4D3BD1C104AFB64292CAB7E46EE9AFILE: 03. Patrice - Nobody Else's (Acoustic Version).flac Size: 22443462 Hash: A1C3C3B04B7C4EA7314CB8EAD1FC041A Accuracy: -m0 Conclusion: CDDA 100% Signature: 6F4BBD0C3F4227228BEDBB9CE40B85CA40047546FILE: 02. Patrice - Ain't Got No (I Got Life) (Acoustic Version).flac Size: 24100257 Hash: E93BBED4994CF31ED9B79B7226F1D44C Accuracy: -m0 Conclusion: CDDA 100% Signature: 0C33F38C1585058DE918F7677734507ACE124F2FFILE: 01. Patrice - New Day (Acoustic Version).flac Size: 22966979 Hash: 89E6C8037333C5EFF6B3A44C55E5FA67 Accuracy: -m0 Conclusion: CDDA 87% Signature: DA9D9BB5694D5AF609BA326676D4BCC59040EB69


Трекер:  [ 03-Фев-2012 01:16 ]

  

Скачать .torrent

Размер .torrent файла 24 KB


Размер: 2.21 GB
Хэш (hash) релиза: 385d0472176cf8b316806b40fd730e46e5f6ec9a

Еще никто не оставлял запись к записи скачать торрент Patrice - Collection - 2000-2010, FLAC . Будь первым!

!Обратная связь