épisode 15 streaming Worth | Crime e Castigo | Türk Yeşilçam Full Filmler Özel

Скачать через торрент музыку New Age Steppers - Коллекция бесплатно без регистрации torrent

Статистика раздачи
Размер:  1020 MB   |    Зарегистрирован:  6 лет 5 месяцев   |    .torrent скачан:  33 раза   |   
Раздают:  1  
   
загрузка...
 
Автор Сообщение

Galfimbul

avatar Galfimbul


New Age Steppers

Жанр: Reggae / Dub
Страна: England
Годы: 1980-1981
Аудиокодек: FLAC (*.flac)
Тип рипа: tracks+.cue
Битрейт аудио: lossless
Продолжительность: 2:39:19
Источник: What.CD
Коллекция:

Студийные альбомы:
Страна-производитель диска: Japan
Год издания диска: 2003
Издатель (лейбл): Beat Records
Номер по каталогу: BRC-79
Продолжительность: 1:04:06
Источник (релизер): What.CD (sarukichi)
Наличие сканов в содержимом раздачи: нет
Треклист:
<ul type="1">
Fade Away [5:37]
Radial Drill [4:31]
State Assembly [6:20]
Crazy Dreams and High Ideals [5:46]
Abderhamane's Demise [3:50]
Animal Space [5:41]
Love Forever [7:26]
Private Armies [4:52]
Izalize [4:38]
May I [6:12]
Avante Gardening [4:06]
Singing Love [5:07]
</ul>
+ Discogs Amazon MusicBrainz
 
X Lossless Decoder version 20110821 (136.1)

XLD extraction logfile from 2011-09-04 12:37:13 +0900

New Age Steppers / New Age Steppers (JAP)

Used drive : MATSHITA DVD-R UJ-867 (revision HA13)

Ripper mode : XLD Secure RipperDisable audio cache : OK for the drive with a cache less than 1375KiBMake use of C2 pointers : NORead offset correction : 102Max retry count : 100Gap status : Analyzed, Appended (except HTOA)

TOC of the extracted CD Track | Start | Length | Start sector | End sector --------------------------------------------------------- 1 | 00:00:00 | 05:36:45 | 0 | 25244 2 | 05:36:45 | 04:31:03 | 25245 | 45572 3 | 10:07:48 | 06:20:31 | 45573 | 74103 4 | 16:28:04 | 05:45:39 | 74104 | 100017 5 | 22:13:43 | 03:50:09 | 100018 | 117276 6 | 26:03:52 | 05:41:11 | 117277 | 142862 7 | 31:44:63 | 07:25:40 | 142863 | 176277 8 | 39:10:28 | 04:51:40 | 176278 | 198142 9 | 44:01:68 | 04:38:29 | 198143 | 219021 10 | 48:40:22 | 06:11:66 | 219022 | 246912 11 | 54:52:13 | 04:06:16 | 246913 | 265378 12 | 58:58:29 | 05:07:35 | 265379 | 288438

AccurateRip Summary Track 01 : OK (confidence 3) Track 02 : OK (confidence 3) Track 03 : OK (confidence 3) Track 04 : OK (confidence 3) Track 05 : OK (confidence 3) Track 06 : OK (confidence 3) Track 07 : OK (confidence 3) Track 08 : OK (confidence 3) Track 09 : OK (confidence 3) Track 10 : OK (confidence 3) Track 11 : OK (confidence 3) Track 12 : OK (confidence 3) ->All tracks accurately ripped.

All Tracks Album gain : -4.33 dB Peak : 0.996552 Statistics Read error : 0 Jitter error (maybe fixed) : 0 Retry sector count : 5 Damaged sector count : 0

Track 01 Filename : /Volumes/giant baba/mp3 samples trax/mp3 stash/to seed/01 - Fade Away.flac Pre-gap length : 00:02:00

Track gain : -4.92 dB Peak : 0.994812 CRC32 hash (test run) : CD717327 CRC32 hash : CD717327 CRC32 hash (skip zero) : EF74283D AccurateRip signature : 405804EC ->Accurately ripped! (confidence 3) Statistics Read error : 0 Jitter error (maybe fixed) : 0 Retry sector count : 0 Damaged sector count : 0

Track 02 Filename : /Volumes/giant baba/mp3 samples trax/mp3 stash/to seed/02 - Radial Drill.flac Pre-gap length : 00:01:58

Track gain : -4.33 dB Peak : 0.995483 CRC32 hash (test run) : 61643AF0 CRC32 hash : 61643AF0 CRC32 hash (skip zero) : 9115A00D AccurateRip signature : 57CF52EA ->Accurately ripped! (confidence 3) Statistics Read error : 0 Jitter error (maybe fixed) : 0 Retry sector count : 0 Damaged sector count : 0

Track 03 Filename : /Volumes/giant baba/mp3 samples trax/mp3 stash/to seed/03 - State Assembly.flac Pre-gap length : 00:01:57

Track gain : -4.17 dB Peak : 0.996277 CRC32 hash (test run) : 14C83199 CRC32 hash : 14C83199 CRC32 hash (skip zero) : EABE721A AccurateRip signature : 1F74E1BE ->Accurately ripped! (confidence 3) Statistics Read error : 0 Jitter error (maybe fixed) : 0 Retry sector count : 0 Damaged sector count : 0

Track 04 Filename : /Volumes/giant baba/mp3 samples trax/mp3 stash/to seed/04 - Crazy Dreams And High Ideals.flac Pre-gap length : 00:01:57

Track gain : -3.59 dB Peak : 0.994629 CRC32 hash (test run) : C0CD3D32 CRC32 hash : C0CD3D32 CRC32 hash (skip zero) : 2C39EE61 AccurateRip signature : B4F631F4 ->Accurately ripped! (confidence 3) Statistics Read error : 0 Jitter error (maybe fixed) : 0 Retry sector count : 0 Damaged sector count : 0

Track 05 Filename : /Volumes/giant baba/mp3 samples trax/mp3 stash/to seed/05 - Abderhamane's Demise.flac Pre-gap length : 00:01:57

Track gain : -4.54 dB Peak : 0.996552 CRC32 hash (test run) : 73EA5582 CRC32 hash : 73EA5582 CRC32 hash (skip zero) : BE787FB1 AccurateRip signature : 147DFB51 ->Accurately ripped! (confidence 3) Statistics Read error : 0 Jitter error (maybe fixed) : 0 Retry sector count : 0 Damaged sector count : 0

Track 06 Filename : /Volumes/giant baba/mp3 samples trax/mp3 stash/to seed/06 - Animal Space.flac Pre-gap length : 00:01:57

Track gain : -2.92 dB Peak : 0.994965 CRC32 hash (test run) : 1E330B2D CRC32 hash : 1E330B2D CRC32 hash (skip zero) : 713CD36E AccurateRip signature : 4019E09F ->Accurately ripped! (confidence 3) Statistics Read error : 0 Jitter error (maybe fixed) : 0 Retry sector count : 0 Damaged sector count : 0

Track 07 Filename : /Volumes/giant baba/mp3 samples trax/mp3 stash/to seed/07 - Love Forever.flac Pre-gap length : 00:01:57

Track gain : -4.00 dB Peak : 0.994995 CRC32 hash (test run) : 1596C683 CRC32 hash : 1596C683 CRC32 hash (skip zero) : 37C24E79 AccurateRip signature : 3403DFEE ->Accurately ripped! (confidence 3) Statistics Read error : 0 Jitter error (maybe fixed) : 0 Retry sector count : 5 Damaged sector count : 0

Track 08 Filename : /Volumes/giant baba/mp3 samples trax/mp3 stash/to seed/08 - Private Armies.flac Pre-gap length : 00:01:57

Track gain : -4.83 dB Peak : 0.995331 CRC32 hash (test run) : A3FA3702 CRC32 hash : A3FA3702 CRC32 hash (skip zero) : E47DF03A AccurateRip signature : 4FD53F1D ->Accurately ripped! (confidence 3) Statistics Read error : 0 Jitter error (maybe fixed) : 0 Retry sector count : 0 Damaged sector count : 0

Track 09 Filename : /Volumes/giant baba/mp3 samples trax/mp3 stash/to seed/09 - Izalize.flac Pre-gap length : 00:01:57

Track gain : -5.03 dB Peak : 0.994904 CRC32 hash (test run) : 80C7B4ED CRC32 hash : 80C7B4ED CRC32 hash (skip zero) : 35F3C4D8 AccurateRip signature : 35FB358E ->Accurately ripped! (confidence 3) Statistics Read error : 0 Jitter error (maybe fixed) : 0 Retry sector count : 0 Damaged sector count : 0

Track 10 Filename : /Volumes/giant baba/mp3 samples trax/mp3 stash/to seed/10 - May I.flac Pre-gap length : 00:01:57

Track gain : -2.70 dB Peak : 0.994812 CRC32 hash (test run) : 9ADA9476 CRC32 hash : 9ADA9476 CRC32 hash (skip zero) : 30A42DA5 AccurateRip signature : A0B6707A ->Accurately ripped! (confidence 3) Statistics Read error : 0 Jitter error (maybe fixed) : 0 Retry sector count : 0 Damaged sector count : 0

Track 11 Filename : /Volumes/giant baba/mp3 samples trax/mp3 stash/to seed/11 - Avante Gardening.flac Pre-gap length : 00:01:57

Track gain : -5.72 dB Peak : 0.994995 CRC32 hash (test run) : 4D71CD34 CRC32 hash : 4D71CD34 CRC32 hash (skip zero) : 82E6F9F1 AccurateRip signature : 60B4329D ->Accurately ripped! (confidence 3) Statistics Read error : 0 Jitter error (maybe fixed) : 0 Retry sector count : 0 Damaged sector count : 0

Track 12 Filename : /Volumes/giant baba/mp3 samples trax/mp3 stash/to seed/12 - Singing Love.flac Pre-gap length : 00:01:57

Track gain : -3.78 dB Peak : 0.994324 CRC32 hash (test run) : 2A131218 CRC32 hash : 2A131218 CRC32 hash (skip zero) : 7F9CFB4A AccurateRip signature : 20664BA5 ->Accurately ripped! (confidence 3) Statistics Read error : 0 Jitter error (maybe fixed) : 0 Retry sector count : 0 Damaged sector count : 0

No errors occurred

End of status report
 
TITLE "New Age Steppers (JAP)"PERFORMER "New Age Steppers"REM GENRE "Reggae"REM DATE "2003"REM DISCID A60F050CREM REPLAYGAIN_ALBUM_GAIN -4.33 dBREM REPLAYGAIN_ALBUM_PEAK 0.996552FILE "01 - Fade Away.flac" WAVE TRACK 01 AUDIO TITLE "Fade Away" REM REPLAYGAIN_TRACK_GAIN -4.92 dB REM REPLAYGAIN_TRACK_PEAK 0.994812 INDEX 01 00:00:00 TRACK 02 AUDIO TITLE "Radial Drill" REM REPLAYGAIN_TRACK_GAIN -4.33 dB REM REPLAYGAIN_TRACK_PEAK 0.995483 INDEX 00 05:34:62FILE "02 - Radial Drill.flac" WAVE INDEX 01 00:00:00 TRACK 03 AUDIO TITLE "State Assembly" REM REPLAYGAIN_TRACK_GAIN -4.17 dB REM REPLAYGAIN_TRACK_PEAK 0.996277 INDEX 00 04:29:21FILE "03 - State Assembly.flac" WAVE INDEX 01 00:00:00 TRACK 04 AUDIO TITLE "Crazy Dreams And High Ideals" REM REPLAYGAIN_TRACK_GAIN -3.59 dB REM REPLAYGAIN_TRACK_PEAK 0.994629 INDEX 00 06:18:49FILE "04 - Crazy Dreams And High Ideals.flac" WAVE INDEX 01 00:00:00 TRACK 05 AUDIO TITLE "Abderhamane's Demise" REM REPLAYGAIN_TRACK_GAIN -4.54 dB REM REPLAYGAIN_TRACK_PEAK 0.996552 INDEX 00 05:43:57FILE "05 - Abderhamane's Demise.flac" WAVE INDEX 01 00:00:00 TRACK 06 AUDIO TITLE "Animal Space" REM REPLAYGAIN_TRACK_GAIN -2.92 dB REM REPLAYGAIN_TRACK_PEAK 0.994965 INDEX 00 03:48:27FILE "06 - Animal Space.flac" WAVE INDEX 01 00:00:00 TRACK 07 AUDIO TITLE "Love Forever" REM REPLAYGAIN_TRACK_GAIN -4.00 dB REM REPLAYGAIN_TRACK_PEAK 0.994995 INDEX 00 05:39:29FILE "07 - Love Forever.flac" WAVE INDEX 01 00:00:00 TRACK 08 AUDIO TITLE "Private Armies" REM REPLAYGAIN_TRACK_GAIN -4.83 dB REM REPLAYGAIN_TRACK_PEAK 0.995331 INDEX 00 07:23:58FILE "08 - Private Armies.flac" WAVE INDEX 01 00:00:00 TRACK 09 AUDIO TITLE "Izalize" REM REPLAYGAIN_TRACK_GAIN -5.03 dB REM REPLAYGAIN_TRACK_PEAK 0.994904 INDEX 00 04:49:58FILE "09 - Izalize.flac" WAVE INDEX 01 00:00:00 TRACK 10 AUDIO TITLE "May I" REM REPLAYGAIN_TRACK_GAIN -2.70 dB REM REPLAYGAIN_TRACK_PEAK 0.994812 INDEX 00 04:36:47FILE "10 - May I.flac" WAVE INDEX 01 00:00:00 TRACK 11 AUDIO TITLE "Avante Gardening" REM REPLAYGAIN_TRACK_GAIN -5.72 dB REM REPLAYGAIN_TRACK_PEAK 0.994995 INDEX 00 06:10:09FILE "11 - Avante Gardening.flac" WAVE INDEX 01 00:00:00 TRACK 12 AUDIO TITLE "Singing Love" REM REPLAYGAIN_TRACK_GAIN -3.78 dB REM REPLAYGAIN_TRACK_PEAK 0.994324 INDEX 00 04:04:34FILE "12 - Singing Love.flac" WAVE INDEX 01 00:00:00
Страна-производитель диска: UK
Год издания диска: 1991
Издатель (лейбл): Statik Records
Номер по каталогу: ST2 CD
Продолжительность: 43:08
Источник (релизер): What.CD (csenka)
Наличие сканов в содержимом раздачи: нет
Треклист:
<ul type="1">
My Whole World [5:23]
Observe Life [5:17]
Got to Get Away [4:53]
My Love [7:05]
Problems [7:35]
Nuclear Zulu [6:24]
Guiding Star [6:31]
</ul>
+ Discogs Amazon MusicBrainz
 
Exact Audio Copy V0.99 prebeta 5 from 4. May 2009

EAC extraction logfile from 12. June 2011, 0:12

New Age Steppers / Action Battlefield

Used drive : HL-DT-STDVD-RAM GH22NP20 Adapter: 0 ID: 1

Read mode : SecureUtilize accurate stream : YesDefeat audio cache : YesMake use of C2 pointers : No

Read offset correction : 102Overread into Lead-In and Lead-Out : NoFill up missing offset samples with silence : YesDelete leading and trailing silent blocks : NoNull samples used in CRC calculations : YesUsed interface : Native Win32 interface for Win NT & 2000Gap handling : Appended to previous track

Used output format : User Defined EncoderSelected bitrate : 768 kBit/sQuality : HighAdd ID3 tag : NoCommand line compressor : C:\Program Files\Exact Audio Copy\Flac\flac.exeAdditional command line options : -V -8 -T "artist=%a" -T "title=%t" -T "album=%g" -T "date=%y" -T "tracknumber=%n" -T "genre=%m" %s

TOC of the extracted CD

Track | Start | Length | Start sector | End sector --------------------------------------------------------- 1 | 0:00.00 | 5:22.68 | 0 | 24217 2 | 5:22.68 | 5:17.15 | 24218 | 48007 3 | 10:40.08 | 4:53.12 | 48008 | 69994 4 | 15:33.20 | 7:04.45 | 69995 | 101839 5 | 22:37.65 | 7:35.15 | 101840 | 135979 6 | 30:13.05 | 6:23.70 | 135980 | 164774 7 | 36:37.00 | 6:28.65 | 164775 | 193939

Track 1

Filename D:\My Music\FLAC WAVE\ADRIAN SHERWOOD RELATED\New Age Steppers - Action Battlefield\(01) My Whole World - New Age Steppers-1982.wav

Pre-gap length 0:00:02.00

Peak level 100.0 % Track quality 100.0 % Test CRC ECBA2181 Copy CRC ECBA2181 Accurately ripped (confidence 4) [2B97A102] Copy OK

Track 2

Filename D:\My Music\FLAC WAVE\ADRIAN SHERWOOD RELATED\New Age Steppers - Action Battlefield\(02) Observe Life - New Age Steppers-1982.wav

Pre-gap length 0:00:02.20

Peak level 81.0 % Track quality 100.0 % Test CRC 41F1E814 Copy CRC 41F1E814 Accurately ripped (confidence 3) [6C02877E] Copy OK

Track 3

Filename D:\My Music\FLAC WAVE\ADRIAN SHERWOOD RELATED\New Age Steppers - Action Battlefield\(03) Got To Get Away - New Age Steppers-1982.wav

Pre-gap length 0:00:02.24

Peak level 85.6 % Track quality 100.0 % Test CRC 3E912A8D Copy CRC 3E912A8D Accurately ripped (confidence 3) [54B7CB7C] Copy OK

Track 4

Filename D:\My Music\FLAC WAVE\ADRIAN SHERWOOD RELATED\New Age Steppers - Action Battlefield\(04) My Love - New Age Steppers-1982.wav

Peak level 100.0 % Track quality 100.0 % Test CRC E8C743B7 Copy CRC E8C743B7 Accurately ripped (confidence 3) [05101AF3] Copy OK

Track 5

Filename D:\My Music\FLAC WAVE\ADRIAN SHERWOOD RELATED\New Age Steppers - Action Battlefield\(05) Problems - New Age Steppers-1982.wav

Pre-gap length 0:00:02.22

Peak level 100.0 % Track quality 100.0 % Test CRC E4CD6DE7 Copy CRC E4CD6DE7 Accurately ripped (confidence 3) [2AC4CBD9] Copy OK

Track 6

Filename D:\My Music\FLAC WAVE\ADRIAN SHERWOOD RELATED\New Age Steppers - Action Battlefield\(06) Nuclear Zulu - New Age Steppers-1982.wav

Peak level 86.9 % Track quality 100.0 % Test CRC 9E42E74E Copy CRC 9E42E74E Accurately ripped (confidence 3) [055BD198] Copy OK

Track 7

Filename D:\My Music\FLAC WAVE\ADRIAN SHERWOOD RELATED\New Age Steppers - Action Battlefield\(07) Guiding Star - New Age Steppers-1982.wav

Peak level 75.9 % Track quality 99.9 % Test CRC 4EB8358A Copy CRC 4EB8358A Accurately ripped (confidence 2) [35251571] Copy OK

All tracks accurately ripped

No errors occurred

End of status report
 
REM GENRE ReggaeREM DATE 1982REM DISCID 5E0A1907REM COMMENT "ExactAudioCopy v0.99pb5"FILE "(01) My Whole World - New Age Steppers-1982.wav" WAVE TRACK 01 AUDIO INDEX 01 00:00:00 TRACK 02 AUDIO INDEX 00 05:20:53FILE "(02) Observe Life - New Age Steppers-1982.wav" WAVE INDEX 01 00:00:00 TRACK 03 AUDIO INDEX 00 05:14:72FILE "(03) Got To Get Away - New Age Steppers-1982.wav" WAVE INDEX 01 00:00:00FILE "(04) My Love - New Age Steppers-1982.wav" WAVE TRACK 04 AUDIO INDEX 01 00:00:00 TRACK 05 AUDIO INDEX 00 07:02:28FILE "(05) Problems - New Age Steppers-1982.wav" WAVE INDEX 01 00:00:00FILE "(06) Nuclear Zulu - New Age Steppers-1982.wav" WAVE TRACK 06 AUDIO INDEX 01 00:00:00FILE "(07) Guiding Star - New Age Steppers-1982.wav" WAVE TRACK 07 AUDIO INDEX 01 00:00:00
Страна-производитель диска: Japan
Год издания диска: 2004
Издатель (лейбл): Beat Records
Номер по каталогу: BRC-96
Продолжительность: 52:05
Источник (релизер): What.CD (sarukichi)
Наличие сканов в содержимом раздачи: да
Треклист:
<ul type="1">
My Whole World [5:24]
Observe Life [5:17]
Got to Get Away [4:53]
My Love [7:04]
Problems [7:35]
Nuclear Zulu [6:24]
Guiding Star [6:30]
Wide World Version [3:56]
Unclear [5:02]
</ul>
+ Discogs Amazon MusicBrainz
 
X Lossless Decoder version 20110821 (136.1)

XLD extraction logfile from 2011-09-04 11:44:03 +0900

New Age Steppers / Action Battlefield (JAP)

Used drive : MATSHITA DVD-R UJ-867 (revision HA13)

Ripper mode : XLD Secure RipperDisable audio cache : OK for the drive with a cache less than 1375KiBMake use of C2 pointers : NORead offset correction : 102Max retry count : 100Gap status : Analyzed, Appended (except HTOA)

TOC of the extracted CD Track | Start | Length | Start sector | End sector --------------------------------------------------------- 1 | 00:00:00 | 05:23:52 | 0 | 24276 2 | 05:23:52 | 05:17:14 | 24277 | 48065 3 | 10:40:66 | 04:53:13 | 48066 | 70053 4 | 15:34:04 | 07:03:54 | 70054 | 101832 5 | 22:37:58 | 07:35:18 | 101833 | 135975 6 | 30:13:01 | 06:23:63 | 135976 | 164763 7 | 36:36:64 | 06:30:22 | 164764 | 194035 8 | 43:07:11 | 03:56:35 | 194036 | 211770 9 | 47:03:46 | 05:03:16 | 211771 | 234511

List of alternate offset correction values # | Absolute | Relative | Confidence ------------------------------------------ 1 | 108 | 6 | 1

AccurateRip Summary Track 01 : OK (AR2, confidence 1, with different offset) Track 02 : OK (AR2, confidence 1, with different offset) Track 03 : OK (AR2, confidence 1, with different offset) Track 04 : OK (AR2, confidence 1, with different offset) Track 05 : OK (AR2, confidence 1, with different offset) Track 06 : OK (AR2, confidence 1, with different offset) Track 07 : OK (AR2, confidence 1, with different offset) Track 08 : OK (AR2, confidence 1, with different offset) Track 09 : OK (AR2, confidence 1, with different offset) ->All tracks accurately ripped.

All Tracks Album gain : -8.64 dB Peak : 1.000000 Statistics Read error : 0 Jitter error (maybe fixed) : 0 Retry sector count : 0 Damaged sector count : 0

Track 01 Filename : /Volumes/giant baba/mp3 samples trax/mp3 stash/to seed/New Age Steppers - Action Battlefield (JAP) (2005) [FLAC]/01 My Whole World.flac Pre-gap length : 00:02:00

Track gain : -10.38 dB Peak : 0.998260 CRC32 hash (test run) : 15F34452 CRC32 hash : 15F34452 CRC32 hash (skip zero) : BD3B1F4C AccurateRip signature : 1F2C1188 ->Accurately ripped! (AR2, confidence 1) (matched with the different offset correction value; calculated using an additional offset of 6; the signature after correction is: 527348CD) Statistics Read error : 0 Jitter error (maybe fixed) : 0 Retry sector count : 0 Damaged sector count : 0

Track 02 Filename : /Volumes/giant baba/mp3 samples trax/mp3 stash/to seed/New Age Steppers - Action Battlefield (JAP) (2005) [FLAC]/02 Observe Life.flac Pre-gap length : 00:02:46

Track gain : -8.92 dB Peak : 0.998016 CRC32 hash (test run) : D12A40BD CRC32 hash : D12A40BD CRC32 hash (skip zero) : 846664FE AccurateRip signature : 7FC118C8 ->Accurately ripped! (AR2, confidence 1) (matched with the different offset correction value; calculated using an additional offset of 6; the signature after correction is: E2848BDB) Statistics Read error : 0 Jitter error (maybe fixed) : 0 Retry sector count : 0 Damaged sector count : 0

Track 03 Filename : /Volumes/giant baba/mp3 samples trax/mp3 stash/to seed/New Age Steppers - Action Battlefield (JAP) (2005) [FLAC]/03 Got To Get Away.flac Pre-gap length : 00:02:35

Track gain : -8.29 dB Peak : 0.999115 CRC32 hash (test run) : 12E87D9F CRC32 hash : 12E87D9F CRC32 hash (skip zero) : 9291D461 AccurateRip signature : A6971A22 ->Accurately ripped! (AR2, confidence 1) (matched with the different offset correction value; calculated using an additional offset of 6; the signature after correction is: B098A92E) Statistics Read error : 0 Jitter error (maybe fixed) : 0 Retry sector count : 0 Damaged sector count : 0

Track 04 Filename : /Volumes/giant baba/mp3 samples trax/mp3 stash/to seed/New Age Steppers - Action Battlefield (JAP) (2005) [FLAC]/04 My Love.flac Pre-gap length : 00:00:11

Track gain : -7.47 dB Peak : 1.000000 CRC32 hash (test run) : 20894C6B CRC32 hash : 20894C6B CRC32 hash (skip zero) : 5E38D733 AccurateRip signature : 778FD2CB ->Accurately ripped! (AR2, confidence 1) (matched with the different offset correction value; calculated using an additional offset of 6; the signature after correction is: DE8224F9) Statistics Read error : 0 Jitter error (maybe fixed) : 0 Retry sector count : 0 Damaged sector count : 0

Track 05 Filename : /Volumes/giant baba/mp3 samples trax/mp3 stash/to seed/New Age Steppers - Action Battlefield (JAP) (2005) [FLAC]/05 Problems.flac Pre-gap length : 00:01:57

Track gain : -7.88 dB Peak : 0.999359 CRC32 hash (test run) : 2CCB3ABC CRC32 hash : 2CCB3ABC CRC32 hash (skip zero) : B9A8B92A AccurateRip signature : A9704FC2 ->Accurately ripped! (AR2, confidence 1) (matched with the different offset correction value; calculated using an additional offset of 6; the signature after correction is: 11399DE5) Statistics Read error : 0 Jitter error (maybe fixed) : 0 Retry sector count : 0 Damaged sector count : 0

Track 06 Filename : /Volumes/giant baba/mp3 samples trax/mp3 stash/to seed/New Age Steppers - Action Battlefield (JAP) (2005) [FLAC]/06 Nuclear Zulu.flac

Track gain : -7.91 dB Peak : 0.997955 CRC32 hash (test run) : 21A2629F CRC32 hash : 21A2629F CRC32 hash (skip zero) : 2F9A0E0A AccurateRip signature : 41556416 ->Accurately ripped! (AR2, confidence 1) (matched with the different offset correction value; calculated using an additional offset of 6; the signature after correction is: B228E5EC) Statistics Read error : 0 Jitter error (maybe fixed) : 0 Retry sector count : 0 Damaged sector count : 0

Track 07 Filename : /Volumes/giant baba/mp3 samples trax/mp3 stash/to seed/New Age Steppers - Action Battlefield (JAP) (2005) [FLAC]/07 Guiding Star.flac

Track gain : -6.25 dB Peak : 0.996857 CRC32 hash (test run) : 8737ECAA CRC32 hash : 8737ECAA CRC32 hash (skip zero) : 8BAC3315 AccurateRip signature : B96EA432 ->Accurately ripped! (AR2, confidence 1) (matched with the different offset correction value; calculated using an additional offset of 6; the signature after correction is: 221BCA5C) Statistics Read error : 0 Jitter error (maybe fixed) : 0 Retry sector count : 0 Damaged sector count : 0

Track 08 Filename : /Volumes/giant baba/mp3 samples trax/mp3 stash/to seed/New Age Steppers - Action Battlefield (JAP) (2005) [FLAC]/08 Wide World Version.flac Pre-gap length : 00:01:57

Track gain : -10.06 dB Peak : 0.995392 CRC32 hash (test run) : DB700AF0 CRC32 hash : DB700AF0 CRC32 hash (skip zero) : 777916B7 AccurateRip signature : C6D464FD ->Accurately ripped! (AR2, confidence 1) (matched with the different offset correction value; calculated using an additional offset of 6; the signature after correction is: C7C91402) Statistics Read error : 0 Jitter error (maybe fixed) : 0 Retry sector count : 0 Damaged sector count : 0

Track 09 Filename : /Volumes/giant baba/mp3 samples trax/mp3 stash/to seed/New Age Steppers - Action Battlefield (JAP) (2005) [FLAC]/09 Unclear.flac Pre-gap length : 00:01:57

Track gain : -8.53 dB Peak : 0.996063 CRC32 hash (test run) : D04CA5E9 CRC32 hash : D04CA5E9 CRC32 hash (skip zero) : 07343CD9 AccurateRip signature : 7DF94710 ->Accurately ripped! (AR2, confidence 1) (matched with the different offset correction value; calculated using an additional offset of 6; the signature after correction is: C4F980AA) Statistics Read error : 0 Jitter error (maybe fixed) : 0 Retry sector count : 0 Damaged sector count : 0

No errors occurred

End of status report
 
TITLE "Action Battlefield (JAP)"PERFORMER "New Age Steppers"REM GENRE "Reggae"REM DATE "2005"REM DISCID 880C3609REM REPLAYGAIN_ALBUM_GAIN -8.64 dBREM REPLAYGAIN_ALBUM_PEAK 1.000000FILE "01 My Whole World.flac" WAVE TRACK 01 AUDIO TITLE "My Whole World" REM REPLAYGAIN_TRACK_GAIN -10.38 dB REM REPLAYGAIN_TRACK_PEAK 0.998260 INDEX 01 00:00:00 TRACK 02 AUDIO TITLE "Observe Life" REM REPLAYGAIN_TRACK_GAIN -8.92 dB REM REPLAYGAIN_TRACK_PEAK 0.998016 INDEX 00 05:21:06FILE "02 Observe Life.flac" WAVE INDEX 01 00:00:00 TRACK 03 AUDIO TITLE "Got To Get Away" REM REPLAYGAIN_TRACK_GAIN -8.29 dB REM REPLAYGAIN_TRACK_PEAK 0.999115 INDEX 00 05:14:54FILE "03 Got To Get Away.flac" WAVE INDEX 01 00:00:00 TRACK 04 AUDIO TITLE "My Love" REM REPLAYGAIN_TRACK_GAIN -7.47 dB REM REPLAYGAIN_TRACK_PEAK 1.000000 INDEX 00 04:53:02FILE "04 My Love.flac" WAVE INDEX 01 00:00:00 TRACK 05 AUDIO TITLE "Problems" REM REPLAYGAIN_TRACK_GAIN -7.88 dB REM REPLAYGAIN_TRACK_PEAK 0.999359 INDEX 00 07:01:72FILE "05 Problems.flac" WAVE INDEX 01 00:00:00FILE "06 Nuclear Zulu.flac" WAVE TRACK 06 AUDIO TITLE "Nuclear Zulu" REM REPLAYGAIN_TRACK_GAIN -7.91 dB REM REPLAYGAIN_TRACK_PEAK 0.997955 INDEX 01 00:00:00FILE "07 Guiding Star.flac" WAVE TRACK 07 AUDIO TITLE "Guiding Star" REM REPLAYGAIN_TRACK_GAIN -6.25 dB REM REPLAYGAIN_TRACK_PEAK 0.996857 INDEX 01 00:00:00 TRACK 08 AUDIO TITLE "Wide World Version" REM REPLAYGAIN_TRACK_GAIN -10.06 dB REM REPLAYGAIN_TRACK_PEAK 0.995392 INDEX 00 06:28:40FILE "08 Wide World Version.flac" WAVE INDEX 01 00:00:00 TRACK 09 AUDIO TITLE "Unclear" REM REPLAYGAIN_TRACK_GAIN -8.53 dB REM REPLAYGAIN_TRACK_PEAK 0.996063 INDEX 00 03:54:53FILE "09 Unclear.flac" WAVE INDEX 01 00:00:00
Last.fm Wikipedia Discogs Amazon MusicBrainz

Трекер:  [ 03-Фев-2012 01:16 ]

  

Скачать .torrent

Размер .torrent файла 85 KB


Размер: 1020 MB
Хэш (hash) релиза: f75d4b081a6dfa9c09c228269c20fc34a6b3e9fc

Еще никто не оставлял запись к записи скачать торрент New Age Steppers - Коллекция . Будь первым!

!Обратная связь