Download | Applications | Çok Çok

Скачать через торрент музыку VA - The Biggest Reggae One-Drop Anthems 2011 - 2011, FLAC бесплатно без регистрации torrent

Статистика раздачи
Размер:  446 MB   |    Зарегистрирован:  6 лет 5 месяцев   |    .torrent скачан:  35 раз   |   
Раздают:  1  
   
загрузка...
 
Автор Сообщение

Galfimbul

avatar Galfimbul


The Biggest Reggae One-Drop Anthems 2011

Жанр: Reggae / Dancehall
Страна-производитель диска: UK
Год издания диска: 2011
Издатель (лейбл): Greensleeves Records
Номер по каталогу: VPGSCD5203
Страна: United Kingdom
Аудиокодек: FLAC (*.flac)
Тип рипа: tracks+.cue
Битрейт аудио: lossless
Продолжительность: 1:05:05
Источник (релизер): What.CD (downtowndbrown)
Наличие сканов в содержимом раздачи: нет
Треклист:

Midnite - How to Answa [3:18]
J.O.E - Rasta Chant [3:15]
I Wayne - Real and Clean [4:12]
Copper Cat - Since You Came In [3:41]
Esco Levi - Bleaching Shop [3:35]
Tony Rebel - I Can't Recall [4:32]
Romain Virgo - I Am Rich in Love [3:46]
Bunny Lee - Cow Shit Splash (The Origin of the One) [1:50]
Gappy Ranks - Put the Stereo On [3:14]
Gyptian - Where You Belong (feat. Dean Fraser) [5:30]
Busy Signal - Tempted to Touch [4:04]
Romain Virgo - Wha This Pon Mi [4:11]
Vybz Kartel - Spend Time Dubb'n [4:52]
The Green - Alone [3:34]
Gentleman - Changes [3:22]
Queen Ifrica - It Hard [3:38]
Alborosie - International Drama (feat. Giuseppe Tarantino) [4:31]

+ Amazon MusicBrainz
 
X Lossless Decoder version 20110821 (136.1)

XLD extraction logfile from 2011-09-07 22:57:24 -0700

Various Artists / The Biggest Reggae One Drop Anthems 2011

Used drive : MATSHITA DVD-R UJ-898 (revision HC10)

Ripper mode : XLD Secure RipperDisable audio cache : OK for the drive with a cache less than 1375KiBMake use of C2 pointers : NORead offset correction : 102Max retry count : 100Gap status : Analyzed, Appended

TOC of the extracted CD Track | Start | Length | Start sector | End sector --------------------------------------------------------- 1 | 00:00:00 | 03:17:54 | 0 | 14828 2 | 03:17:54 | 03:14:40 | 14829 | 29418 3 | 06:32:19 | 04:12:33 | 29419 | 48351 4 | 10:44:52 | 03:40:38 | 48352 | 64889 5 | 14:25:15 | 03:35:18 | 64890 | 81032 6 | 18:00:33 | 04:31:42 | 81033 | 101399 7 | 22:32:00 | 03:46:35 | 101400 | 118384 8 | 26:18:35 | 01:49:56 | 118385 | 126615 9 | 28:08:16 | 03:13:61 | 126616 | 141151 10 | 31:22:02 | 05:29:65 | 141152 | 165891 11 | 36:51:67 | 04:04:27 | 165892 | 184218 12 | 40:56:19 | 04:11:14 | 184219 | 203057 13 | 45:07:33 | 04:52:10 | 203058 | 224967 14 | 49:59:43 | 03:34:26 | 224968 | 241043 15 | 53:33:69 | 03:21:64 | 241044 | 256182 16 | 56:55:58 | 03:37:71 | 256183 | 272528 17 | 60:33:54 | 04:31:00 | 272529 | 292853

AccurateRip Summary Disc not found in AccurateRip DB.

All Tracks Album gain : -8.64 dB Peak : 1.000000 Statistics Read error : 0 Jitter error (maybe fixed) : 0 Retry sector count : 0 Damaged sector count : 0

Track 01 Filename : /Users/dustybrown/Ripping/Music/Compilations - The Biggest Reggae One Drop Anthems 2011 [FLAC] 2011/Midnite - 01 - How To Answa.flac Pre-gap length : 00:02:00

Track gain : -2.16 dB Peak : 0.977661 CRC32 hash (test run) : 8B50FDBD CRC32 hash : 8B50FDBD CRC32 hash (skip zero) : 2D6856C4 AccurateRip signature : 99711900 ->Track not present in AccurateRip database. Statistics Read error : 0 Jitter error (maybe fixed) : 0 Retry sector count : 0 Damaged sector count : 0

Track 02 Filename : /Users/dustybrown/Ripping/Music/Compilations - The Biggest Reggae One Drop Anthems 2011 [FLAC] 2011/J/O - 02 - Rasta Chant.flac

Track gain : -9.11 dB Peak : 1.000000 CRC32 hash (test run) : 646357B4 CRC32 hash : 646357B4 CRC32 hash (skip zero) : BE28E082 AccurateRip signature : 800BB464 ->Track not present in AccurateRip database. Statistics Read error : 0 Jitter error (maybe fixed) : 0 Retry sector count : 0 Damaged sector count : 0

Track 03 Filename : /Users/dustybrown/Ripping/Music/Compilations - The Biggest Reggae One Drop Anthems 2011 [FLAC] 2011/I Wayne - 03 - Real and Clean.flac

Track gain : -9.80 dB Peak : 1.000000 CRC32 hash (test run) : 6F378E2A CRC32 hash : 6F378E2A CRC32 hash (skip zero) : 364F26E7 AccurateRip signature : FBD35F35 ->Track not present in AccurateRip database. Statistics Read error : 0 Jitter error (maybe fixed) : 0 Retry sector count : 0 Damaged sector count : 0

Track 04 Filename : /Users/dustybrown/Ripping/Music/Compilations - The Biggest Reggae One Drop Anthems 2011 [FLAC] 2011/Copper Cat - 04 - Since You Came In.flac

Track gain : -9.50 dB Peak : 1.000000 CRC32 hash (test run) : BD6C6F59 CRC32 hash : BD6C6F59 CRC32 hash (skip zero) : 2B7D29B4 AccurateRip signature : 7BC49291 ->Track not present in AccurateRip database. Statistics Read error : 0 Jitter error (maybe fixed) : 0 Retry sector count : 0 Damaged sector count : 0

Track 05 Filename : /Users/dustybrown/Ripping/Music/Compilations - The Biggest Reggae One Drop Anthems 2011 [FLAC] 2011/Esco Levi - 05 - Bleaching Shop.flac

Track gain : -6.65 dB Peak : 1.000000 CRC32 hash (test run) : 4440D1E2 CRC32 hash : 4440D1E2 CRC32 hash (skip zero) : 25159D53 AccurateRip signature : E6D5AE19 ->Track not present in AccurateRip database. Statistics Read error : 0 Jitter error (maybe fixed) : 0 Retry sector count : 0 Damaged sector count : 0

Track 06 Filename : /Users/dustybrown/Ripping/Music/Compilations - The Biggest Reggae One Drop Anthems 2011 [FLAC] 2011/Tony Rebel - 06 - I Can't Recall.flac

Track gain : -8.10 dB Peak : 1.000000 CRC32 hash (test run) : 1A15F34A CRC32 hash : 1A15F34A CRC32 hash (skip zero) : 63764907 AccurateRip signature : BFA38F97 ->Track not present in AccurateRip database. Statistics Read error : 0 Jitter error (maybe fixed) : 0 Retry sector count : 0 Damaged sector count : 0

Track 07 Filename : /Users/dustybrown/Ripping/Music/Compilations - The Biggest Reggae One Drop Anthems 2011 [FLAC] 2011/Romain Virgo - 07 - I Am Rich In Love.flac

Track gain : -7.47 dB Peak : 1.000000 CRC32 hash (test run) : 2A6244D2 CRC32 hash : 2A6244D2 CRC32 hash (skip zero) : 6E57EC46 AccurateRip signature : 2E1509E7 ->Track not present in AccurateRip database. Statistics Read error : 0 Jitter error (maybe fixed) : 0 Retry sector count : 0 Damaged sector count : 0

Track 08 Filename : /Users/dustybrown/Ripping/Music/Compilations - The Biggest Reggae One Drop Anthems 2011 [FLAC] 2011/Bunny Lee - 08 - Cow Shit Splash [The Origin of the One Drop] Skit.flac

Track gain : -7.05 dB Peak : 1.000000 CRC32 hash (test run) : 6C65AF51 CRC32 hash : 6C65AF51 CRC32 hash (skip zero) : 591B763B AccurateRip signature : B88ABEE6 ->Track not present in AccurateRip database. Statistics Read error : 0 Jitter error (maybe fixed) : 0 Retry sector count : 0 Damaged sector count : 0

Track 09 Filename : /Users/dustybrown/Ripping/Music/Compilations - The Biggest Reggae One Drop Anthems 2011 [FLAC] 2011/Gappy Ranks - 09 - Put The Stereo On.flac

Track gain : -8.65 dB Peak : 0.980042 CRC32 hash (test run) : 0FB621E0 CRC32 hash : 0FB621E0 CRC32 hash (skip zero) : AB8CF599 AccurateRip signature : 87EDAB55 ->Track not present in AccurateRip database. Statistics Read error : 0 Jitter error (maybe fixed) : 0 Retry sector count : 0 Damaged sector count : 0

Track 10 Filename : /Users/dustybrown/Ripping/Music/Compilations - The Biggest Reggae One Drop Anthems 2011 [FLAC] 2011/Gyptian - 10 - Where You Belong.flac

Track gain : -9.93 dB Peak : 0.984589 CRC32 hash (test run) : 49368042 CRC32 hash : 49368042 CRC32 hash (skip zero) : AA4CDCF2 AccurateRip signature : 5B689D3B ->Track not present in AccurateRip database. Statistics Read error : 0 Jitter error (maybe fixed) : 0 Retry sector count : 0 Damaged sector count : 0

Track 11 Filename : /Users/dustybrown/Ripping/Music/Compilations - The Biggest Reggae One Drop Anthems 2011 [FLAC] 2011/Busy Signal - 11 - Tempted To Touch.flac

Track gain : -8.86 dB Peak : 0.999847 CRC32 hash (test run) : C4FEDA19 CRC32 hash : C4FEDA19 CRC32 hash (skip zero) : 5AC51D83 AccurateRip signature : FB22D0FE ->Track not present in AccurateRip database. Statistics Read error : 0 Jitter error (maybe fixed) : 0 Retry sector count : 0 Damaged sector count : 0

Track 12 Filename : /Users/dustybrown/Ripping/Music/Compilations - The Biggest Reggae One Drop Anthems 2011 [FLAC] 2011/Romain Virgo - 12 - Wha This Pon Me.flac

Track gain : -9.24 dB Peak : 1.000000 CRC32 hash (test run) : AFFAE9D4 CRC32 hash : AFFAE9D4 CRC32 hash (skip zero) : 7C645B56 AccurateRip signature : BC95FED5 ->Track not present in AccurateRip database. Statistics Read error : 0 Jitter error (maybe fixed) : 0 Retry sector count : 0 Damaged sector count : 0

Track 13 Filename : /Users/dustybrown/Ripping/Music/Compilations - The Biggest Reggae One Drop Anthems 2011 [FLAC] 2011/Vybz Kartel - 13 - Spend Time Dubb'n.flac

Track gain : -7.26 dB Peak : 1.000000 CRC32 hash (test run) : 716F6343 CRC32 hash : 716F6343 CRC32 hash (skip zero) : 569E586A AccurateRip signature : 382441EE ->Track not present in AccurateRip database. Statistics Read error : 0 Jitter error (maybe fixed) : 0 Retry sector count : 0 Damaged sector count : 0

Track 14 Filename : /Users/dustybrown/Ripping/Music/Compilations - The Biggest Reggae One Drop Anthems 2011 [FLAC] 2011/Green - 14 - Alone.flac

Track gain : -6.11 dB Peak : 1.000000 CRC32 hash (test run) : 20D266D0 CRC32 hash : 20D266D0 CRC32 hash (skip zero) : 0F8D4910 AccurateRip signature : B03533D1 ->Track not present in AccurateRip database. Statistics Read error : 0 Jitter error (maybe fixed) : 0 Retry sector count : 0 Damaged sector count : 0

Track 15 Filename : /Users/dustybrown/Ripping/Music/Compilations - The Biggest Reggae One Drop Anthems 2011 [FLAC] 2011/Gentleman - 15 - Changes.flac

Track gain : -8.89 dB Peak : 1.000000 CRC32 hash (test run) : 74758054 CRC32 hash : 74758054 CRC32 hash (skip zero) : 5A5D86C7 AccurateRip signature : 56FC28E7 ->Track not present in AccurateRip database. Statistics Read error : 0 Jitter error (maybe fixed) : 0 Retry sector count : 0 Damaged sector count : 0

Track 16 Filename : /Users/dustybrown/Ripping/Music/Compilations - The Biggest Reggae One Drop Anthems 2011 [FLAC] 2011/Queen Ifrica - 16 - It Hard.flac

Track gain : -7.99 dB Peak : 1.000000 CRC32 hash (test run) : 40BB7833 CRC32 hash : 40BB7833 CRC32 hash (skip zero) : 8A8874F7 AccurateRip signature : F5BC6622 ->Track not present in AccurateRip database. Statistics Read error : 0 Jitter error (maybe fixed) : 0 Retry sector count : 0 Damaged sector count : 0

Track 17 Filename : /Users/dustybrown/Ripping/Music/Compilations - The Biggest Reggae One Drop Anthems 2011 [FLAC] 2011/Alborosie - 17 - International Drama (Featuring Giuseppe Tarantino).flac

Track gain : -6.91 dB Peak : 0.980103 CRC32 hash (test run) : 2AAB3FC9 CRC32 hash : 2AAB3FC9 CRC32 hash (skip zero) : B89B7920 AccurateRip signature : 19E85EBE ->Track not present in AccurateRip database. Statistics Read error : 0 Jitter error (maybe fixed) : 0 Retry sector count : 0 Damaged sector count : 0

No errors occurred

End of status report
 
TITLE "The Biggest Reggae One Drop Anthems 2011"REM GENRE "Reggae"REM DATE "2011"REM DISCNUMBER 1REM TOTALDISCS 1REM DISCID F10F4011REM REPLAYGAIN_ALBUM_GAIN -8.64 dBREM REPLAYGAIN_ALBUM_PEAK 1.000000FILE "Midnite - 01 - How To Answa.flac" WAVE TRACK 01 AUDIO TITLE "How To Answa" PERFORMER "Midnite" SONGWRITER "Vaughn Benjamin/Gaymian Orlando Bonitto" ISRC USVPR1100246 REM REPLAYGAIN_TRACK_GAIN -2.16 dB REM REPLAYGAIN_TRACK_PEAK 0.977661 INDEX 01 00:00:00FILE "J/O - 02 - Rasta Chant.flac" WAVE TRACK 02 AUDIO TITLE "Rasta Chant" PERFORMER "J/O" SONGWRITER "Alty Nunes/Roshaun Clarke" ISRC USVPR1100247 REM REPLAYGAIN_TRACK_GAIN -9.11 dB REM REPLAYGAIN_TRACK_PEAK 1.000000 INDEX 01 00:00:00FILE "I Wayne - 03 - Real and Clean.flac" WAVE TRACK 03 AUDIO TITLE "Real and Clean" PERFORMER "I Wayne" SONGWRITER "Cliffroy Taylor" ISRC USVPR1100248 REM REPLAYGAIN_TRACK_GAIN -9.80 dB REM REPLAYGAIN_TRACK_PEAK 1.000000 INDEX 01 00:00:00FILE "Copper Cat - 04 - Since You Came In.flac" WAVE TRACK 04 AUDIO TITLE "Since You Came In" PERFORMER "Copper Cat" SONGWRITER "WayneFord Levy/Donovan Germain/Bunny Anne Fletcher" ISRC USVPR1100249 REM REPLAYGAIN_TRACK_GAIN -9.50 dB REM REPLAYGAIN_TRACK_PEAK 1.000000 INDEX 01 00:00:00FILE "Esco Levi - 05 - Bleaching Shop.flac" WAVE TRACK 05 AUDIO TITLE "Bleaching Shop" PERFORMER "Esco Levi" SONGWRITER "WayneFord Levy/Donovan Germain/Bunny Anne Fletcher" ISRC USVPR1100250 REM REPLAYGAIN_TRACK_GAIN -6.65 dB REM REPLAYGAIN_TRACK_PEAK 1.000000 INDEX 01 00:00:00FILE "Tony Rebel - 06 - I Can't Recall.flac" WAVE TRACK 06 AUDIO TITLE "I Can't Recall" PERFORMER "Tony Rebel" SONGWRITER "Aeion Hoilett/Patrick Barret/Donovan Germain" ISRC USVPR1100251 REM REPLAYGAIN_TRACK_GAIN -8.10 dB REM REPLAYGAIN_TRACK_PEAK 1.000000 INDEX 01 00:00:00FILE "Romain Virgo - 07 - I Am Rich In Love.flac" WAVE TRACK 07 AUDIO TITLE "I Am Rich In Love" PERFORMER "Romain Virgo" SONGWRITER "Chad Simpson/Danny Brownie!/Nicholas Browne" ISRC USVPR1100252 REM REPLAYGAIN_TRACK_GAIN -7.47 dB REM REPLAYGAIN_TRACK_PEAK 1.000000 INDEX 01 00:00:00FILE "Bunny Lee - 08 - Cow Shit Splash [The Origin of the One Drop] Skit.flac" WAVE TRACK 08 AUDIO TITLE "Cow Shit Splash [The Origin of the One Drop] Skit" PERFORMER "Bunny Lee" ISRC USVPR1100253 REM REPLAYGAIN_TRACK_GAIN -7.05 dB REM REPLAYGAIN_TRACK_PEAK 1.000000 INDEX 01 00:00:00FILE "Gappy Ranks - 09 - Put The Stereo On.flac" WAVE TRACK 09 AUDIO TITLE "Put The Stereo On" PERFORMER "Gappy Ranks" SONGWRITER "Clement Dodd/Jacob Williams" ISRC USVPR1100254 REM REPLAYGAIN_TRACK_GAIN -8.65 dB REM REPLAYGAIN_TRACK_PEAK 0.980042 INDEX 01 00:00:00FILE "Gyptian - 10 - Where You Belong.flac" WAVE TRACK 10 AUDIO TITLE "Where You Belong" PERFORMER "Gyptian" SONGWRITER "Windel Edwards/Nkrumah Thomas" ISRC USVPR0910211 REM REPLAYGAIN_TRACK_GAIN -9.93 dB REM REPLAYGAIN_TRACK_PEAK 0.984589 INDEX 01 00:00:00FILE "Busy Signal - 11 - Tempted To Touch.flac" WAVE TRACK 11 AUDIO TITLE "Tempted To Touch" PERFORMER "Busy Signal" SONGWRITER "Clement Dodd/Hugh Hammond" ISRC USVPR1100255 REM REPLAYGAIN_TRACK_GAIN -8.86 dB REM REPLAYGAIN_TRACK_PEAK 0.999847 INDEX 01 00:00:00FILE "Romain Virgo - 12 - Wha This Pon Me.flac" WAVE TRACK 12 AUDIO TITLE "Wha This Pon Me" PERFORMER "Romain Virgo" SONGWRITER "Romain Virgo" ISRC USVPR1100256 REM REPLAYGAIN_TRACK_GAIN -9.24 dB REM REPLAYGAIN_TRACK_PEAK 1.000000 INDEX 01 00:00:00FILE "Vybz Kartel - 13 - Spend Time Dubb'n.flac" WAVE TRACK 13 AUDIO TITLE "Spend Time Dubb'n" PERFORMER "Vybz Kartel" SONGWRITER "John Crawford/Adidja Palmer" ISRC USVPR1100257 REM REPLAYGAIN_TRACK_GAIN -7.26 dB REM REPLAYGAIN_TRACK_PEAK 1.000000 INDEX 01 00:00:00FILE "Green - 14 - Alone.flac" WAVE TRACK 14 AUDIO TITLE "Alone" PERFORMER "Green" SONGWRITER "John Pa Kennedy/Caleb Keolanui" ISRC USVPR1100258 REM REPLAYGAIN_TRACK_GAIN -6.11 dB REM REPLAYGAIN_TRACK_PEAK 1.000000 INDEX 01 00:00:00FILE "Gentleman - 15 - Changes.flac" WAVE TRACK 15 AUDIO TITLE "Changes" PERFORMER "Gentleman" SONGWRITER "Balfour Bailey/Donovan Bennett/Otto, Tilmann" ISRC USVPR1100259 REM REPLAYGAIN_TRACK_GAIN -8.89 dB REM REPLAYGAIN_TRACK_PEAK 1.000000 INDEX 01 00:00:00FILE "Queen Ifrica - 16 - It Hard.flac" WAVE TRACK 16 AUDIO TITLE "It Hard" PERFORMER "Queen Ifrica" SONGWRITER "Shane Brown/Ventrice Morgan" ISRC USVPR1100260 REM REPLAYGAIN_TRACK_GAIN -7.99 dB REM REPLAYGAIN_TRACK_PEAK 1.000000 INDEX 01 00:00:00FILE "Alborosie - 17 - International Drama (Featuring Giuseppe Tarantino).flac" WAVE TRACK 17 AUDIO TITLE "International Drama (Featuring Giuseppe Tarantino)" PERFORMER "Alborosie" SONGWRITER "Giorgio Consolini/Clifton Dillon/Albert D'Ascola" ISRC USVPR1100261 REM REPLAYGAIN_TRACK_GAIN -6.91 dB REM REPLAYGAIN_TRACK_PEAK 0.980103 INDEX 01 00:00:00


Трекер:  [ 03-Фев-2012 01:16 ]

  

Скачать .torrent

Размер .torrent файла 36 KB


Размер: 446 MB
Хэш (hash) релиза: 6c7b1724d563929b7083e84786ffb78c872c3889

Еще никто не оставлял запись к записи скачать торрент VA - The Biggest Reggae One-Drop Anthems 2011 - 2011, FLAC . Будь первым!

!Обратная связь