Acid-Lounge | AL | General | 2018 Review | You raise me up | The Guest Book

Скачать через торрент музыку Serge Gainsbourg - Aux armes et caetera {cætera} {1997 Remaster} - 1979, FLAC бесплатно без регистрации torrent

Статистика раздачи
Размер:  184 MB   |    Зарегистрирован:  6 лет 5 месяцев   |    .torrent скачан:  30 раз   |   
Раздают:  1  
   
загрузка...
 
Автор Сообщение

Galfimbul

avatar Galfimbul


Serge Gainsbourg / Aux armes et caetera

Жанр: Reggae / Dub Poetry / Chanson
Страна-производитель диска: France
Год издания диска: 1997 (1979)
Издатель (лейбл): Mercury
Номер по каталогу: 548 433-2
Страна: France
Аудиокодек: FLAC (*.flac)
Тип рипа: tracks+.cue
Битрейт аудио: lossless
Продолжительность: 33m
Источник (релизер): wata
Наличие сканов в содержимом раздачи: нет
Треклист:
1 Javanaise Remake
2 Aux Armes Et Caetera
3 Les Locataires
4 Des Laids Des Laids
5 Brigade Des Stups
6 Vieille Canaille
7 Lola Rastaquouère
8 Relax Baby Be Cool
9 Daisy Temple
10 Eau Et Gaz à Tous Les étages
11 Pas Long Feu
12 Marilou Reggae Dub

Cерж Гинзбург выходец из семьи русских евреев эмигрировавших в Париж из Одессы в начале красного террора. Худодник, поэт, композитор, певец и актер.

Ямайская музыка, это такая штука, услышав которую только абсолютно непробиваемо-бессердечный человек сможет не полюбть ее. Периодически многие известные музыканты, однажды столкнувшись с ней (ямайской музыкой) не могут просто пройти мимо и на свет выходят подобные "опусы"
 
Exact Audio Copy V0.99 prebeta 5 from 4. May 2009

EAC extraction logfile from 16. November 2010, 14:26

Serge Gainsbourg / Aux armes et caetera

Used drive : SONY DVD-ROM DDU1615 Adapter: 0 ID: 2

Read mode : SecureUtilize accurate stream : YesDefeat audio cache : YesMake use of C2 pointers : No

Read offset correction : 6Overread into Lead-In and Lead-Out : NoFill up missing offset samples with silence : YesDelete leading and trailing silent blocks : NoNull samples used in CRC calculations : YesUsed interface : Installed external ASPI interfaceGap handling : Appended to previous track

Used output format : User Defined EncoderSelected bitrate : 192 kBit/sQuality : HighAdd ID3 tag : NoCommand line compressor : C:\Program Files\Exact Audio Copy\Flac\flac.exeAdditional command line options : -8 -A tukey(0.25) -A gauss(0.1875) -b 4096 -V -T "artist=%a" -T "title=%t" -T "album=%g" -T "date=%y" -T "tracknumber=%n" -T "genre=%m" %s

TOC of the extracted CD

Track | Start | Length | Start sector | End sector --------------------------------------------------------- 1 | 0:00.00 | 3:08.50 | 0 | 14149 2 | 3:08.50 | 3:06.10 | 14150 | 28109 3 | 6:14.60 | 2:10.50 | 28110 | 37909 4 | 8:25.35 | 2:36.72 | 37910 | 49681 5 | 11:02.32 | 1:58.13 | 49682 | 58544 6 | 13:00.45 | 3:02.35 | 58545 | 72229 7 | 16:03.05 | 3:41.72 | 72230 | 88876 8 | 19:45.02 | 2:31.05 | 88877 | 100206 9 | 22:16.07 | 3:55.08 | 100207 | 117839 10 | 26:11.15 | 0:36.70 | 117840 | 120609 11 | 26:48.10 | 2:37.45 | 120610 | 132429 12 | 29:25.55 | 3:48.72 | 132430 | 149601

Track 1

Filename F:\! FLAC\Singer Songwriter\Gainsbourg, Serge - Aux armes et caetera [FLAC]\Serge Gainsbourg - Aux armes et caetera - 01 - Javanaise remake.wav

Pre-gap length 0:00:02.00

Peak level 100.0 % Track quality 100.0 % Test CRC 74A05AB3 Copy CRC 74A05AB3 Accurately ripped (confidence 5) [E5EA54F6] Copy OK

Track 2

Filename F:\! FLAC\Singer Songwriter\Gainsbourg, Serge - Aux armes et caetera [FLAC]\Serge Gainsbourg - Aux armes et caetera - 02 - Aux armes et caetera.wav

Peak level 97.7 % Track quality 100.0 % Test CRC C9B9A97B Copy CRC C9B9A97B Accurately ripped (confidence 5) [35FE7490] Copy OK

Track 3

Filename F:\! FLAC\Singer Songwriter\Gainsbourg, Serge - Aux armes et caetera [FLAC]\Serge Gainsbourg - Aux armes et caetera - 03 - Les Locataires.wav

Peak level 100.0 % Track quality 100.0 % Test CRC 7476FCF7 Copy CRC 7476FCF7 Accurately ripped (confidence 5) [F76EBF0C] Copy OK

Track 4

Filename F:\! FLAC\Singer Songwriter\Gainsbourg, Serge - Aux armes et caetera [FLAC]\Serge Gainsbourg - Aux armes et caetera - 04 - Des laids des laids.wav

Peak level 100.0 % Track quality 100.0 % Test CRC F97C053B Copy CRC F97C053B Accurately ripped (confidence 5) [24E6731D] Copy OK

Track 5

Filename F:\! FLAC\Singer Songwriter\Gainsbourg, Serge - Aux armes et caetera [FLAC]\Serge Gainsbourg - Aux armes et caetera - 05 - Brigade des stups.wav

Peak level 100.0 % Track quality 100.0 % Test CRC 2239FD3D Copy CRC 2239FD3D Accurately ripped (confidence 5) [8B5B9EE6] Copy OK

Track 6

Filename F:\! FLAC\Singer Songwriter\Gainsbourg, Serge - Aux armes et caetera [FLAC]\Serge Gainsbourg - Aux armes et caetera - 06 - Vieille canaille.wav

Peak level 100.0 % Track quality 100.0 % Test CRC 9BFFEEAE Copy CRC 9BFFEEAE Accurately ripped (confidence 5) [DFF5627E] Copy OK

Track 7

Filename F:\! FLAC\Singer Songwriter\Gainsbourg, Serge - Aux armes et caetera [FLAC]\Serge Gainsbourg - Aux armes et caetera - 07 - Lola Rastaquouиre.wav

Peak level 100.0 % Track quality 100.0 % Test CRC 2386B042 Copy CRC 2386B042 Accurately ripped (confidence 5) [DB674D4E] Copy OK

Track 8

Filename F:\! FLAC\Singer Songwriter\Gainsbourg, Serge - Aux armes et caetera [FLAC]\Serge Gainsbourg - Aux armes et caetera - 08 - Relax baby be cool.wav

Peak level 100.0 % Track quality 99.9 % Test CRC C85E9E6D Copy CRC C85E9E6D Accurately ripped (confidence 5) [CE6EE98A] Copy OK

Track 9

Filename F:\! FLAC\Singer Songwriter\Gainsbourg, Serge - Aux armes et caetera [FLAC]\Serge Gainsbourg - Aux armes et caetera - 09 - Daisy temple.wav

Pre-gap length 0:00:01.33

Peak level 99.8 % Track quality 99.9 % Test CRC AD9B48B2 Copy CRC AD9B48B2 Accurately ripped (confidence 5) [51A1AD0F] Copy OK

Track 10

Filename F:\! FLAC\Singer Songwriter\Gainsbourg, Serge - Aux armes et caetera [FLAC]\Serge Gainsbourg - Aux armes et caetera - 10 - Eau et gaz а tous les йtages.wav

Peak level 100.0 % Track quality 100.0 % Test CRC 2072D089 Copy CRC 2072D089 Accurately ripped (confidence 5) [BABEDD04] Copy OK

Track 11

Filename F:\! FLAC\Singer Songwriter\Gainsbourg, Serge - Aux armes et caetera [FLAC]\Serge Gainsbourg - Aux armes et caetera - 11 - Pas long feu.wav

Peak level 100.0 % Track quality 100.0 % Test CRC 92F478C7 Copy CRC 92F478C7 Accurately ripped (confidence 5) [48E54E30] Copy OK

Track 12

Filename F:\! FLAC\Singer Songwriter\Gainsbourg, Serge - Aux armes et caetera [FLAC]\Serge Gainsbourg - Aux armes et caetera - 12 - Marilou reggae dub.wav

Peak level 100.0 % Track quality 100.0 % Test CRC D21C45C6 Copy CRC D21C45C6 Accurately ripped (confidence 5) [96B620F7] Copy OK

All tracks accurately ripped

No errors occurred

End of status report
 
REM GENRE ChansonREM DATE 1979REM DISCID AA07CA0CREM COMMENT "ExactAudioCopy v0.99pb5"PERFORMER "Serge Gainsbourg"TITLE "Aux armes et caetera"FILE "Serge Gainsbourg - Aux armes et caetera - 01 - Javanaise remake.wav" WAVE TRACK 01 AUDIO TITLE "Javanaise remake" PERFORMER "Serge Gainsbourg" INDEX 01 00:00:00FILE "Serge Gainsbourg - Aux armes et caetera - 02 - Aux armes et caetera.wav" WAVE TRACK 02 AUDIO TITLE "Aux armes et caetera" PERFORMER "Serge Gainsbourg" INDEX 01 00:00:00FILE "Serge Gainsbourg - Aux armes et caetera - 03 - Les Locataires.wav" WAVE TRACK 03 AUDIO TITLE "Les Locataires" PERFORMER "Serge Gainsbourg" INDEX 01 00:00:00FILE "Serge Gainsbourg - Aux armes et caetera - 04 - Des laids des laids.wav" WAVE TRACK 04 AUDIO TITLE "Des laids des laids" PERFORMER "Serge Gainsbourg" INDEX 01 00:00:00FILE "Serge Gainsbourg - Aux armes et caetera - 05 - Brigade des stups.wav" WAVE TRACK 05 AUDIO TITLE "Brigade des stups" PERFORMER "Serge Gainsbourg" INDEX 01 00:00:00FILE "Serge Gainsbourg - Aux armes et caetera - 06 - Vieille canaille.wav" WAVE TRACK 06 AUDIO TITLE "Vieille canaille" PERFORMER "Serge Gainsbourg" INDEX 01 00:00:00FILE "Serge Gainsbourg - Aux armes et caetera - 07 - Lola Rastaquouиre.wav" WAVE TRACK 07 AUDIO TITLE "Lola Rastaquouиre" PERFORMER "Serge Gainsbourg" INDEX 01 00:00:00FILE "Serge Gainsbourg - Aux armes et caetera - 08 - Relax baby be cool.wav" WAVE TRACK 08 AUDIO TITLE "Relax baby be cool" PERFORMER "Serge Gainsbourg" INDEX 01 00:00:00 TRACK 09 AUDIO TITLE "Daisy temple" PERFORMER "Serge Gainsbourg" INDEX 00 02:29:55FILE "Serge Gainsbourg - Aux armes et caetera - 09 - Daisy temple.wav" WAVE INDEX 01 00:00:00FILE "Serge Gainsbourg - Aux armes et caetera - 10 - Eau et gaz а tous les йtages.wav" WAVE TRACK 10 AUDIO TITLE "Eau et gaz а tous les йtages" PERFORMER "Serge Gainsbourg" INDEX 01 00:00:00FILE "Serge Gainsbourg - Aux armes et caetera - 11 - Pas long feu.wav" WAVE TRACK 11 AUDIO TITLE "Pas long feu" PERFORMER "Serge Gainsbourg" INDEX 01 00:00:00FILE "Serge Gainsbourg - Aux armes et caetera - 12 - Marilou reggae dub.wav" WAVE TRACK 12 AUDIO TITLE "Marilou reggae dub" PERFORMER "Serge Gainsbourg" INDEX 01 00:00:00


Трекер:  [ 03-Фев-2012 01:15 ]

  

Скачать .torrent

Размер .torrent файла 16 KB


Размер: 184 MB
Хэш (hash) релиза: 21b6744c589470911b0adbc1a232639e5c69eae0

Еще никто не оставлял запись к записи скачать торрент Serge Gainsbourg - Aux armes et caetera {cætera} {1997 Remaster} - 1979, FLAC . Будь первым!

!Обратная связь