Céto cuisine | Jeff Daniels | Los Objetos Amorosos BluRay MicroHD

Скачать через торрент музыку Winston McAnuff - Дискография бесплатно без регистрации torrent

Статистика раздачи
Размер:  1.63 GB   |    Зарегистрирован:  6 лет 5 месяцев   |    .torrent скачан:  49 раз   |   
Раздают:  1  
   
загрузка...
 
Автор Сообщение

Galfimbul

avatar Galfimbul


Winston McAnuff

Жанр: Reggae
Страна: Jamaica
Годы: 1978-2008
Аудиокодек: FLAC (*.flac)
Тип рипа: tracks+.cue
Битрейт аудио: lossless
Продолжительность: 4:08:19
Источник: What.CD
Дискография:

Студийные альбомы:
Страна-производитель диска: France
Год издания диска: 2006
Издатель (лейбл): Makasound
Номер по каталогу: MKS 16
Продолжительность: 42:12
Источник (релизер): What.CD (csenka)
Наличие сканов в содержимом раздачи: нет
Треклист:
<ul type="1">
Punky Rock 1 [3:40]
Time Is Running Out [3:56]
Whosoever Believeth [3:59]
Irie Lion [2:33]
Ugly Days [3:38]
My Pick to Click [6:32]
Kushy I [3:25]
Head Corner Stone [4:01]
Lover Man [3:46]
Garvey's Vision [3:16]
Punky Rock 2 [3:25]
</ul>
+ Amazon MusicBrainz
 
Exact Audio Copy V0.99 prebeta 5 from 4. May 2009

EAC extraction logfile from 7. July 2011, 13:16

Winston McAnuff / Pick Hits To Click

Used drive : HL-DT-STDVD-RAM GH22NP20 Adapter: 0 ID: 1

Read mode : SecureUtilize accurate stream : YesDefeat audio cache : YesMake use of C2 pointers : No

Read offset correction : 102Overread into Lead-In and Lead-Out : NoFill up missing offset samples with silence : YesDelete leading and trailing silent blocks : NoNull samples used in CRC calculations : YesUsed interface : Native Win32 interface for Win NT & 2000Gap handling : Appended to previous track

Used output format : User Defined EncoderSelected bitrate : 768 kBit/sQuality : HighAdd ID3 tag : NoCommand line compressor : C:\Program Files\Exact Audio Copy\Flac\flac.exeAdditional command line options : -V -8 -T "artist=%a" -T "title=%t" -T "album=%g" -T "date=%y" -T "tracknumber=%n" -T "genre=%m" %s

TOC of the extracted CD

Track | Start | Length | Start sector | End sector --------------------------------------------------------- 1 | 0:00.00 | 3:40.06 | 0 | 16505 2 | 3:40.06 | 3:56.24 | 16506 | 34229 3 | 7:36.30 | 3:59.15 | 34230 | 52169 4 | 11:35.45 | 2:33.16 | 52170 | 63660 5 | 14:08.61 | 3:38.11 | 63661 | 80021 6 | 17:46.72 | 6:31.49 | 80022 | 109395 7 | 24:18.46 | 3:25.28 | 109396 | 124798 8 | 27:43.74 | 4:01.23 | 124799 | 142896 9 | 31:45.22 | 3:46.30 | 142897 | 159876 10 | 35:31.52 | 3:15.47 | 159877 | 174548 11 | 38:47.24 | 3:24.64 | 174549 | 189912

Track 1

Filename H:\Flac\Reggae\Winston McAnuff - Pick Hits To Click\(01) Punky rock - Winston McAnuff-.wav

Pre-gap length 0:00:02.00

Peak level 99.9 % Track quality 100.0 % Test CRC A35FA6E7 Copy CRC A35FA6E7 Track not present in AccurateRip database Copy OK

Track 2

Filename H:\Flac\Reggae\Winston McAnuff - Pick Hits To Click\(02) Time is running out - Winston McAnuff-.wav

Pre-gap length 0:00:01.26

Peak level 99.9 % Track quality 100.0 % Test CRC 9D6939B5 Copy CRC 9D6939B5 Track not present in AccurateRip database Copy OK

Track 3

Filename H:\Flac\Reggae\Winston McAnuff - Pick Hits To Click\(03) Whosoever believeth - Winston McAnuff-.wav

Pre-gap length 0:00:01.08

Peak level 99.9 % Track quality 100.0 % Test CRC 72656E0C Copy CRC 72656E0C Track not present in AccurateRip database Copy OK

Track 4

Filename H:\Flac\Reggae\Winston McAnuff - Pick Hits To Click\(04) Irie lion - Winston McAnuff-.wav

Pre-gap length 0:00:00.44

Peak level 99.9 % Track quality 100.0 % Test CRC 925D6671 Copy CRC 925D6671 Track not present in AccurateRip database Copy OK

Track 5

Filename H:\Flac\Reggae\Winston McAnuff - Pick Hits To Click\(05) Ugly days - Winston McAnuff-.wav

Pre-gap length 0:00:01.60

Peak level 99.9 % Track quality 99.9 % Test CRC 6100297B Copy CRC 6100297B Track not present in AccurateRip database Copy OK

Track 6

Filename H:\Flac\Reggae\Winston McAnuff - Pick Hits To Click\(06) My pick to click - Winston McAnuff-.wav

Pre-gap length 0:00:01.76

Peak level 99.9 % Track quality 100.0 % Test CRC 19A06C8B Copy CRC 19A06C8B Track not present in AccurateRip database Copy OK

Track 7

Filename H:\Flac\Reggae\Winston McAnuff - Pick Hits To Click\(07) Kushy I - Winston McAnuff-.wav

Pre-gap length 0:00:01.54

Peak level 99.9 % Track quality 100.0 % Test CRC 48B4FE07 Copy CRC 48B4FE07 Track not present in AccurateRip database Copy OK

Track 8

Filename H:\Flac\Reggae\Winston McAnuff - Pick Hits To Click\(08) Head corner stone - Winston McAnuff-.wav

Pre-gap length 0:00:01.54

Peak level 99.9 % Track quality 100.0 % Test CRC F8A0C0B4 Copy CRC F8A0C0B4 Track not present in AccurateRip database Copy OK

Track 9

Filename H:\Flac\Reggae\Winston McAnuff - Pick Hits To Click\(09) Lover man - Winston McAnuff-.wav

Pre-gap length 0:00:01.30

Peak level 99.9 % Track quality 100.0 % Test CRC C57C6021 Copy CRC C57C6021 Track not present in AccurateRip database Copy OK

Track 10

Filename H:\Flac\Reggae\Winston McAnuff - Pick Hits To Click\(10) Garvey's vision - Winston McAnuff-.wav

Peak level 99.9 % Track quality 100.0 % Test CRC 9337DF87 Copy CRC 9337DF87 Track not present in AccurateRip database Copy OK

Track 11

Filename H:\Flac\Reggae\Winston McAnuff - Pick Hits To Click\(11) Punky rock 2 - Winston McAnuff-.wav

Pre-gap length 0:00:00.90

Peak level 99.9 % Track quality 100.0 % Test CRC 7AB3ECE8 Copy CRC 7AB3ECE8 Track not present in AccurateRip database Copy OK

None of the tracks are present in the AccurateRip database

No errors occurred

End of status report
 
REM DISCID 9209E40BREM COMMENT "ExactAudioCopy v0.99pb5"FILE "(01) Punky rock - Winston McAnuff-.wav" WAVE TRACK 01 AUDIO INDEX 01 00:00:00 TRACK 02 AUDIO INDEX 00 03:38:61FILE "(02) Time is running out - Winston McAnuff-.wav" WAVE INDEX 01 00:00:00 TRACK 03 AUDIO INDEX 00 03:55:18FILE "(03) Whosoever believeth - Winston McAnuff-.wav" WAVE INDEX 01 00:00:00 TRACK 04 AUDIO INDEX 00 03:58:57FILE "(04) Irie lion - Winston McAnuff-.wav" WAVE INDEX 01 00:00:00 TRACK 05 AUDIO INDEX 00 02:31:46FILE "(05) Ugly days - Winston McAnuff-.wav" WAVE INDEX 01 00:00:00 TRACK 06 AUDIO INDEX 00 03:36:29FILE "(06) My pick to click - Winston McAnuff-.wav" WAVE INDEX 01 00:00:00 TRACK 07 AUDIO INDEX 00 06:30:08FILE "(07) Kushy I - Winston McAnuff-.wav" WAVE INDEX 01 00:00:00 TRACK 08 AUDIO INDEX 00 03:23:62FILE "(08) Head corner stone - Winston McAnuff-.wav" WAVE INDEX 01 00:00:00 TRACK 09 AUDIO INDEX 00 04:00:00FILE "(09) Lover man - Winston McAnuff-.wav" WAVE INDEX 01 00:00:00FILE "(10) Garvey's vision - Winston McAnuff-.wav" WAVE TRACK 10 AUDIO INDEX 01 00:00:00 TRACK 11 AUDIO INDEX 00 03:14:54FILE "(11) Punky rock 2 - Winston McAnuff-.wav" WAVE INDEX 01 00:00:00
Страна-производитель диска: France
Год издания диска: 2006
Издатель (лейбл): Makasound
Номер по каталогу: MKS07
Продолжительность: 54:29
Источник (релизер): What.CD (dUbonic)
Наличие сканов в содержимом раздачи: да
Треклист:
<ul type="1">
What Man Sow [4:42]
What The Man A Deal Wid [4:14]
One Love [3:24]
Hypocrites And Parasites [3:17]
Praying For That Day [4:03]
Jah Love [3:01]
Everyman [3:02]
Unchained (feat. Trinity) (extended version) [6:27]
Unchained Dub [5:10]
What Man Dub [3:36]
What The Man A Dub Wid [3:32]
Hypocrites Dub Parasites [3:23]
Jah Dub [3:20]
Everyman Dub [3:17]
</ul>
+ Amazon MusicBrainz
 
EAC extraction logfile from 15. June 2007, 13:49 for CDWinston Mc Anuff / What a Man a Deal With ?

Used drive : PHILIPS DVDR1628P1 Adapter: 4 ID: 0Read mode : Secure with NO C2, accurate stream, disable cacheRead offset correction : 618Overread into Lead-In and Lead-Out : No

Used output format : Internal WAV Routines 44.100 Hz; 16 Bit; Stereo Use compression offset : 0

Other options : Fill up missing offset samples with silence : Yes Delete leading and trailing silent blocks : No Native Win32 interface for Win NT & 2000

Track 1 Filename D:\Documents and Settings\branou.049665520012.000\Mes documents\Winston Mc Anuff - What a Man a Deal With\01 - What Man Sow.wav

Pre-gap length 0:00:02.00

Peak level 100.0 % Track quality 100.0 % Test CRC FBC47033 Copy CRC FBC47033 Copy OK

Track 2 Filename D:\Documents and Settings\branou.049665520012.000\Mes documents\Winston Mc Anuff - What a Man a Deal With\02 - What The Man A Deal Wid.wav

Pre-gap length 0:00:00.73

Peak level 100.0 % Track quality 100.0 % Test CRC FD42C5D7 Copy CRC FD42C5D7 Copy OK

Track 3 Filename D:\Documents and Settings\branou.049665520012.000\Mes documents\Winston Mc Anuff - What a Man a Deal With\03 - One Love.wav

Pre-gap length 0:00:01.18

Peak level 100.0 % Track quality 100.0 % Test CRC 97716E3D Copy CRC 97716E3D Copy OK

Track 4 Filename D:\Documents and Settings\branou.049665520012.000\Mes documents\Winston Mc Anuff - What a Man a Deal With\04 - Hypocrites And Parasites.wav

Pre-gap length 0:00:01.06

Peak level 100.0 % Track quality 99.9 % Test CRC FCEE3665 Copy CRC FCEE3665 Copy OK

Track 5 Filename D:\Documents and Settings\branou.049665520012.000\Mes documents\Winston Mc Anuff - What a Man a Deal With\05 - Praying For That Day.wav

Pre-gap length 0:00:01.01

Peak level 100.0 % Track quality 100.0 % Test CRC F5C44F25 Copy CRC F5C44F25 Copy OK

Track 6 Filename D:\Documents and Settings\branou.049665520012.000\Mes documents\Winston Mc Anuff - What a Man a Deal With\06 - Jah Love.wav

Pre-gap length 0:00:00.73

Peak level 100.0 % Track quality 100.0 % Test CRC 9338290E Copy CRC 9338290E Copy OK

Track 7 Filename D:\Documents and Settings\branou.049665520012.000\Mes documents\Winston Mc Anuff - What a Man a Deal With\07 - Everyman.wav

Pre-gap length 0:00:01.18

Peak level 100.0 % Track quality 100.0 % Test CRC FA028571 Copy CRC FA028571 Copy OK

Track 8 Filename D:\Documents and Settings\branou.049665520012.000\Mes documents\Winston Mc Anuff - What a Man a Deal With\08 - Unchained.wav

Pre-gap length 0:00:01.16

Peak level 100.0 % Track quality 100.0 % Test CRC 15C402EB Copy CRC 15C402EB Copy OK

Track 9 Filename D:\Documents and Settings\branou.049665520012.000\Mes documents\Winston Mc Anuff - What a Man a Deal With\09 - Unchained Dub.wav

Pre-gap length 0:00:00.73

Peak level 100.0 % Track quality 100.0 % Test CRC 36BF3207 Copy CRC 36BF3207 Copy OK

Track 10 Filename D:\Documents and Settings\branou.049665520012.000\Mes documents\Winston Mc Anuff - What a Man a Deal With\10 - What Man Dub.wav

Pre-gap length 0:00:01.48

Peak level 100.0 % Track quality 99.9 % Test CRC 661B9E42 Copy CRC 661B9E42 Copy OK

Track 11 Filename D:\Documents and Settings\branou.049665520012.000\Mes documents\Winston Mc Anuff - What a Man a Deal With\11 - What The Man A Dub Wid.wav

Pre-gap length 0:00:00.82

Peak level 100.0 % Track quality 100.0 % Test CRC CAB936B6 Copy CRC CAB936B6 Copy OK

Track 12 Filename D:\Documents and Settings\branou.049665520012.000\Mes documents\Winston Mc Anuff - What a Man a Deal With\12 - Hypocrites Dub Parasites.wav

Pre-gap length 0:00:01.01

Peak level 100.0 % Track quality 100.0 % Test CRC 9685E041 Copy CRC 9685E041 Copy OK

Track 13 Filename D:\Documents and Settings\branou.049665520012.000\Mes documents\Winston Mc Anuff - What a Man a Deal With\13 - Jah Dub.wav

Pre-gap length 0:00:00.86

Peak level 100.0 % Track quality 100.0 % Test CRC 0E37EE7C Copy CRC 0E37EE7C Copy OK

Track 14 Filename D:\Documents and Settings\branou.049665520012.000\Mes documents\Winston Mc Anuff - What a Man a Deal With\14 - Everyman Dub.wav

Pre-gap length 0:00:01.34

Peak level 100.0 % Track quality 100.0 % Test CRC 400B0088 Copy CRC 400B0088 Copy OK

No errors occured

End of status report
 
REM GENRE ReggaeREM DATE 2003REM DISCID C70CC50EREM COMMENT "ExactAudioCopy v0.95b3"PERFORMER "Winston Mc Anuff"TITLE "What a Man a Deal With ?"FILE "Winston Mc Anuff - What a Man a Deal With\01 - What Man Sow.wav" WAVE TRACK 01 AUDIO TITLE "What Man Sow" PERFORMER "Winston Mc Anuff" INDEX 01 00:00:00 TRACK 02 AUDIO TITLE "What The Man A Deal Wid" PERFORMER "Winston Mc Anuff" FLAGS DCP INDEX 00 04:41:50FILE "Winston Mc Anuff - What a Man a Deal With\02 - What The Man A Deal Wid.wav" WAVE INDEX 01 00:00:00 TRACK 03 AUDIO TITLE "One Love" PERFORMER "Winston Mc Anuff" FLAGS DCP INDEX 00 04:12:52FILE "Winston Mc Anuff - What a Man a Deal With\03 - One Love.wav" WAVE INDEX 01 00:00:00 TRACK 04 AUDIO TITLE "Hypocrites And Parasites" PERFORMER "Winston Mc Anuff" FLAGS DCP INDEX 00 03:23:21FILE "Winston Mc Anuff - What a Man a Deal With\04 - Hypocrites And Parasites.wav" WAVE INDEX 01 00:00:00 TRACK 05 AUDIO TITLE "Praying For That Day" PERFORMER "Winston Mc Anuff" FLAGS DCP INDEX 00 03:16:16FILE "Winston Mc Anuff - What a Man a Deal With\05 - Praying For That Day.wav" WAVE INDEX 01 00:00:00 TRACK 06 AUDIO TITLE "Jah Love" PERFORMER "Winston Mc Anuff" FLAGS DCP INDEX 00 04:01:65FILE "Winston Mc Anuff - What a Man a Deal With\06 - Jah Love.wav" WAVE INDEX 01 00:00:00 TRACK 07 AUDIO TITLE "Everyman" PERFORMER "Winston Mc Anuff" FLAGS DCP INDEX 00 03:00:01FILE "Winston Mc Anuff - What a Man a Deal With\07 - Everyman.wav" WAVE INDEX 01 00:00:00 TRACK 08 AUDIO TITLE "Unchained" PERFORMER "Winston Mc Anuff" FLAGS DCP INDEX 00 03:01:16FILE "Winston Mc Anuff - What a Man a Deal With\08 - Unchained.wav" WAVE INDEX 01 00:00:00 TRACK 09 AUDIO TITLE "Unchained Dub" PERFORMER "Winston Mc Anuff" FLAGS DCP INDEX 00 06:25:73FILE "Winston Mc Anuff - What a Man a Deal With\09 - Unchained Dub.wav" WAVE INDEX 01 00:00:00 TRACK 10 AUDIO TITLE "What Man Dub" PERFORMER "Winston Mc Anuff" FLAGS DCP INDEX 00 05:08:10FILE "Winston Mc Anuff - What a Man a Deal With\10 - What Man Dub.wav" WAVE INDEX 01 00:00:00 TRACK 11 AUDIO TITLE "What The Man A Dub Wid" PERFORMER "Winston Mc Anuff" FLAGS DCP INDEX 00 03:35:26FILE "Winston Mc Anuff - What a Man a Deal With\11 - What The Man A Dub Wid.wav" WAVE INDEX 01 00:00:00 TRACK 12 AUDIO TITLE "Hypocrites Dub Parasites" PERFORMER "Winston Mc Anuff" FLAGS DCP INDEX 00 03:30:70FILE "Winston Mc Anuff - What a Man a Deal With\12 - Hypocrites Dub Parasites.wav" WAVE INDEX 01 00:00:00 TRACK 13 AUDIO TITLE "Jah Dub" PERFORMER "Winston Mc Anuff" FLAGS DCP INDEX 00 03:22:22FILE "Winston Mc Anuff - What a Man a Deal With\13 - Jah Dub.wav" WAVE INDEX 01 00:00:00 TRACK 14 AUDIO TITLE "Everyman Dub" PERFORMER "Winston Mc Anuff" FLAGS DCP INDEX 00 03:18:57FILE "Winston Mc Anuff - What a Man a Deal With\14 - Everyman Dub.wav" WAVE INDEX 01 00:00:00
Страна-производитель диска: France
Год издания диска: 2005
Издатель (лейбл): Black Eye
Номер по каталогу: 6124002
Продолжительность: 52:19
Источник (релизер): What.CD (joelachips)
Наличие сканов в содержимом раздачи: нет
Треклист:
<ul type="1">
Rastafari Is His Name [4:22]
Mother Africa [3:59]
Devil May Roar [3:58]
Rendez Vous [4:08]
Sentenced [3:16]
Sort Me Out [3:33]
Way Back Home [2:54]
Some Ltd [4:29]
Rock Steady [4:18]
Reggae on Broadway [2:60]
Common Sense [3:46]
You Will Make It [4:21]
Make Me Sweat [6:16]
</ul>
+ Amazon MusicBrainz
 
Exact Audio Copy V0.99 prebeta 3 from 28. July 2007

EAC extraction logfile from 29. June 2009, 0:06

Winston McAnuff & The Bazbaz Orchestra / A Drop

Used drive : TSSTcorpCDDVDW SH-S223F Adapter: 2 ID: 1

Read mode : SecureUtilize accurate stream : YesDefeat audio cache : YesMake use of C2 pointers : No

Read offset correction : 6Overread into Lead-In and Lead-Out : NoFill up missing offset samples with silence : YesDelete leading and trailing silent blocks : NoNull samples used in CRC calculations : YesUsed interface : Native Win32 interface for Win NT & 2000Gap handling : Appended to previous track

Used output format : User Defined EncoderSelected bitrate : 320 kBit/sQuality : HighAdd ID3 tag : NoCommand line compressor : C:\Program Files (x86)\Exact Audio Copy\FLAC\FLAC.EXEAdditional command line options : -V -8 -T "artist=%a" -T "title=%t" -T "album=%g" -T "date=%y" -T "tracknumber=%n" -T "genre=%m" %s

TOC of the extracted CD

Track | Start | Length | Start sector | End sector --------------------------------------------------------- 1 | 0:00.00 | 4:21.51 | 0 | 19625 2 | 4:21.51 | 3:59.15 | 19626 | 37565 3 | 8:20.66 | 3:58.12 | 37566 | 55427 4 | 12:19.03 | 4:08.01 | 55428 | 74028 5 | 16:27.04 | 3:15.58 | 74029 | 88711 6 | 19:42.62 | 3:32.57 | 88712 | 104668 7 | 23:15.44 | 2:54.35 | 104669 | 117753 8 | 26:10.04 | 4:28.61 | 117754 | 137914 9 | 30:38.65 | 4:17.68 | 137915 | 157257 10 | 34:56.58 | 2:59.38 | 157258 | 170720 11 | 37:56.21 | 3:45.66 | 170721 | 187661 12 | 41:42.12 | 4:20.57 | 187662 | 207218 13 | 46:02.69 | 6:17.03 | 207219 | 235496

Track 1

Filename K:\EACRips\Winston McAnuff & The Bazbaz Orchestra - 2005 - A Drop\01 - Rastafari Is His Name.wav

Pre-gap length 0:00:02.00

Peak level 100.0 % Track quality 99.9 % Test CRC 6E411C96 Copy CRC 6E411C96 Accurately ripped (confidence 2) [AD66B401] Copy OK

Track 2

Filename K:\EACRips\Winston McAnuff & The Bazbaz Orchestra - 2005 - A Drop\02 - Mother Africa.wav

Pre-gap length 0:00:01.68

Peak level 100.0 % Track quality 100.0 % Test CRC DC83D5E7 Copy CRC DC83D5E7 Accurately ripped (confidence 2) [E8725F09] Copy OK

Track 3

Filename K:\EACRips\Winston McAnuff & The Bazbaz Orchestra - 2005 - A Drop\03 - Devil May Roar.wav

Pre-gap length 0:00:01.72

Peak level 100.0 % Track quality 100.0 % Test CRC B8761C52 Copy CRC B8761C52 Accurately ripped (confidence 2) [8F4FAEEC] Copy OK

Track 4

Filename K:\EACRips\Winston McAnuff & The Bazbaz Orchestra - 2005 - A Drop\04 - Rendez Vous.wav

Pre-gap length 0:00:01.28

Peak level 99.2 % Track quality 100.0 % Test CRC F7531B45 Copy CRC F7531B45 Accurately ripped (confidence 2) [C231C5C1] Copy OK

Track 5

Filename K:\EACRips\Winston McAnuff & The Bazbaz Orchestra - 2005 - A Drop\05 - Sentenced.wav

Pre-gap length 0:00:03.12

Peak level 100.0 % Track quality 100.0 % Test CRC 0103406F Copy CRC 0103406F Accurately ripped (confidence 2) [062FF9D4] Copy OK

Track 6

Filename K:\EACRips\Winston McAnuff & The Bazbaz Orchestra - 2005 - A Drop\06 - Sort Me Out.wav

Pre-gap length 0:00:02.30

Peak level 100.0 % Track quality 100.0 % Test CRC C5E1C91B Copy CRC C5E1C91B Accurately ripped (confidence 2) [B97AE2BD] Copy OK

Track 7

Filename K:\EACRips\Winston McAnuff & The Bazbaz Orchestra - 2005 - A Drop\07 - Way Back Home.wav

Pre-gap length 0:00:02.74

Peak level 100.0 % Track quality 100.0 % Test CRC FCA19C8D Copy CRC FCA19C8D Accurately ripped (confidence 2) [C9F502A3] Copy OK

Track 8

Filename K:\EACRips\Winston McAnuff & The Bazbaz Orchestra - 2005 - A Drop\08 - Some Ltd.wav

Pre-gap length 0:00:00.93

Peak level 100.0 % Track quality 100.0 % Test CRC 9EEF78FD Copy CRC 9EEF78FD Accurately ripped (confidence 2) [526C880E] Copy OK

Track 9

Filename K:\EACRips\Winston McAnuff & The Bazbaz Orchestra - 2005 - A Drop\09 - Rock Steady.wav

Pre-gap length 0:00:01.29

Peak level 100.0 % Track quality 100.0 % Test CRC 19F5EDBA Copy CRC 19F5EDBA Accurately ripped (confidence 2) [184D3A84] Copy OK

Track 10

Filename K:\EACRips\Winston McAnuff & The Bazbaz Orchestra - 2005 - A Drop\10 - Reggae On Broadway.wav

Pre-gap length 0:00:03.16

Peak level 100.0 % Track quality 100.0 % Test CRC C7441B47 Copy CRC C7441B47 Accurately ripped (confidence 2) [4406E6F3] Copy OK

Track 11

Filename K:\EACRips\Winston McAnuff & The Bazbaz Orchestra - 2005 - A Drop\11 - Common Sense.wav

Pre-gap length 0:00:02.17

Peak level 100.0 % Track quality 100.0 % Test CRC 09BC5941 Copy CRC 09BC5941 Accurately ripped (confidence 2) [C52CCB43] Copy OK

Track 12

Filename K:\EACRips\Winston McAnuff & The Bazbaz Orchestra - 2005 - A Drop\12 - You Will Make It.wav

Pre-gap length 0:00:02.69

Peak level 100.0 % Track quality 100.0 % Test CRC 3AA3A5B1 Copy CRC 3AA3A5B1 Accurately ripped (confidence 2) [1D0131CF] Copy OK

Track 13

Filename K:\EACRips\Winston McAnuff & The Bazbaz Orchestra - 2005 - A Drop\13 - Make Me Sweat.wav

Pre-gap length 0:00:02.17

Peak level 100.0 % Track quality 100.0 % Test CRC 3D622C1F Copy CRC 3D622C1F Accurately ripped (confidence 2) [A4D564E0] Copy OK

All tracks accurately ripped

No errors occurred

End of status report
 
REM GENRE ReggaeREM DATE 2005REM DISCID BC0C430DREM COMMENT "ExactAudioCopy v0.99pb3"FILE "01 - Rastafari Is His Name.wav" WAVE TRACK 01 AUDIO INDEX 01 00:00:00 TRACK 02 AUDIO INDEX 00 04:20:00FILE "02 - Mother Africa.wav" WAVE INDEX 01 00:00:00 TRACK 03 AUDIO INDEX 00 03:57:36FILE "03 - Devil May Roar.wav" WAVE INDEX 01 00:00:00 TRACK 04 AUDIO INDEX 00 03:56:66FILE "04 - Rendez Vous.wav" WAVE INDEX 01 00:00:00 TRACK 05 AUDIO INDEX 00 04:04:67FILE "05 - Sentenced.wav" WAVE INDEX 01 00:00:00 TRACK 06 AUDIO INDEX 00 03:13:35FILE "06 - Sort Me Out.wav" WAVE INDEX 01 00:00:00 TRACK 07 AUDIO INDEX 00 03:30:01FILE "07 - Way Back Home.wav" WAVE INDEX 01 00:00:00 TRACK 08 AUDIO INDEX 00 02:53:40FILE "08 - Some Ltd.wav" WAVE INDEX 01 00:00:00 TRACK 09 AUDIO INDEX 00 04:27:39FILE "09 - Rock Steady.wav" WAVE INDEX 01 00:00:00 TRACK 10 AUDIO INDEX 00 04:14:56FILE "10 - Reggae On Broadway.wav" WAVE INDEX 01 00:00:00 TRACK 11 AUDIO INDEX 00 02:57:25FILE "11 - Common Sense.wav" WAVE INDEX 01 00:00:00 TRACK 12 AUDIO INDEX 00 03:43:14FILE "12 - You Will Make It.wav" WAVE INDEX 01 00:00:00 TRACK 13 AUDIO INDEX 00 04:18:44FILE "13 - Make Me Sweat.wav" WAVE INDEX 01 00:00:00
Страна-производитель диска: France
Год издания диска: 2006
Издатель (лейбл): Black Eye
Номер по каталогу: BECD04
Продолжительность: 48:51
Источник (релизер): What.CD (csenka)
Наличие сканов в содержимом раздачи: нет
Треклист:
<ul type="1">
Rock Soul [4:24]
Wandering Drummer Messenger [5:31]
Paris Rocking (feat. R-Wan) [3:51]
Don't Play [4:43]
Wretched State [3:18]
Treat Me Good [3:40]
Reach Out and Touch H.I.M. [4:22]
Roamer [4:32]
Ras Child [4:34]
Quiet Room [3:36]
Return to Sender [6:20]
</ul>
+ Discogs Amazon MusicBrainz
 
Exact Audio Copy V0.99 prebeta 5 from 4. May 2009

EAC extraction logfile from 7. July 2011, 12:18

Winston Mac Anuff / Paris Rockin'

Used drive : HL-DT-STDVD-RAM GH22NP20 Adapter: 0 ID: 1

Read mode : SecureUtilize accurate stream : YesDefeat audio cache : YesMake use of C2 pointers : No

Read offset correction : 102Overread into Lead-In and Lead-Out : NoFill up missing offset samples with silence : YesDelete leading and trailing silent blocks : NoNull samples used in CRC calculations : YesUsed interface : Native Win32 interface for Win NT & 2000Gap handling : Appended to previous track

Used output format : User Defined EncoderSelected bitrate : 768 kBit/sQuality : HighAdd ID3 tag : NoCommand line compressor : C:\Program Files\Exact Audio Copy\Flac\flac.exeAdditional command line options : -V -8 -T "artist=%a" -T "title=%t" -T "album=%g" -T "date=%y" -T "tracknumber=%n" -T "genre=%m" %s

TOC of the extracted CD

Track | Start | Length | Start sector | End sector --------------------------------------------------------- 1 | 0:00.00 | 4:24.02 | 0 | 19801 2 | 4:24.02 | 5:31.45 | 19802 | 44671 3 | 9:55.47 | 3:51.40 | 44672 | 62036 4 | 13:47.12 | 4:43.22 | 62037 | 83283 5 | 18:30.34 | 3:18.44 | 83284 | 98177 6 | 21:49.03 | 3:40.19 | 98178 | 114696 7 | 25:29.22 | 4:22.63 | 114697 | 134409 8 | 29:52.10 | 4:32.59 | 134410 | 154868 9 | 34:24.69 | 4:34.62 | 154869 | 175480 10 | 38:59.56 | 3:36.02 | 175481 | 191682 11 | 42:35.58 | 6:20.32 | 191683 | 220214

Track 1

Filename H:\Flac\Reggae\Winston McAnuff - Paris Rockin'\(01) Rock soul - Winston Mac Anuff-.wav

Pre-gap length 0:00:02.00

Peak level 100.0 % Track quality 100.0 % Test CRC 93CEC2CF Copy CRC 93CEC2CF Accurately ripped (confidence 3) [DA323B53] Copy OK

Track 2

Filename H:\Flac\Reggae\Winston McAnuff - Paris Rockin'\(02) Wandering drummer messenger - Winston Mac Anuff-.wav

Pre-gap length 0:00:00.74

Peak level 100.0 % Track quality 100.0 % Test CRC 98D3D941 Copy CRC 98D3D941 Accurately ripped (confidence 3) [B425454E] Copy OK

Track 3

Filename H:\Flac\Reggae\Winston McAnuff - Paris Rockin'\(03) Paris rockin - Winston Mac Anuff-.wav

Pre-gap length 0:00:00.26

Peak level 100.0 % Track quality 100.0 % Test CRC 5C61585F Copy CRC 5C61585F Accurately ripped (confidence 3) [612BB2EA] Copy OK

Track 4

Filename H:\Flac\Reggae\Winston McAnuff - Paris Rockin'\(04) Dont play - Winston Mac Anuff-.wav

Peak level 100.0 % Track quality 100.0 % Test CRC 31CFABA0 Copy CRC 31CFABA0 Accurately ripped (confidence 3) [33840B18] Copy OK

Track 5

Filename H:\Flac\Reggae\Winston McAnuff - Paris Rockin'\(05) Wretched state - Winston Mac Anuff-.wav

Pre-gap length 0:00:00.73

Peak level 100.0 % Track quality 99.9 % Test CRC 767A5BD3 Copy CRC 767A5BD3 Accurately ripped (confidence 3) [1DA5FC32] Copy OK

Track 6

Filename H:\Flac\Reggae\Winston McAnuff - Paris Rockin'\(06) Treat me good - Winston Mac Anuff-.wav

Pre-gap length 0:00:00.17

Peak level 100.0 % Track quality 100.0 % Test CRC 6FF79C4B Copy CRC 6FF79C4B Accurately ripped (confidence 3) [891213DF] Copy OK

Track 7

Filename H:\Flac\Reggae\Winston McAnuff - Paris Rockin'\(07) Reach out and touch - Winston Mac Anuff-.wav

Pre-gap length 0:00:00.36

Peak level 100.0 % Track quality 100.0 % Test CRC 0FAF9C93 Copy CRC 0FAF9C93 Accurately ripped (confidence 3) [F7D5745B] Copy OK

Track 8

Filename H:\Flac\Reggae\Winston McAnuff - Paris Rockin'\(08) Roamer - Winston Mac Anuff-.wav

Pre-gap length 0:00:00.41

Peak level 100.0 % Track quality 100.0 % Test CRC C1218E04 Copy CRC C1218E04 Accurately ripped (confidence 3) [503D0548] Copy OK

Track 9

Filename H:\Flac\Reggae\Winston McAnuff - Paris Rockin'\(09) Raschild - Winston Mac Anuff-.wav

Pre-gap length 0:00:00.82

Peak level 100.0 % Track quality 100.0 % Test CRC 263C0E2A Copy CRC 263C0E2A Accurately ripped (confidence 3) [5A5B890D] Copy OK

Track 10

Filename H:\Flac\Reggae\Winston McAnuff - Paris Rockin'\(10) Quiet room - Winston Mac Anuff-.wav

Pre-gap length 0:00:03.25

Peak level 100.0 % Track quality 100.0 % Test CRC 14DD8D5B Copy CRC 14DD8D5B Accurately ripped (confidence 3) [9EC4CC99] Copy OK

Track 11

Filename H:\Flac\Reggae\Winston McAnuff - Paris Rockin'\(11) Return to sender - Winston Mac Anuff-.wav

Pre-gap length 0:00:01.06

Peak level 100.0 % Track quality 100.0 % Test CRC 1B31D41E Copy CRC 1B31D41E Accurately ripped (confidence 3) [8CED8C77] Copy OK

All tracks accurately ripped

No errors occurred

End of status report
 
REM DISCID 8D0B780BREM COMMENT "ExactAudioCopy v0.99pb5"FILE "(01) Rock soul - Winston Mac Anuff-.wav" WAVE TRACK 01 AUDIO INDEX 01 00:00:00 TRACK 02 AUDIO INDEX 00 04:23:21FILE "(02) Wandering drummer messenger - Winston Mac Anuff-.wav" WAVE INDEX 01 00:00:00 TRACK 03 AUDIO INDEX 00 05:31:25FILE "(03) Paris rockin - Winston Mac Anuff-.wav" WAVE INDEX 01 00:00:00FILE "(04) Dont play - Winston Mac Anuff-.wav" WAVE TRACK 04 AUDIO INDEX 01 00:00:00 TRACK 05 AUDIO INDEX 00 04:42:42FILE "(05) Wretched state - Winston Mac Anuff-.wav" WAVE INDEX 01 00:00:00 TRACK 06 AUDIO INDEX 00 03:18:31FILE "(06) Treat me good - Winston Mac Anuff-.wav" WAVE INDEX 01 00:00:00 TRACK 07 AUDIO INDEX 00 03:39:67FILE "(07) Reach out and touch - Winston Mac Anuff-.wav" WAVE INDEX 01 00:00:00 TRACK 08 AUDIO INDEX 00 04:22:32FILE "(08) Roamer - Winston Mac Anuff-.wav" WAVE INDEX 01 00:00:00 TRACK 09 AUDIO INDEX 00 04:31:72FILE "(09) Raschild - Winston Mac Anuff-.wav" WAVE INDEX 01 00:00:00 TRACK 10 AUDIO INDEX 00 04:31:43FILE "(10) Quiet room - Winston Mac Anuff-.wav" WAVE INDEX 01 00:00:00 TRACK 11 AUDIO INDEX 00 03:34:72FILE "(11) Return to sender - Winston Mac Anuff-.wav" WAVE INDEX 01 00:00:00
Страна-производитель диска: France
Год издания диска: 2008
Издатель (лейбл): Makasound
Номер по каталогу: MKF13
Продолжительность: 50:21
Источник (релизер): What.CD (fuzzfolk)
Наличие сканов в содержимом раздачи: нет
Треклист:
<ul type="1">
Mix Up Moods [4:01]
Nostradamus [4:28]
Slave Driver [4:58]
Vain Imagining [5:01]
Takin It All [3:37]
Love Is the Song I Sing [3:56]
Sunday Morning [5:58]
The Bait [5:00]
Pick Up [4:41]
The Pack [4:04]
Set Us Free [4:37]
</ul>
+ Amazon MusicBrainz
 
Exact Audio Copy V0.99 prebeta 5 from 4. May 2009

EAC extraction logfile from 15. March 2010, 22:06

Winston McAnuff / Nostradamus

Used drive : HL-DT-STDVD+-RW GA11N Adapter: 0 ID: 1

Read mode : SecureUtilize accurate stream : YesDefeat audio cache : YesMake use of C2 pointers : No

Read offset correction : 667Overread into Lead-In and Lead-Out : NoFill up missing offset samples with silence : YesDelete leading and trailing silent blocks : NoNull samples used in CRC calculations : YesUsed interface : Native Win32 interface for Win NT & 2000Gap handling : Appended to previous track

Used output format : User Defined EncoderSelected bitrate : 768 kBit/sQuality : HighAdd ID3 tag : NoCommand line compressor : C:\Program Files (x86)\Exact Audio Copy\FLAC\FLAC.EXEAdditional command line options : -V -8 -T "artist=%a" -T "title=%t" -T "album=%g" -T "date=%y" -T "tracknumber=%n" -T "genre=%m" %s

TOC of the extracted CD

Track | Start | Length | Start sector | End sector --------------------------------------------------------- 1 | 0:00.00 | 4:01.33 | 0 | 18107 2 | 4:01.33 | 4:27.67 | 18108 | 38199 3 | 8:29.25 | 4:57.67 | 38200 | 60541 4 | 13:27.17 | 5:01.24 | 60542 | 83140 5 | 18:28.41 | 3:37.24 | 83141 | 99439 6 | 22:05.65 | 3:56.21 | 99440 | 117160 7 | 26:02.11 | 5:58.00 | 117161 | 144010 8 | 32:00.11 | 5:00.00 | 144011 | 166510 9 | 37:00.11 | 4:40.39 | 166511 | 187549 10 | 41:40.50 | 4:03.65 | 187550 | 205839 11 | 45:44.40 | 4:36.71 | 205840 | 226610

Track 1

Filename C:\EACrips\Winston McAnuff - 2008 - Nostradamus\01 - Mix Up Moods.wav

Pre-gap length 0:00:02.00

Peak level 97.7 % Track quality 100.0 % Test CRC BC955AC0 Copy CRC BC955AC0 Accurately ripped (confidence 3) [EDB1B744] Copy OK

Track 2

Filename C:\EACrips\Winston McAnuff - 2008 - Nostradamus\02 - Nostradamus.wav

Peak level 97.7 % Track quality 100.0 % Test CRC 9C8F25DB Copy CRC 9C8F25DB Accurately ripped (confidence 3) [5B44FA1F] Copy OK

Track 3

Filename C:\EACrips\Winston McAnuff - 2008 - Nostradamus\03 - Slave Driver.wav

Peak level 97.7 % Track quality 100.0 % Test CRC 004DD8FF Copy CRC 004DD8FF Accurately ripped (confidence 3) [3E5DC427] Copy OK

Track 4

Filename C:\EACrips\Winston McAnuff - 2008 - Nostradamus\04 - Vain Imagining.wav

Peak level 97.7 % Track quality 100.0 % Test CRC 33B03DE5 Copy CRC 33B03DE5 Accurately ripped (confidence 3) [0EEB5BC1] Copy OK

Track 5

Filename C:\EACrips\Winston McAnuff - 2008 - Nostradamus\05 - Takin It All.wav

Peak level 97.7 % Track quality 100.0 % Test CRC FE8D0996 Copy CRC FE8D0996 Accurately ripped (confidence 3) [04B74E32] Copy OK

Track 6

Filename C:\EACrips\Winston McAnuff - 2008 - Nostradamus\06 - Love Is The Song I Sing.wav

Peak level 73.2 % Track quality 100.0 % Test CRC 2696E16D Copy CRC 2696E16D Accurately ripped (confidence 3) [09ADA06E] Copy OK

Track 7

Filename C:\EACrips\Winston McAnuff - 2008 - Nostradamus\07 - Sunday Morning.wav

Pre-gap length 0:00:00.57

Peak level 89.6 % Track quality 100.0 % Test CRC CE605F31 Copy CRC CE605F31 Accurately ripped (confidence 3) [46C7CEDC] Copy OK

Track 8

Filename C:\EACrips\Winston McAnuff - 2008 - Nostradamus\08 - The Bait.wav

Peak level 97.7 % Track quality 100.0 % Test CRC 3E450FA8 Copy CRC 3E450FA8 Accurately ripped (confidence 3) [1B5C34DF] Copy OK

Track 9

Filename C:\EACrips\Winston McAnuff - 2008 - Nostradamus\09 - Pick Up.wav

Pre-gap length 0:00:00.38

Peak level 97.7 % Track quality 100.0 % Test CRC 1096BA8F Copy CRC 1096BA8F Accurately ripped (confidence 3) [CE6748D7] Copy OK

Track 10

Filename C:\EACrips\Winston McAnuff - 2008 - Nostradamus\10 - The Pack.wav

Peak level 97.7 % Track quality 100.0 % Test CRC FF93AF24 Copy CRC FF93AF24 Accurately ripped (confidence 3) [F1A3BB88] Copy OK

Track 11

Filename C:\EACrips\Winston McAnuff - 2008 - Nostradamus\11 - Set Us Free.wav

Peak level 97.7 % Track quality 99.9 % Test CRC 40B7D118 Copy CRC 40B7D118 Accurately ripped (confidence 3) [34446972] Copy OK

All tracks accurately ripped

No errors occurred

End of status report
 
REM GENRE ReggaeREM DATE 2008REM DISCID 750BCD0BREM COMMENT "ExactAudioCopy v0.99pb5"FILE "01 - Mix Up Moods.flac" WAVE TRACK 01 AUDIO INDEX 01 00:00:00FILE "02 - Nostradamus.flac" WAVE TRACK 02 AUDIO INDEX 01 00:00:00FILE "03 - Slave Driver.flac" WAVE TRACK 03 AUDIO INDEX 01 00:00:00FILE "04 - Vain Imagining.flac" WAVE TRACK 04 AUDIO INDEX 01 00:00:00FILE "05 - Takin It All.flac" WAVE TRACK 05 AUDIO INDEX 01 00:00:00FILE "06 - Love Is The Song I Sing.flac" WAVE TRACK 06 AUDIO INDEX 01 00:00:00 TRACK 07 AUDIO INDEX 00 03:55:53FILE "07 - Sunday Morning.flac" WAVE INDEX 01 00:00:00FILE "08 - The Bait.flac" WAVE TRACK 08 AUDIO INDEX 01 00:00:00 TRACK 09 AUDIO INDEX 00 04:59:46FILE "09 - Pick Up.flac" WAVE INDEX 01 00:00:00FILE "10 - The Pack.flac" WAVE TRACK 10 AUDIO INDEX 01 00:00:00FILE "11 - Set Us Free.flac" WAVE TRACK 11 AUDIO INDEX 01 00:00:00
MySpace Last.fm Wikipedia Discogs Amazon MusicBrainz
Сын проповедника, Уинстон родился в 1957 году, в районе холмов Манчестерского округа, на Ямайке. Его родители очень любили музыку, и естественно, он с детства начал петь в церкви. После того как его отец умер в 1971 году, Уинстон уехал из своего родного дома и поехал в Кингстон, к своей сестре, котораяработала учительницей. В этой новой для него городской среде, он очень быстро нашёл себе друзей, среди которых были Hugh Mundell, Earl Sixteen и Wayne Wade. Он полностью был уверен в их таланте и пошел с ними на их первое прослушивание и даже сам спел некоторые их песни. Тогда он представился как Malcolm X. С 1975 году Winston McAnuff знал многих регги (reggae) музыкантов, он служил для них как источник вдохновения. Первый продюсер, который его заметил – был Derrick Harriott, который и записал в 1977 году для него первый альбом “Pick Hits to Click”. Вскоре после этого, в 1980 году Уинстон выпустил второй альбом реггей вместе с группой Inner Circle – “What a Man a Deal With”, лейблом которого стал “Top Ranking”. Winston McAnuff был очень близок с Jacob Miller’ом, который так же питался энергией Уинстона. После трагической смерти одного из членов группы Миллера, Уинстон заменил его. В 1986 году он выпускает ещё один регги альбом “Electric Dread”, вместе с той же группой Inner Circle (продюссером был – Keneith Black). В этот же год, Уинстон создал собственную группу – The Black Kush, наряду с его братом Tony “Makaruffin” McAnuff, в группе были Anthony Wilson и басист Peter Kush. Они записали две песни для Channel One, их сняли в документальном фильме “Deep Roots Series” и ещё они ездили в турне по Европе. С тех пор Уинстон играет в группе со своими детьми (первый барабанщик, второй Dj и третий певец). Уинстон совершал несколько турне по Японии, так же выступал в США вместе с Don Johnson и Philip Michael Thomas, бывал много раз в Европе, да и вообще был везде, где люди знают слово регги.В 1999 году он познакомился с командой людей, которые в 2001 году создали новый лейбл – Makasound. Он подписал с ними контракт, по которому они переиздали его два альбома – “Diary of the Silent Years” и “What a Man Deal with В 2002 году группа Winston McAnuff познакомиляь на фестивале New Morning с Camille Bazbaz, сотрудничество с которой, принесло через три года новый альбом – “A Drop: Winston McAnuff & the Bazbaz Orchestra”, который вышел 23 мая 2005 года. Уинстону приписывают сооружение моста между Ямайкой и Францией, который сблизил обе эти страны.
До полной дискографии не хватает:
Студиных альбомов:
1986 - Electric Dread
2011 - A Bang
Сборника:
2002 - Diary Of The Silent Years


Трекер:  [ 03-Фев-2012 01:15 ]

  

Скачать .torrent

Размер .torrent файла 138 KB


Размер: 1.63 GB
Хэш (hash) релиза: 8f8de1cafa404e8667d3b319b2e9a5baf3aa32d2

Торренты, похожие на Winston McAnuff - Дискография скачать торрент

Форум Название Автор Размер S L Добавлен
Reggae, Ska, Dub (mp3) ·· (Reggae) Winston McAnuff - Дискография - 1978 - 2011 (10 альбомов) , MP3, 121-320 kbps Galfimbul 1013791790967 MB 0 0 1326393894

21:44

12-Янв-12

Еще никто не оставлял запись к записи скачать торрент Winston McAnuff - Дискография . Будь первым!

!Обратная связь