Обои | Want maximum upload & download speed? Consult 1-888-625-3058 Microsoft customer service | 18.07.1800:12 Uhr MotoGP 2018 - Rennen in Austin Texas x264 0 / 0337 Hits VID P2P DDL 0 Kommentare

Скачать через торрент музыку Wingless Angels бесплатно без регистрации torrent

Статистика раздачи
Размер:  742 MB   |    Зарегистрирован:  6 лет 5 месяцев   |    .torrent скачан:  48 раз   |   
Раздают:  1  
   
загрузка...
 
Автор Сообщение

Galfimbul

avatar Galfimbul


Wingless Angels - Volumes I And II
Жанр: ReggaeСтрана-производитель диска: USAГод издания диска: 1996Издатель (лейбл): Mindless Rec.Номер по каталогу: 7243 4 96895 2 7Страна: UKАудио кодек: FLACТип рипа: tracks+.cueБитрейт аудио: losslessПродолжительность: Cd1 - 73:47; Cd2 - 53:49Источник (релизер): IronbellyНаличие сканов в содержимом раздачи: ДаТрэклист:
Cd1:
1. I Write My Name - Good Morning (6:25)
2. No Dark There (4:17)
3. Keyman (4:23)
4. On Mount Zion I (5:26)
5. Morning Train (4:28)
6. Roll Jordan Roll (3:53)
7. Rasta Army (4:23)
8. We Shall Overcome (5:35)
9. Come in My Little Ones (5:50)
10. Four & Twenty (4:30)
11. Rivers of Babylon (4:24)
12. Ring Out Mt. Zion Bells (4:45)
13. Bright Soul (4:44)
14. Enjoy Yourself (4:46)
15. Love, Love, Love (4:22)
16. Keyman A Cappella (1:36)
Cd2:
1. Inviting You (Intro) (1:06)
2. Shady Tree (5:22)
3. Come Down Wicked Man (5:23)
4. Zion Bells (6:12)
5. So Sweet (5:46)
6. No Dark Day (5:49)
7. Oh What A Joy (4:08)
8. Rasta Army (5:26)
9. Beautiful River (5:06)
10. Band Of Angels (6:11)
11. Inviting You (Outro) (3:20)
 
Exact Audio Copy V0.99 prebeta 5 from 4. May 2009

EAC extraction logfile from 4. February 2011, 10:50

Wingless Angels / Volumes I And II - cd1

Used drive : HL-DT-STDVD+-RW GH50N Adapter: 0 ID: 1

Read mode : SecureUtilize accurate stream : YesDefeat audio cache : YesMake use of C2 pointers : No

Read offset correction : 667Overread into Lead-In and Lead-Out : NoFill up missing offset samples with silence : YesDelete leading and trailing silent blocks : NoNull samples used in CRC calculations : YesUsed interface : Native Win32 interface for Win NT & 2000Gap handling : Appended to previous track

Used output format : User Defined EncoderSelected bitrate : 768 kBit/sQuality : HighAdd ID3 tag : NoCommand line compressor : C:\Program Files (x86)\Exact Audio Copy\FLAC\FLAC.EXEAdditional command line options : -8 -V -T "ARTIST=%a" -T "TITLE=%t" -T "ALBUM=%g" -T "DATE=%y" -T "TRACKNUMBER=%n" -T "GENRE=%m" -T "COMMENT=EAC FLAC -8" %s

TOC of the extracted CD

Track | Start | Length | Start sector | End sector --------------------------------------------------------- 1 | 0:00.00 | 6:25.24 | 0 | 28898 2 | 6:25.24 | 4:17.37 | 28899 | 48210 3 | 10:42.61 | 4:23.28 | 48211 | 67963 4 | 15:06.14 | 5:26.57 | 67964 | 92470 5 | 20:32.71 | 4:28.53 | 92471 | 112623 6 | 25:01.49 | 3:53.50 | 112624 | 130148 7 | 28:55.24 | 4:23.57 | 130149 | 149930 8 | 33:19.06 | 5:35.48 | 149931 | 175103 9 | 38:54.54 | 5:50.52 | 175104 | 201405 10 | 44:45.31 | 4:30.70 | 201406 | 221725 11 | 49:16.26 | 4:24.10 | 221726 | 241535 12 | 53:40.36 | 4:45.10 | 241536 | 262920 13 | 58:25.46 | 4:44.43 | 262921 | 284263 14 | 63:10.14 | 4:46.67 | 284264 | 305780 15 | 67:57.06 | 4:22.48 | 305781 | 325478 16 | 72:19.54 | 1:36.66 | 325479 | 332744

Track 1

Filename C:\Documents\Azureus Downloads\test\WA_CD1\01. Wingless Angels - I Write My Name - Good Morning.wav

Pre-gap length 0:00:02.00

Peak level 89.1 % Track quality 100.0 % Test CRC CE5632C8 Copy CRC CE5632C8 Track not present in AccurateRip database Copy OK

Track 2

Filename C:\Documents\Azureus Downloads\test\WA_CD1\02. Wingless Angels - No Dark There.wav

Peak level 89.1 % Track quality 100.0 % Test CRC C8D04D3D Copy CRC C8D04D3D Track not present in AccurateRip database Copy OK

Track 3

Filename C:\Documents\Azureus Downloads\test\WA_CD1\03. Wingless Angels - Keyman.wav

Peak level 89.1 % Track quality 100.0 % Test CRC 4BBEDE24 Copy CRC 4BBEDE24 Track not present in AccurateRip database Copy OK

Track 4

Filename C:\Documents\Azureus Downloads\test\WA_CD1\04. Wingless Angels - On Mount Zion I.wav

Peak level 89.1 % Track quality 99.9 % Test CRC 956321CB Copy CRC 956321CB Track not present in AccurateRip database Copy OK

Track 5

Filename C:\Documents\Azureus Downloads\test\WA_CD1\05. Wingless Angels - Morning Train.wav

Peak level 89.1 % Track quality 100.0 % Test CRC A98C7F6B Copy CRC A98C7F6B Track not present in AccurateRip database Copy OK

Track 6

Filename C:\Documents\Azureus Downloads\test\WA_CD1\06. Wingless Angels - Roll Jordan Roll.wav

Peak level 89.1 % Track quality 100.0 % Test CRC A5C36C1C Copy CRC A5C36C1C Track not present in AccurateRip database Copy OK

Track 7

Filename C:\Documents\Azureus Downloads\test\WA_CD1\07. Wingless Angels - Rasta Army.wav

Peak level 89.1 % Track quality 100.0 % Test CRC 9B5E1A25 Copy CRC 9B5E1A25 Track not present in AccurateRip database Copy OK

Track 8

Filename C:\Documents\Azureus Downloads\test\WA_CD1\08. Wingless Angels - We Shall Overcome.wav

Peak level 89.1 % Track quality 100.0 % Test CRC 086178D0 Copy CRC 086178D0 Track not present in AccurateRip database Copy OK

Track 9

Filename C:\Documents\Azureus Downloads\test\WA_CD1\09. Wingless Angels - Come in My Little Ones.wav

Peak level 89.1 % Track quality 100.0 % Test CRC 65C60120 Copy CRC 65C60120 Track not present in AccurateRip database Copy OK

Track 10

Filename C:\Documents\Azureus Downloads\test\WA_CD1\10. Wingless Angels - Four & Twenty.wav

Peak level 89.1 % Track quality 100.0 % Test CRC DC9D2B65 Copy CRC DC9D2B65 Track not present in AccurateRip database Copy OK

Track 11

Filename C:\Documents\Azureus Downloads\test\WA_CD1\11. Wingless Angels - Rivers of Babylon.wav

Peak level 89.1 % Track quality 100.0 % Test CRC B929CFF6 Copy CRC B929CFF6 Track not present in AccurateRip database Copy OK

Track 12

Filename C:\Documents\Azureus Downloads\test\WA_CD1\12. Wingless Angels - Ring Out Mt. Zion Bells.wav

Peak level 89.1 % Track quality 100.0 % Test CRC B737E7A9 Copy CRC B737E7A9 Track not present in AccurateRip database Copy OK

Track 13

Filename C:\Documents\Azureus Downloads\test\WA_CD1\13. Wingless Angels - Bright Soul.wav

Peak level 89.1 % Track quality 99.9 % Test CRC C810F001 Copy CRC C810F001 Track not present in AccurateRip database Copy OK

Track 14

Filename C:\Documents\Azureus Downloads\test\WA_CD1\14. Wingless Angels - Enjoy Yourself.wav

Peak level 89.1 % Track quality 99.9 % Test CRC 9ED8472D Copy CRC 9ED8472D Track not present in AccurateRip database Copy OK

Track 15

Filename C:\Documents\Azureus Downloads\test\WA_CD1\15. Wingless Angels - Love, Love, Love.wav

Peak level 89.1 % Track quality 99.9 % Test CRC AE0509FD Copy CRC AE0509FD Track not present in AccurateRip database Copy OK

Track 16

Filename C:\Documents\Azureus Downloads\test\WA_CD1\16. Wingless Angels - Keyman A Cappella.wav

Peak level 76.7 % Track quality 100.0 % Test CRC 24434AB7 Copy CRC 24434AB7 Track not present in AccurateRip database Copy OK

None of the tracks are present in the AccurateRip database

No errors occurred

End of status report
 
REM GENRE ReggaeREM DATE 2010REM DISCID E5115410REM COMMENT "ExactAudioCopy v0.99pb5"PERFORMER "Wingless Angels"TITLE "Volumes I And II - cd1"FILE "01. Wingless Angels - I Write My Name - Good Morning.flac" WAVE TRACK 01 AUDIO TITLE "I Write My Name - Good Morning" PERFORMER "Wingless Angels" INDEX 01 00:00:00FILE "02. Wingless Angels - No Dark There.flac" WAVE TRACK 02 AUDIO TITLE "No Dark There" PERFORMER "Wingless Angels" INDEX 01 00:00:00FILE "03. Wingless Angels - Keyman.flac" WAVE TRACK 03 AUDIO TITLE "Keyman" PERFORMER "Wingless Angels" INDEX 01 00:00:00FILE "04. Wingless Angels - On Mount Zion I.flac" WAVE TRACK 04 AUDIO TITLE "On Mount Zion I" PERFORMER "Wingless Angels" INDEX 01 00:00:00FILE "05. Wingless Angels - Morning Train.flac" WAVE TRACK 05 AUDIO TITLE "Morning Train" PERFORMER "Wingless Angels" INDEX 01 00:00:00FILE "06. Wingless Angels - Roll Jordan Roll.flac" WAVE TRACK 06 AUDIO TITLE "Roll Jordan Roll" PERFORMER "Wingless Angels" INDEX 01 00:00:00FILE "07. Wingless Angels - Rasta Army.flac" WAVE TRACK 07 AUDIO TITLE "Rasta Army" PERFORMER "Wingless Angels" INDEX 01 00:00:00FILE "08. Wingless Angels - We Shall Overcome.flac" WAVE TRACK 08 AUDIO TITLE "We Shall Overcome" PERFORMER "Wingless Angels" INDEX 01 00:00:00FILE "09. Wingless Angels - Come in My Little Ones.flac" WAVE TRACK 09 AUDIO TITLE "Come in My Little Ones" PERFORMER "Wingless Angels" INDEX 01 00:00:00FILE "10. Wingless Angels - Four & Twenty.flac" WAVE TRACK 10 AUDIO TITLE "Four & Twenty" PERFORMER "Wingless Angels" INDEX 01 00:00:00FILE "11. Wingless Angels - Rivers of Babylon.flac" WAVE TRACK 11 AUDIO TITLE "Rivers of Babylon" PERFORMER "Wingless Angels" INDEX 01 00:00:00FILE "12. Wingless Angels - Ring Out Mt. Zion Bells.flac" WAVE TRACK 12 AUDIO TITLE "Ring Out Mt. Zion Bells" PERFORMER "Wingless Angels" INDEX 01 00:00:00FILE "13. Wingless Angels - Bright Soul.flac" WAVE TRACK 13 AUDIO TITLE "Bright Soul" PERFORMER "Wingless Angels" INDEX 01 00:00:00FILE "14. Wingless Angels - Enjoy Yourself.flac" WAVE TRACK 14 AUDIO TITLE "Enjoy Yourself" PERFORMER "Wingless Angels" INDEX 01 00:00:00FILE "15. Wingless Angels - Love, Love, Love.flac" WAVE TRACK 15 AUDIO TITLE "Love, Love, Love" PERFORMER "Wingless Angels" INDEX 01 00:00:00FILE "16. Wingless Angels - Keyman A Cappella.flac" WAVE TRACK 16 AUDIO TITLE "Keyman A Cappella" PERFORMER "Wingless Angels" INDEX 01 00:00:00
 
Exact Audio Copy V0.99 prebeta 5 from 4. May 2009

EAC extraction logfile from 3. February 2011, 16:35

Wingless Angels / Volumes I And II - cd2

Used drive : HL-DT-STDVD+-RW GH50N Adapter: 0 ID: 1

Read mode : SecureUtilize accurate stream : YesDefeat audio cache : YesMake use of C2 pointers : No

Read offset correction : 667Overread into Lead-In and Lead-Out : NoFill up missing offset samples with silence : YesDelete leading and trailing silent blocks : NoNull samples used in CRC calculations : YesUsed interface : Native Win32 interface for Win NT & 2000Gap handling : Appended to previous track

Used output format : User Defined EncoderSelected bitrate : 768 kBit/sQuality : HighAdd ID3 tag : NoCommand line compressor : C:\Program Files (x86)\Exact Audio Copy\FLAC\FLAC.EXEAdditional command line options : -8 -V -T "ARTIST=%a" -T "TITLE=%t" -T "ALBUM=%g" -T "DATE=%y" -T "TRACKNUMBER=%n" -T "GENRE=%m" -T "COMMENT=EAC FLAC -8" %s

TOC of the extracted CD

Track | Start | Length | Start sector | End sector --------------------------------------------------------- 1 | 0:00.00 | 1:06.18 | 0 | 4967 2 | 1:06.18 | 5:22.60 | 4968 | 29177 3 | 6:29.03 | 5:23.74 | 29178 | 53476 4 | 11:53.02 | 6:12.47 | 53477 | 81423 5 | 18:05.49 | 5:46.45 | 81424 | 107418 6 | 23:52.19 | 5:49.61 | 107419 | 133654 7 | 29:42.05 | 4:08.48 | 133655 | 152302 8 | 33:50.53 | 5:26.62 | 152303 | 176814 9 | 39:17.40 | 5:06.11 | 176815 | 199775 10 | 44:23.51 | 6:11.02 | 199776 | 227602 11 | 50:34.53 | 3:20.64 | 227603 | 242666

Track 1

Filename C:\Documents\Azureus Downloads\test\WA_CD2\01. Wingless Angels - Inviting You (Intro).wav

Pre-gap length 0:00:02.00

Peak level 89.1 % Track quality 100.0 % Test CRC 1738E189 Copy CRC 1738E189 Track not present in AccurateRip database Copy OK

Track 2

Filename C:\Documents\Azureus Downloads\test\WA_CD2\02. Wingless Angels - Shady Tree.wav

Peak level 84.6 % Track quality 100.0 % Test CRC BCD3F7DB Copy CRC BCD3F7DB Track not present in AccurateRip database Copy OK

Track 3

Filename C:\Documents\Azureus Downloads\test\WA_CD2\03. Wingless Angels - Come Down Wicked Man.wav

Peak level 89.1 % Track quality 100.0 % Test CRC E1D77BE7 Copy CRC E1D77BE7 Track not present in AccurateRip database Copy OK

Track 4

Filename C:\Documents\Azureus Downloads\test\WA_CD2\04. Wingless Angels - Zion Bells.wav

Peak level 89.1 % Track quality 100.0 % Test CRC 0C2DC139 Copy CRC 0C2DC139 Track not present in AccurateRip database Copy OK

Track 5

Filename C:\Documents\Azureus Downloads\test\WA_CD2\05. Wingless Angels - So Sweet.wav

Peak level 89.1 % Track quality 100.0 % Test CRC E0FE49BC Copy CRC E0FE49BC Track not present in AccurateRip database Copy OK

Track 6

Filename C:\Documents\Azureus Downloads\test\WA_CD2\06. Wingless Angels - No Dark Day.wav

Peak level 85.4 % Track quality 100.0 % Test CRC 257F6EE3 Copy CRC 257F6EE3 Track not present in AccurateRip database Copy OK

Track 7

Filename C:\Documents\Azureus Downloads\test\WA_CD2\07. Wingless Angels - Oh What A Joy.wav

Peak level 89.1 % Track quality 100.0 % Test CRC 70162883 Copy CRC 70162883 Track not present in AccurateRip database Copy OK

Track 8

Filename C:\Documents\Azureus Downloads\test\WA_CD2\08. Wingless Angels - Rasta Army.wav

Peak level 79.2 % Track quality 100.0 % Test CRC C063C7AF Copy CRC C063C7AF Track not present in AccurateRip database Copy OK

Track 9

Filename C:\Documents\Azureus Downloads\test\WA_CD2\09. Wingless Angels - Beautiful River.wav

Peak level 83.8 % Track quality 99.9 % Test CRC ECBD19F8 Copy CRC ECBD19F8 Track not present in AccurateRip database Copy OK

Track 10

Filename C:\Documents\Azureus Downloads\test\WA_CD2\10. Wingless Angels - Band Of Angels.wav

Peak level 89.1 % Track quality 100.0 % Test CRC E4FB1C4A Copy CRC E4FB1C4A Track not present in AccurateRip database Copy OK

Track 11

Filename C:\Documents\Azureus Downloads\test\WA_CD2\11. Wingless Angels - Inviting You (Outro).wav

Peak level 89.1 % Track quality 100.0 % Test CRC D5A899C4 Copy CRC D5A899C4 Track not present in AccurateRip database Copy OK

None of the tracks are present in the AccurateRip database

No errors occurred

End of status report
 
REM GENRE ReggaeREM DATE 2010REM DISCID 930CA30BREM COMMENT "ExactAudioCopy v0.99pb5"PERFORMER "Wingless Angels"TITLE "Volumes I And II - cd2"FILE "01. Wingless Angels - Inviting You (Intro).flac" WAVE TRACK 01 AUDIO TITLE "Inviting You (Intro)" PERFORMER "Wingless Angels" INDEX 01 00:00:00FILE "02. Wingless Angels - Shady Tree.flac" WAVE TRACK 02 AUDIO TITLE "Shady Tree" PERFORMER "Wingless Angels" INDEX 01 00:00:00FILE "03. Wingless Angels - Come Down Wicked Man.flac" WAVE TRACK 03 AUDIO TITLE "Come Down Wicked Man" PERFORMER "Wingless Angels" INDEX 01 00:00:00FILE "04. Wingless Angels - Zion Bells.flac" WAVE TRACK 04 AUDIO TITLE "Zion Bells" PERFORMER "Wingless Angels" INDEX 01 00:00:00FILE "05. Wingless Angels - So Sweet.flac" WAVE TRACK 05 AUDIO TITLE "So Sweet" PERFORMER "Wingless Angels" INDEX 01 00:00:00FILE "06. Wingless Angels - No Dark Day.flac" WAVE TRACK 06 AUDIO TITLE "No Dark Day" PERFORMER "Wingless Angels" INDEX 01 00:00:00FILE "07. Wingless Angels - Oh What A Joy.flac" WAVE TRACK 07 AUDIO TITLE "Oh What A Joy" PERFORMER "Wingless Angels" INDEX 01 00:00:00FILE "08. Wingless Angels - Rasta Army.flac" WAVE TRACK 08 AUDIO TITLE "Rasta Army" PERFORMER "Wingless Angels" INDEX 01 00:00:00FILE "09. Wingless Angels - Beautiful River.flac" WAVE TRACK 09 AUDIO TITLE "Beautiful River" PERFORMER "Wingless Angels" INDEX 01 00:00:00FILE "10. Wingless Angels - Band Of Angels.flac" WAVE TRACK 10 AUDIO TITLE "Band Of Angels" PERFORMER "Wingless Angels" INDEX 01 00:00:00FILE "11. Wingless Angels - Inviting You (Outro).flac" WAVE TRACK 11 AUDIO TITLE "Inviting You (Outro)" PERFORMER "Wingless Angels" INDEX 01 00:00:00

 
Reviewby Leo Stanley (Allmusic.com)As the first release on Keith Richards' Mindless Records, Wingless Angels plays on the Stones guitarist's long-standing infatuation with reggae and Jamaica.The Wingless Angels are part of the strict Rastafarian sect the Nyabinghi, whose religious practices include chanting and drumming, both featured on theireponymous debut record. As the album's producer, Richards keeps thing simple, which gives the record a gritty power. Wingless Angels isn't reggae in thestrictest sense -- it's spiritual Rastafarian music that sounds unlike any other reggae record, and that's what makes it special.



Трекер:  [ 03-Фев-2012 01:15 ]

  

Скачать .torrent

Размер .torrent файла 18 KB


Размер: 742 MB
Хэш (hash) релиза: 911b17ab7b856b87d6715a6750cbb0dce785ddb2

Еще никто не оставлял запись к записи скачать торрент Wingless Angels . Будь первым!

!Обратная связь