Michael B. Jordan | McKinsey Quarterly – Issue 2, 2012 | a century on film

Скачать через торрент музыку Suburban Legends бесплатно без регистрации torrent

Статистика раздачи
Размер:  1.54 GB   |    Зарегистрирован:  6 лет 8 месяцев   |    .torrent скачан:  41 раз   |   
Раздают:  1  
   
загрузка...
 
Автор Сообщение

_N_

avatar _N_


Suburban Legends

Жанр: SkaPunk / 3rd Wave Ska || Период: 2001-2011 || Страна: USA || Аудио кодек: FLAC || Битрейт аудио: lossless || Тип рипа: tracks+.cue || Источник: what.cd
Albums:
01 - High Fives (04:25)
02 - You (04:00)
03 - Bright Spring Morning (04:05)
04 - Up All Night (04:13)
05 - Blingity Bling (02:37)
06 - Autumn in the Park (03:57)
07 - Powerful Game (03:30)
08 - Zanzibar (03:59)
09 - All the Nights (02:54)
10 - Do it for the Kids (03:53)
11 - Last Dance (05:05)
 
Exact Audio Copy V0.99 prebeta 5 from 4. May 2009

EAC extraction logfile from 21. March 2011, 19:19

Suburban Legends / Rump Shaker

Used drive : PLDS DVD+-RW DH-16ABS Adapter: 0 ID: 1

Read mode : SecureUtilize accurate stream : YesDefeat audio cache : YesMake use of C2 pointers : No

Read offset correction : 6Overread into Lead-In and Lead-Out : NoFill up missing offset samples with silence : YesDelete leading and trailing silent blocks : NoNull samples used in CRC calculations : YesUsed interface : Native Win32 interface for Win NT & 2000Gap handling : Appended to previous track

Used output format : User Defined EncoderSelected bitrate : 1024 kBit/sQuality : HighAdd ID3 tag : NoCommand line compressor : C:\Program Files (x86)\Exact Audio Copy (0.99pb5)\Flac\flac.exeAdditional command line options : -V -8 -T "artist=%a" -T "title=%t" -T "album=%g" -T "date=%y" -T "tracknumber=%n" -T "genre=%m" %s

TOC of the extracted CD

Track | Start | Length | Start sector | End sector --------------------------------------------------------- 1 | 0:00.00 | 4:24.45 | 0 | 19844 2 | 4:24.45 | 3:59.50 | 19845 | 37819 3 | 8:24.20 | 4:04.55 | 37820 | 56174 4 | 12:29.00 | 4:13.32 | 56175 | 75181 5 | 16:42.32 | 2:36.50 | 75182 | 86931 6 | 19:19.07 | 3:57.30 | 86932 | 104736 7 | 23:16.37 | 3:30.13 | 104737 | 120499 8 | 26:46.50 | 3:58.65 | 120500 | 138414 9 | 30:45.40 | 2:53.42 | 138415 | 151431 10 | 33:39.07 | 3:52.70 | 151432 | 168901 11 | 37:32.02 | 5:04.40 | 168902 | 191741

Track 1

Filename C:\EAC Rips\Suburban Legends - Rump Shaker (2003) [FLAC]\01 - Suburban Legends - High Fives.wav

Pre-gap length 0:00:02.00

Peak level 97.7 % Track quality 100.0 % Test CRC 5CC9B068 Copy CRC 5CC9B068 Cannot be verified as accurate (confidence 2) [8977F0FF], AccurateRip returned [73C01EA5] Copy OK

Track 2

Filename C:\EAC Rips\Suburban Legends - Rump Shaker (2003) [FLAC]\02 - Suburban Legends - You.wav

Peak level 97.7 % Track quality 100.0 % Test CRC 456AAA96 Copy CRC 456AAA96 Cannot be verified as accurate (confidence 2) [6EA7EC2E], AccurateRip returned [AFED3C2C] Copy OK

Track 3

Filename C:\EAC Rips\Suburban Legends - Rump Shaker (2003) [FLAC]\03 - Suburban Legends - Bright Spring Morning.wav

Pre-gap length 0:00:00.46

Peak level 97.7 % Track quality 99.9 % Test CRC A692FDF2 Copy CRC A692FDF2 Cannot be verified as accurate (confidence 2) [2330BD4A], AccurateRip returned [F5ED050E] Copy OK

Track 4

Filename C:\EAC Rips\Suburban Legends - Rump Shaker (2003) [FLAC]\04 - Suburban Legends - Up All Night.wav

Pre-gap length 0:00:00.26

Peak level 97.7 % Track quality 100.0 % Test CRC CAB738CA Copy CRC CAB738CA Cannot be verified as accurate (confidence 2) [C1FCC677], AccurateRip returned [D5275516] Copy OK

Track 5

Filename C:\EAC Rips\Suburban Legends - Rump Shaker (2003) [FLAC]\05 - Suburban Legends - Blingity Bling.wav

Pre-gap length 0:00:00.20

Peak level 97.7 % Track quality 100.0 % Test CRC 1B749441 Copy CRC 1B749441 Cannot be verified as accurate (confidence 2) [04CCAFA0], AccurateRip returned [DA2583B1] Copy OK

Track 6

Filename C:\EAC Rips\Suburban Legends - Rump Shaker (2003) [FLAC]\06 - Suburban Legends - Autumn in the Park.wav

Pre-gap length 0:00:00.49

Peak level 97.7 % Track quality 100.0 % Test CRC 74FFD756 Copy CRC 74FFD756 Cannot be verified as accurate (confidence 2) [B03BBB50], AccurateRip returned [A67870C7] Copy OK

Track 7

Filename C:\EAC Rips\Suburban Legends - Rump Shaker (2003) [FLAC]\07 - Suburban Legends - Powerful Game.wav

Pre-gap length 0:00:00.56

Peak level 97.7 % Track quality 99.9 % Test CRC 8229DD75 Copy CRC 8229DD75 Cannot be verified as accurate (confidence 2) [917D0AB4], AccurateRip returned [F5A8D12E] Copy OK

Track 8

Filename C:\EAC Rips\Suburban Legends - Rump Shaker (2003) [FLAC]\08 - Suburban Legends - Zanzibar.wav

Pre-gap length 0:00:00.66

Peak level 97.7 % Track quality 100.0 % Test CRC 1B780E0D Copy CRC 1B780E0D Cannot be verified as accurate (confidence 2) [C35A5831], AccurateRip returned [05DDAA9D] Copy OK

Track 9

Filename C:\EAC Rips\Suburban Legends - Rump Shaker (2003) [FLAC]\09 - Suburban Legends - All the Nights.wav

Pre-gap length 0:00:01.53

Peak level 97.7 % Track quality 100.0 % Test CRC 0D929B7D Copy CRC 0D929B7D Cannot be verified as accurate (confidence 2) [6A2888A3], AccurateRip returned [D9AE2E73] Copy OK

Track 10

Filename C:\EAC Rips\Suburban Legends - Rump Shaker (2003) [FLAC]\10 - Suburban Legends - Do it for the Kids.wav

Pre-gap length 0:00:00.09

Peak level 97.7 % Track quality 100.0 % Test CRC EFAB0E59 Copy CRC EFAB0E59 Cannot be verified as accurate (confidence 2) [3E90FC34], AccurateRip returned [22E845EE] Copy OK

Track 11

Filename C:\EAC Rips\Suburban Legends - Rump Shaker (2003) [FLAC]\11 - Suburban Legends - Last Dance.wav

Pre-gap length 0:00:00.89

Peak level 97.7 % Track quality 99.9 % Test CRC 818CEC65 Copy CRC 818CEC65 Cannot be verified as accurate (confidence 2) [F674AAD0], AccurateRip returned [B23A91DB] Copy OK

No tracks could be verified as accurateYou may have a different pressing from the one(s) in the database

No errors occurred

End of status report
 
REM GENRE SkaREM DATE 2003REM DISCID 8009FC0BREM COMMENT "ExactAudioCopy v0.99pb5"PERFORMER "Suburban Legends"TITLE "Rump Shaker"FILE "01 - High Fives.wav" WAVE TRACK 01 AUDIO TITLE "High Fives" PERFORMER "Suburban Legends" INDEX 01 00:00:00FILE "02 - You.wav" WAVE TRACK 02 AUDIO TITLE "You" PERFORMER "Suburban Legends" INDEX 01 00:00:00 TRACK 03 AUDIO TITLE "Bright Spring Morning" PERFORMER "Suburban Legends" INDEX 00 03:59:15FILE "03 - Bright Spring Morning.wav" WAVE INDEX 01 00:00:00 TRACK 04 AUDIO TITLE "Up All Night" PERFORMER "Suburban Legends" INDEX 00 04:04:35FILE "04 - Up All Night.wav" WAVE INDEX 01 00:00:00 TRACK 05 AUDIO TITLE "Blingity Bling" PERFORMER "Suburban Legends" INDEX 00 04:13:17FILE "05 - Blingity Bling.wav" WAVE INDEX 01 00:00:00 TRACK 06 AUDIO TITLE "Autumn in the Park" PERFORMER "Suburban Legends" INDEX 00 02:36:13FILE "06 - Autumn in the Park.wav" WAVE INDEX 01 00:00:00 TRACK 07 AUDIO TITLE "Powerful Game" PERFORMER "Suburban Legends" INDEX 00 03:56:63FILE "07 - Powerful Game.wav" WAVE INDEX 01 00:00:00 TRACK 08 AUDIO TITLE "Zanzibar" PERFORMER "Suburban Legends" INDEX 00 03:29:38FILE "08 - Zanzibar.wav" WAVE INDEX 01 00:00:00 TRACK 09 AUDIO TITLE "All the Nights" PERFORMER "Suburban Legends" INDEX 00 03:57:25FILE "09 - All the Nights.wav" WAVE INDEX 01 00:00:00 TRACK 10 AUDIO TITLE "Do it for the Kids" PERFORMER "Suburban Legends" INDEX 00 02:53:35FILE "10 - Do it for the Kids.wav" WAVE INDEX 01 00:00:00 TRACK 11 AUDIO TITLE "Last Dance" PERFORMER "Suburban Legends" INDEX 00 03:52:03FILE "11 - Last Dance.wav" WAVE INDEX 01 00:00:00
01 - All Around the World (03:14)
02 - Win a Date (03:19)
03 - Infectious (03:24)
04 - So Fine (03:17)
05 - Trophy Wife (03:21)
06 - Summer Crush (03:27)
07 - Bed of Roses (03:05)
08 - Stress (02:58)
09 - You Told Me That (03:36)
 
Exact Audio Copy V0.99 prebeta 5 from 4. May 2009

EAC extraction logfile from 10. November 2010, 22:21

Suburban Legends / Infectious

Used drive : Optiarc DVD RW AD-7561S Adapter: 1 ID: 0

Read mode : SecureUtilize accurate stream : YesDefeat audio cache : YesMake use of C2 pointers : No

Read offset correction : 6Overread into Lead-In and Lead-Out : NoFill up missing offset samples with silence : YesDelete leading and trailing silent blocks : NoNull samples used in CRC calculations : YesUsed interface : Native Win32 interface for Win NT & 2000Gap handling : Appended to previous track

Used output format : User Defined EncoderSelected bitrate : 768 kBit/sQuality : HighAdd ID3 tag : NoCommand line compressor : C:\Program Files (x86)\Exact Audio Copy\FLAC\FLAC.EXEAdditional command line options : -8 -s -V -T "ARTIST=%a" -T "TITLE=%t" -T "ALBUM=%g" -T "DATE=%y" -T "TRACKNUMBER=%n" -T "GENRE=%m" -T "COMMENT=%e" %s -o %d

TOC of the extracted CD

Track | Start | Length | Start sector | End sector --------------------------------------------------------- 1 | 0:00.00 | 3:14.16 | 0 | 14565 2 | 3:14.16 | 3:18.38 | 14566 | 29453 3 | 6:32.54 | 3:24.31 | 29454 | 44784 4 | 9:57.10 | 3:17.09 | 44785 | 59568 5 | 13:14.19 | 3:20.44 | 59569 | 74612 6 | 16:34.63 | 3:27.13 | 74613 | 90150 7 | 20:02.01 | 3:04.38 | 90151 | 103988 8 | 23:06.39 | 2:57.39 | 103989 | 117302 9 | 26:04.03 | 3:35.52 | 117303 | 133479

Track 1

Filename C:\Users\Zach\Desktop\Suburban Legends - (2007) Infectious [FLAC]\01 - All Around The World.wav

Pre-gap length 0:00:02.00

Peak level 100.0 % Track quality 100.0 % Test CRC 6CA910D7 Copy CRC 6CA910D7 Accurately ripped (confidence 1) [F2B31356] Copy OK

Track 2

Filename C:\Users\Zach\Desktop\Suburban Legends - (2007) Infectious [FLAC]\02 - Win A Date.wav

Peak level 100.0 % Track quality 100.0 % Test CRC 8D4B7051 Copy CRC 8D4B7051 Accurately ripped (confidence 1) [D6AA575B] Copy OK

Track 3

Filename C:\Users\Zach\Desktop\Suburban Legends - (2007) Infectious [FLAC]\03 - Infectious.wav

Peak level 100.0 % Track quality 100.0 % Test CRC 705F1F1D Copy CRC 705F1F1D Accurately ripped (confidence 1) [FDAA5EE3] Copy OK

Track 4

Filename C:\Users\Zach\Desktop\Suburban Legends - (2007) Infectious [FLAC]\04 - So Fine.wav

Peak level 100.0 % Track quality 100.0 % Test CRC 55896922 Copy CRC 55896922 Accurately ripped (confidence 1) [77B9DBDD] Copy OK

Track 5

Filename C:\Users\Zach\Desktop\Suburban Legends - (2007) Infectious [FLAC]\05 - Trophy Wife.wav

Peak level 100.0 % Track quality 99.9 % Test CRC 72CB4614 Copy CRC 72CB4614 Accurately ripped (confidence 1) [2F723203] Copy OK

Track 6

Filename C:\Users\Zach\Desktop\Suburban Legends - (2007) Infectious [FLAC]\06 - Summer Crush.wav

Peak level 100.0 % Track quality 100.0 % Test CRC A4A614EE Copy CRC A4A614EE Accurately ripped (confidence 1) [AEF31AEC] Copy OK

Track 7

Filename C:\Users\Zach\Desktop\Suburban Legends - (2007) Infectious [FLAC]\07 - Bed Of Roses.wav

Peak level 100.0 % Track quality 100.0 % Test CRC FFCE9C8F Copy CRC FFCE9C8F Accurately ripped (confidence 1) [342F53E0] Copy OK

Track 8

Filename C:\Users\Zach\Desktop\Suburban Legends - (2007) Infectious [FLAC]\08 - Stress.wav

Peak level 100.0 % Track quality 100.0 % Test CRC 045F4B74 Copy CRC 045F4B74 Accurately ripped (confidence 1) [E55097E7] Copy OK

Track 9

Filename C:\Users\Zach\Desktop\Suburban Legends - (2007) Infectious [FLAC]\09 - You Told Me That.wav

Peak level 100.0 % Track quality 100.0 % Test CRC 60B6D964 Copy CRC 60B6D964 Accurately ripped (confidence 1) [26D43985] Copy OK

All tracks accurately ripped

No errors occurred

End of status report
 
REM GENRE RockREM DATE 2007REM DISCID 9406F309REM COMMENT "ExactAudioCopy v0.99pb5"PERFORMER "Suburban Legends"TITLE "Infectious"FILE "01 - All Around The World.wav" WAVE TRACK 01 AUDIO TITLE "All Around The World" PERFORMER "Suburban Legends" INDEX 01 00:00:00FILE "02 - Win A Date.wav" WAVE TRACK 02 AUDIO TITLE "Win A Date" PERFORMER "Suburban Legends" INDEX 01 00:00:00FILE "03 - Infectious.wav" WAVE TRACK 03 AUDIO TITLE "Infectious" PERFORMER "Suburban Legends" INDEX 01 00:00:00FILE "04 - So Fine.wav" WAVE TRACK 04 AUDIO TITLE "So Fine" PERFORMER "Suburban Legends" INDEX 01 00:00:00FILE "05 - Trophy Wife.wav" WAVE TRACK 05 AUDIO TITLE "Trophy Wife" PERFORMER "Suburban Legends" INDEX 01 00:00:00FILE "06 - Summer Crush.wav" WAVE TRACK 06 AUDIO TITLE "Summer Crush" PERFORMER "Suburban Legends" INDEX 01 00:00:00FILE "07 - Bed Of Roses.wav" WAVE TRACK 07 AUDIO TITLE "Bed Of Roses" PERFORMER "Suburban Legends" INDEX 01 00:00:00FILE "08 - Stress.wav" WAVE TRACK 08 AUDIO TITLE "Stress" PERFORMER "Suburban Legends" INDEX 01 00:00:00FILE "09 - You Told Me That.wav" WAVE TRACK 09 AUDIO TITLE "You Told Me That" PERFORMER "Suburban Legends" INDEX 01 00:00:00
01 - Lets Be Friends (03:26)
02 - Girls Got What I Want (03:23)
03 - Together (03:08)
04 - Polyester (03:52)
05 - Fire (03:41)
06 - Favorite Face (03:37)
07 - Unbelievable (03:26)
08 - Getting Down To Business (04:12)
09 - Villain (03:25)
10 - Took My Breath Away (03:44)
11 - Lucy (04:12)
12 - Dont Want To Wait (06:26)
13 - Natasha (03:26)
 
EAC extraction logfile from 20. July 2008, 13:32 for CDSuburban Legends / Lets Be Friends... And Slay The Dragon Together

Used drive : MATSHITAUJ-840D Adapter: 1 ID: 0Read mode : Secure with NO C2, accurate stream, disable cacheRead offset correction : 102Overread into Lead-In and Lead-Out : No

Used output format : C:\Program Files\Exact Audio Copy\flac.exe (User Defined Encoder) 192 kBit/s Additional command line options : -8 -A tukey(0.25) -A gauss(0.1875) -b 4096 -V -T "artist=%a" -T "title=%t" -T "album=%g" -T "date=%y" -T "tracknumber=%n" -T "genre=%m" %s --sector-align

Other options : Fill up missing offset samples with silence : Yes Delete leading and trailing silent blocks : No Installed external ASPI interface

Track 1 Filename E:\FLACS\Suburban Legends\Lets Be Friends... And Slay The Dragon Together\01 - Suburban Legends - Lets Be Friends.wav

Pre-gap length 0:00:02.00

Peak level 100.0 % Track quality 100.0 % Test CRC ED567617 Copy CRC ED567617 Copy OK

Track 2 Filename E:\FLACS\Suburban Legends\Lets Be Friends... And Slay The Dragon Together\02 - Suburban Legends - Girls Got What I Want.wav

Peak level 100.0 % Track quality 100.0 % Test CRC 806331D7 Copy CRC 806331D7 Copy OK

Track 3 Filename E:\FLACS\Suburban Legends\Lets Be Friends... And Slay The Dragon Together\03 - Suburban Legends - Together.wav

Peak level 100.0 % Track quality 99.9 % Test CRC D11AFB3B Copy CRC D11AFB3B Copy OK

Track 4 Filename E:\FLACS\Suburban Legends\Lets Be Friends... And Slay The Dragon Together\04 - Suburban Legends - Polyester.wav

Peak level 100.0 % Track quality 100.0 % Test CRC 3715D199 Copy CRC 3715D199 Copy OK

Track 5 Filename E:\FLACS\Suburban Legends\Lets Be Friends... And Slay The Dragon Together\05 - Suburban Legends - Fire.wav

Peak level 100.0 % Track quality 99.9 % Test CRC DB4E4B52 Copy CRC DB4E4B52 Copy OK

Track 6 Filename E:\FLACS\Suburban Legends\Lets Be Friends... And Slay The Dragon Together\06 - Suburban Legends - Favorite Face.wav

Peak level 100.0 % Track quality 100.0 % Test CRC E51323C7 Copy CRC E51323C7 Copy OK

Track 7 Filename E:\FLACS\Suburban Legends\Lets Be Friends... And Slay The Dragon Together\07 - Suburban Legends - Unbelievable.wav

Peak level 100.0 % Track quality 100.0 % Test CRC AFC51491 Copy CRC AFC51491 Copy OK

Track 8 Filename E:\FLACS\Suburban Legends\Lets Be Friends... And Slay The Dragon Together\08 - Suburban Legends - Getting Down To Business.wav

Peak level 100.0 % Track quality 100.0 % Test CRC 80990805 Copy CRC 80990805 Copy OK

Track 9 Filename E:\FLACS\Suburban Legends\Lets Be Friends... And Slay The Dragon Together\09 - Suburban Legends - Villain.wav

Peak level 100.0 % Track quality 100.0 % Test CRC 59A1F172 Copy CRC 59A1F172 Copy OK

Track 10 Filename E:\FLACS\Suburban Legends\Lets Be Friends... And Slay The Dragon Together\10 - Suburban Legends - Took My Breath Away.wav

Peak level 100.0 % Track quality 100.0 % Test CRC 524166AA Copy CRC 524166AA Copy OK

Track 11 Filename E:\FLACS\Suburban Legends\Lets Be Friends... And Slay The Dragon Together\11 - Suburban Legends - Lucy.wav

Peak level 100.0 % Track quality 100.0 % Test CRC 6E0B7ABA Copy CRC 6E0B7ABA Copy OK

Track 12 Filename E:\FLACS\Suburban Legends\Lets Be Friends... And Slay The Dragon Together\12 - Suburban Legends - Dont Want To Wait.wav

Peak level 100.0 % Track quality 99.9 % Test CRC 954B5179 Copy CRC 954B5179 Copy OK

Track 13 Filename E:\FLACS\Suburban Legends\Lets Be Friends... And Slay The Dragon Together\13 - Suburban Legends - Natasha.wav

Pre-gap length 0:02:16.80

Peak level 100.0 % Track quality 100.0 % Test CRC D9691382 Copy CRC D9691382 Copy OK

No errors occured

End of status report
 
REM GENRE SkaREM DATE 2008REM DISCID AA0BB60DREM COMMENT "ExactAudioCopy v0.95b3"PERFORMER "Suburban Legends"TITLE "Lets Be Friends... And Slay The Dragon Together"FILE "01 - Lets Be Friends.wav" WAVE TRACK 01 AUDIO TITLE "Lets Be Friends" PERFORMER "Suburban Legends" INDEX 01 00:00:00FILE "02 - Girls Got What I Want.wav" WAVE TRACK 02 AUDIO TITLE "Girls Got What I Want" PERFORMER "Suburban Legends" INDEX 01 00:00:00FILE "03 - Together.wav" WAVE TRACK 03 AUDIO TITLE "Together" PERFORMER "Suburban Legends" INDEX 01 00:00:00FILE "04 - Polyester.wav" WAVE TRACK 04 AUDIO TITLE "Polyester" PERFORMER "Suburban Legends" INDEX 01 00:00:00FILE "05 - Fire.wav" WAVE TRACK 05 AUDIO TITLE "Fire" PERFORMER "Suburban Legends" INDEX 01 00:00:00FILE "06 - Favorite Face.wav" WAVE TRACK 06 AUDIO TITLE "Favorite Face" PERFORMER "Suburban Legends" INDEX 01 00:00:00FILE "07 - Unbelievable.wav" WAVE TRACK 07 AUDIO TITLE "Unbelievable" PERFORMER "Suburban Legends" INDEX 01 00:00:00FILE "08 - Getting Down To Business.wav" WAVE TRACK 08 AUDIO TITLE "Getting Down To Business" PERFORMER "Suburban Legends" INDEX 01 00:00:00FILE "09 - Villain.wav" WAVE TRACK 09 AUDIO TITLE "Villain" PERFORMER "Suburban Legends" INDEX 01 00:00:00FILE "10 - Took My Breath Away.wav" WAVE TRACK 10 AUDIO TITLE "Took My Breath Away" PERFORMER "Suburban Legends" INDEX 01 00:00:00FILE "11 - Lucy.wav" WAVE TRACK 11 AUDIO TITLE "Lucy" PERFORMER "Suburban Legends" INDEX 01 00:00:00FILE "12 - Dont Want To Wait.wav" WAVE TRACK 12 AUDIO TITLE "Dont Want To Wait" PERFORMER "Suburban Legends" INDEX 01 00:00:00 TRACK 13 AUDIO TITLE "Natasha" PERFORMER "Suburban Legends" INDEX 00 04:09:29FILE "13 - Natasha.wav" WAVE INDEX 01 00:00:00
01 - Dance Dance Dance (03:33)
02 - Take The Next Step (02:38)
03 - Girls Got What I Want (03:23)
04 - Open Up Your Eyes (03:05)
05 - Whoa (03:18)
06 - My Friend (03:10)
07 - Doing It With You (01:23)
08 - Fire (03:41)
09 - Getting Down To Business (04:12)
10 - So Fine (03:17)
11 - Win A Date (03:19)
12 - Come Back Home (03:46)
 
Exact Audio Copy V1.0 beta 1 from 15. November 2010

EAC extraction logfile from 5. March 2011, 12:33

Suburban Legends / Getting Down To Business

Used drive : Optiarc DVD+-RW AD-7640S Adapter: 1 ID: 0

Read mode : SecureUtilize accurate stream : YesDefeat audio cache : YesMake use of C2 pointers : No

Read offset correction : 6Overread into Lead-In and Lead-Out : NoFill up missing offset samples with silence : YesDelete leading and trailing silent blocks : NoNull samples used in CRC calculations : YesUsed interface : Native Win32 interface for Win NT & 2000Gap handling : Appended to previous track

Used output format : User Defined EncoderSelected bitrate : 128 kBit/sQuality : HighAdd ID3 tag : NoCommand line compressor : C:\Program Files (x86)\Exact Audio Copy\Flac\flac.exeAdditional command line options : -V -8 -T "artist=%a" -T "title=%t" -T "album=%g" -T "date=%y" -T "tracknumber=%n" -T "genre=%m" %s

TOC of the extracted CD

Track | Start | Length | Start sector | End sector --------------------------------------------------------- 1 | 0:00.00 | 3:33.03 | 0 | 15977 2 | 3:33.03 | 2:38.20 | 15978 | 27847 3 | 6:11.23 | 3:22.41 | 27848 | 43038 4 | 9:33.64 | 3:05.14 | 43039 | 56927 5 | 12:39.03 | 3:18.31 | 56928 | 71808 6 | 15:57.34 | 3:10.22 | 71809 | 86080 7 | 19:07.56 | 1:23.00 | 86081 | 92305 8 | 20:30.56 | 3:40.59 | 92306 | 108864 9 | 24:11.40 | 4:11.55 | 108865 | 127744 10 | 28:23.20 | 3:17.23 | 127745 | 142542 11 | 31:40.43 | 3:18.38 | 142543 | 157430 12 | 34:59.06 | 3:45.54 | 157431 | 174359

Track 1

Filename E:\EAC\Suburban Legends - 2011 - Getting Down To Business [FLAC]\01 - Dance Dance Dance.wav

Pre-gap length 0:00:02.00

Peak level 100.0 % Extraction speed 2.5 X Track quality 100.0 % Test CRC F8D04862 Copy CRC F8D04862 Copy OK

Track 2

Filename E:\EAC\Suburban Legends - 2011 - Getting Down To Business [FLAC]\02 - Take The Next Step.wav

Peak level 100.0 % Extraction speed 2.6 X Track quality 100.0 % Test CRC 86041CE9 Copy CRC 86041CE9 Copy OK

Track 3

Filename E:\EAC\Suburban Legends - 2011 - Getting Down To Business [FLAC]\03 - Girls Got What I Want.wav

Peak level 100.0 % Extraction speed 2.3 X Track quality 99.9 % Test CRC 6D79DB5F Copy CRC 6D79DB5F Copy OK

Track 4

Filename E:\EAC\Suburban Legends - 2011 - Getting Down To Business [FLAC]\04 - Open Up Your Eyes.wav

Peak level 100.0 % Extraction speed 3.1 X Track quality 100.0 % Test CRC 019E984B Copy CRC 019E984B Copy OK

Track 5

Filename E:\EAC\Suburban Legends - 2011 - Getting Down To Business [FLAC]\05 - Whoa.wav

Peak level 100.0 % Extraction speed 3.2 X Track quality 100.0 % Test CRC 0B19A2B3 Copy CRC 0B19A2B3 Copy OK

Track 6

Filename E:\EAC\Suburban Legends - 2011 - Getting Down To Business [FLAC]\06 - My Friend.wav

Peak level 100.0 % Extraction speed 3.3 X Track quality 100.0 % Test CRC 78D75391 Copy CRC 78D75391 Copy OK

Track 7

Filename E:\EAC\Suburban Legends - 2011 - Getting Down To Business [FLAC]\07 - Doing It With You.wav

Peak level 100.0 % Extraction speed 1.9 X Track quality 99.8 % Test CRC 0BBD546A Copy CRC 0BBD546A Copy OK

Track 8

Filename E:\EAC\Suburban Legends - 2011 - Getting Down To Business [FLAC]\08 - Fire.wav

Peak level 100.0 % Extraction speed 3.8 X Track quality 100.0 % Test CRC D9DE92D1 Copy CRC D9DE92D1 Copy OK

Track 9

Filename E:\EAC\Suburban Legends - 2011 - Getting Down To Business [FLAC]\09 - Getting Down To Business.wav

Peak level 100.0 % Extraction speed 4.0 X Track quality 100.0 % Test CRC C062FC27 Copy CRC C062FC27 Copy OK

Track 10

Filename E:\EAC\Suburban Legends - 2011 - Getting Down To Business [FLAC]\10 - So Fine.wav

Peak level 100.0 % Extraction speed 4.1 X Track quality 100.0 % Test CRC 59D8C513 Copy CRC 59D8C513 Copy OK

Track 11

Filename E:\EAC\Suburban Legends - 2011 - Getting Down To Business [FLAC]\11 - Win A Date.wav

Peak level 100.0 % Extraction speed 4.1 X Track quality 100.0 % Test CRC F783B41A Copy CRC F783B41A Copy OK

Track 12

Filename E:\EAC\Suburban Legends - 2011 - Getting Down To Business [FLAC]\12 - Come Back Home.wav

Peak level 100.0 % Extraction speed 4.4 X Track quality 100.0 % Test CRC 62096B6A Copy CRC 62096B6A Copy OK

No errors occurred

End of status report

==== Log checksum 0CE36D173B62634A4BC846204C632753E6F37006969ACD631B4663B8C90A9C11 ====
 
REM GENRE SkaREM DATE 2011REM DISCID 8E09140CREM COMMENT "ExactAudioCopy v1.0b1"PERFORMER "Suburban Legends"TITLE "Getting Down To Business"FILE "01 - Dance Dance Dance.wav" WAVE TRACK 01 AUDIO TITLE "Dance Dance Dance" PERFORMER "Suburban Legends" INDEX 01 00:00:00FILE "02 - Take The Next Step.wav" WAVE TRACK 02 AUDIO TITLE "Take The Next Step" PERFORMER "Suburban Legends" INDEX 01 00:00:00FILE "03 - Girls Got What I Want.wav" WAVE TRACK 03 AUDIO TITLE "Girls Got What I Want" PERFORMER "Suburban Legends" INDEX 01 00:00:00FILE "04 - Open Up Your Eyes.wav" WAVE TRACK 04 AUDIO TITLE "Open Up Your Eyes" PERFORMER "Suburban Legends" INDEX 01 00:00:00FILE "05 - Whoa.wav" WAVE TRACK 05 AUDIO TITLE "Whoa" PERFORMER "Suburban Legends" INDEX 01 00:00:00FILE "06 - My Friend.wav" WAVE TRACK 06 AUDIO TITLE "My Friend" PERFORMER "Suburban Legends" INDEX 01 00:00:00FILE "07 - Doing It With You.wav" WAVE TRACK 07 AUDIO TITLE "Doing It With You" PERFORMER "Suburban Legends" INDEX 01 00:00:00FILE "08 - Fire.wav" WAVE TRACK 08 AUDIO TITLE "Fire" PERFORMER "Suburban Legends" INDEX 01 00:00:00FILE "09 - Getting Down To Business.wav" WAVE TRACK 09 AUDIO TITLE "Getting Down To Business" PERFORMER "Suburban Legends" INDEX 01 00:00:00FILE "10 - So Fine.wav" WAVE TRACK 10 AUDIO TITLE "So Fine" PERFORMER "Suburban Legends" INDEX 01 00:00:00FILE "11 - Win A Date.wav" WAVE TRACK 11 AUDIO TITLE "Win A Date" PERFORMER "Suburban Legends" INDEX 01 00:00:00FILE "12 - Come Back Home.wav" WAVE TRACK 12 AUDIO TITLE "Come Back Home" PERFORMER "Suburban Legends" INDEX 01 00:00:00
EPs:
01 - Popular Demand (02:53)
02 - I Want More (04:14)
03 - Don Juan (03:09)
04 - Alternative is Dead (02:51)
05 - Desperate (03:41)
 
X Lossless Decoder version 20091202 (114.5)

XLD extraction logfile from 2009-12-03 09:45:20 -0500

Suburban Legends / Suburban Legends

Used drive : HL-DT-ST DVDRW GA11N (revision KA15)

Use cdparanoia mode : YES (CDParanoia III 10.2 engine)Disable audio cache : OK for the drive with cache less than 2750KBMake use of C2 pointers : NORead offset correction : 667Max retry count : 100

TOC of the extracted CD Track | Start | Length | Start sector | End sector --------------------------------------------------------- 1 | 00:00:00 | 02:52:74 | 0 | 12973 2 | 02:52:74 | 04:14:01 | 12974 | 32024 3 | 07:07:00 | 03:08:66 | 32025 | 46190 4 | 10:15:66 | 02:51:19 | 46191 | 59034 5 | 13:07:10 | 03:41:06 | 59035 | 75615

All Tracks Album gain : -9.47 dB Peak : 1.000000

Track 01 Filename : /Users/eggwhite/Desktop/01 - Popular Demand.flac /Users/eggwhite/Desktop/01 - Popular Demand.mp3 Track gain : -9.72 dB Peak : 1.000000 CRC32 hash (test run) : 472B3472 CRC32 hash : 472B3472 CRC32 hash (skip zero) : 1CADEA29 AccurateRip signature : 4BC23824 ->Accurately ripped! (confidence 1) Statistics Read error : 0 Skipped (treated as error) : 0 Edge jitter error (maybe fixed) : 0 Atom jitter error (maybe fixed) : 0 Drift error (maybe fixed) : 0 Dropped bytes error (maybe fixed) : 0 Duplicated bytes error (maybe fixed) : 0 Inconsistency in error sectors : 0

Track 02 Filename : /Users/eggwhite/Desktop/02 - I Want More.flac /Users/eggwhite/Desktop/02 - I Want More.mp3 Track gain : -9.92 dB Peak : 1.000000 CRC32 hash (test run) : A23DE0DB CRC32 hash : A23DE0DB CRC32 hash (skip zero) : 090E93A1 AccurateRip signature : E6FC75B5 ->Accurately ripped! (confidence 1) Statistics Read error : 0 Skipped (treated as error) : 0 Edge jitter error (maybe fixed) : 1 Atom jitter error (maybe fixed) : 1 Drift error (maybe fixed) : 0 Dropped bytes error (maybe fixed) : 0 Duplicated bytes error (maybe fixed) : 0 Inconsistency in error sectors : 0

Track 03 Filename : /Users/eggwhite/Desktop/03 - Don Juan.flac /Users/eggwhite/Desktop/03 - Don Juan.mp3 Track gain : -8.32 dB Peak : 1.000000 CRC32 hash (test run) : F93F2AA3 CRC32 hash : F93F2AA3 CRC32 hash (skip zero) : 3118540F AccurateRip signature : 98A9652A ->Accurately ripped! (confidence 1) Statistics Read error : 0 Skipped (treated as error) : 0 Edge jitter error (maybe fixed) : 0 Atom jitter error (maybe fixed) : 0 Drift error (maybe fixed) : 0 Dropped bytes error (maybe fixed) : 0 Duplicated bytes error (maybe fixed) : 0 Inconsistency in error sectors : 0

Track 04 Filename : /Users/eggwhite/Desktop/04 - Alternative is Dead.flac /Users/eggwhite/Desktop/04 - Alternative is Dead.mp3 Track gain : -9.08 dB Peak : 1.000000 CRC32 hash (test run) : 220B22B9 CRC32 hash : 220B22B9 CRC32 hash (skip zero) : 2EF2C5D7 AccurateRip signature : C93F482B ->Accurately ripped! (confidence 1) Statistics Read error : 0 Skipped (treated as error) : 0 Edge jitter error (maybe fixed) : 2 Atom jitter error (maybe fixed) : 2 Drift error (maybe fixed) : 0 Dropped bytes error (maybe fixed) : 0 Duplicated bytes error (maybe fixed) : 0 Inconsistency in error sectors : 0

Track 05 Filename : /Users/eggwhite/Desktop/05 - Desperate.flac /Users/eggwhite/Desktop/05 - Desperate.mp3 Track gain : -9.26 dB Peak : 1.000000 CRC32 hash (test run) : 8F0498C2 CRC32 hash : 8F0498C2 CRC32 hash (skip zero) : CEAC8D76 AccurateRip signature : CF07CC77 ->Accurately ripped! (confidence 1) Statistics Read error : 0 Skipped (treated as error) : 0 Edge jitter error (maybe fixed) : 0 Atom jitter error (maybe fixed) : 0 Drift error (maybe fixed) : 0 Dropped bytes error (maybe fixed) : 0 Duplicated bytes error (maybe fixed) : 0 Inconsistency in error sectors : 0

No errors occurred

End of status report
 
TITLE "Suburban Legends"PERFORMER "Suburban Legends"REM DATE "2001-06"FILE "01 - Popular Demand.wav" WAVE TRACK 01 AUDIO TITLE "Popular Demand" INDEX 01 00:00:00FILE "02 - I Want More.wav" WAVE TRACK 02 AUDIO TITLE "I Want More" INDEX 01 00:00:00FILE "03 - Don Juan.wav" WAVE TRACK 03 AUDIO TITLE "Don Juan" INDEX 01 00:00:00FILE "04 - Alternative is Dead.wav" WAVE TRACK 04 AUDIO TITLE "Alternative is Dead" INDEX 01 00:00:00FILE "05 - Desperate.wav" WAVE TRACK 05 AUDIO TITLE "Desperate" INDEX 01 00:00:00
01 - Come Back Home (03:46)
02 - This Cherry (03:55)
03 - Hey DJ (03:30)
04 - Mean Girl (03:19)
05 - Golden Touch (03:31)
06 - Bright Spring Morning (05:13)
 
EAC extraction logfile from 9. May 2009, 2:47 for CDSuburban Legends / Dance Like Nobody's Watching

Used drive : TSSTcorpCD/DVDW TS-L632D Adapter: 0 ID: 1Read mode : Secure with NO C2, accurate stream, disable cacheRead offset correction : 6Overread into Lead-In and Lead-Out : No

Used output format : C:\Program Files\FLAC\flac.exe (User Defined Encoder) 128 kBit/s Additional command line options : -V -8 -T "artist=%a" -T "title=%t" -T "album=%g" -T "date=%y" -T "tracknumber=%n" -T "genre=%m" %sber=%n -T genre=%m %s

Other options : Fill up missing offset samples with silence : Yes Delete leading and trailing silent blocks : No Installed external ASPI interface

Track 1 Filename C:\Documents and Settings\Adam\Desktop\Rips\Suburban Legends - Dance Like Nobody's Watching\01 - Suburban Legends - Come Back Home.wav

Pre-gap length 0:00:02.00

Peak level 100.0 % Track quality 100.0 % Test CRC A4A518E1 Copy CRC A4A518E1 Copy OK

Track 2 Filename C:\Documents and Settings\Adam\Desktop\Rips\Suburban Legends - Dance Like Nobody's Watching\02 - Suburban Legends - This Cherry.wav

Pre-gap length 0:00:02.00

Peak level 100.0 % Track quality 99.9 % Test CRC B72A8BFF Copy CRC B72A8BFF Copy OK

Track 3 Filename C:\Documents and Settings\Adam\Desktop\Rips\Suburban Legends - Dance Like Nobody's Watching\03 - Suburban Legends - Hey DJ.wav

Pre-gap length 0:00:02.00

Peak level 100.0 % Track quality 100.0 % Test CRC 0136487B Copy CRC 0136487B Copy OK

Track 4 Filename C:\Documents and Settings\Adam\Desktop\Rips\Suburban Legends - Dance Like Nobody's Watching\04 - Suburban Legends - Mean Girl.wav

Pre-gap length 0:00:02.00

Peak level 100.0 % Track quality 99.9 % Test CRC 561A6F39 Copy CRC 561A6F39 Copy OK

Track 5 Filename C:\Documents and Settings\Adam\Desktop\Rips\Suburban Legends - Dance Like Nobody's Watching\05 - Suburban Legends - Golden Touch.wav

Pre-gap length 0:00:02.00

Peak level 100.0 % Track quality 100.0 % Test CRC 3BA8E8EF Copy CRC 3BA8E8EF Copy OK

Track 6 Filename C:\Documents and Settings\Adam\Desktop\Rips\Suburban Legends - Dance Like Nobody's Watching\06 - Suburban Legends - Bright Spring Morning.wav

Pre-gap length 0:00:02.00

Peak level 100.0 % Track quality 100.0 % Test CRC CD3193CE Copy CRC CD3193CE Copy OK

No errors occured

End of status report
 
REM GENRE RockREM DATE 2006REM DISCID 47057106REM COMMENT "ExactAudioCopy v0.95b4"PERFORMER "Suburban Legends"TITLE "Dance Like Nobody's Watching EP"FILE "01 - Come Back Home.wav" WAVE TRACK 01 AUDIO TITLE "Come Back Home" PERFORMER "Suburban Legends" INDEX 01 00:00:00 TRACK 02 AUDIO TITLE "This Cherry" PERFORMER "Suburban Legends" INDEX 00 03:43:54FILE "02 - This Cherry.wav" WAVE INDEX 01 00:00:00 TRACK 03 AUDIO TITLE "Hey DJ" PERFORMER "Suburban Legends" INDEX 00 03:53:31FILE "03 - Hey DJ.wav" WAVE INDEX 01 00:00:00 TRACK 04 AUDIO TITLE "Mean Girl" PERFORMER "Suburban Legends" INDEX 00 03:28:24FILE "04 - Mean Girl.wav" WAVE INDEX 01 00:00:00 TRACK 05 AUDIO TITLE "Golden Touch" PERFORMER "Suburban Legends" INDEX 00 03:16:42FILE "05 - Golden Touch.wav" WAVE INDEX 01 00:00:00 TRACK 06 AUDIO TITLE "Bright Spring Morning" PERFORMER "Suburban Legends" INDEX 00 03:29:00FILE "06 - Bright Spring Morning.wav" WAVE INDEX 01 00:00:00
01 - Dance Dance (03:32)
02 - Take The Next Step (02:38)
03 - Open Up Your Eyes (03:05)
04 - Woah (03:18)
05 - My Friend (03:10)
06 - Doing It With You (01:23)
07 - Going On Tour (01:50)
 
Exact Audio Copy V0.99 prebeta 5 from 4. May 2009

EAC extraction logfile from 24. January 2011, 16:42

Suburban Legends / Going On Tour

Used drive : Optiarc DVD RW AD-7220S Adapter: 3 ID: 1

Read mode : SecureUtilize accurate stream : YesDefeat audio cache : YesMake use of C2 pointers : No

Read offset correction : 6Overread into Lead-In and Lead-Out : NoFill up missing offset samples with silence : YesDelete leading and trailing silent blocks : NoNull samples used in CRC calculations : YesUsed interface : Native Win32 interface for Win NT & 2000Gap handling : Appended to previous track

Used output format : User Defined EncoderSelected bitrate : 768 kBit/sQuality : HighAdd ID3 tag : NoCommand line compressor : C:\Program Files (x86)\Exact Audio Copy\FLAC\FLAC.EXEAdditional command line options : -V -8 -T "artist=%a" -T "title=%t" -T "album=%g" -T "date=%y" -T "tracknumber=%n" -T "genre=%m" %s

TOC of the extracted CD

Track | Start | Length | Start sector | End sector --------------------------------------------------------- 1 | 0:00.00 | 3:32.37 | 0 | 15936 2 | 3:32.37 | 2:38.13 | 15937 | 27799 3 | 6:10.50 | 3:05.07 | 27800 | 41681 4 | 9:15.57 | 3:18.30 | 41682 | 56561 5 | 12:34.12 | 3:10.19 | 56562 | 70830 6 | 15:44.31 | 1:22.74 | 70831 | 77054 7 | 17:07.30 | 1:50.14 | 77055 | 85318

Track 1

Filename C:\EACRips\Suburban Legends - Going On Tour [FLAC] - 2010\01 DANCE DANCE.wav

Pre-gap length 0:00:02.00

Peak level 100.0 % Track quality 99.9 % Test CRC 9B4C6361 Copy CRC 9B4C6361 Cannot be verified as accurate (confidence 1) [59ED3F8E], AccurateRip returned [239FCF07] Copy OK

Track 2

Filename C:\EACRips\Suburban Legends - Going On Tour [FLAC] - 2010\02 TAKE THE NEXT STEP.wav

Peak level 100.0 % Track quality 100.0 % Test CRC A1C14F00 Copy CRC A1C14F00 Cannot be verified as accurate (confidence 1) [54224683], AccurateRip returned [0BEF509D] Copy OK

Track 3

Filename C:\EACRips\Suburban Legends - Going On Tour [FLAC] - 2010\03 OPEN UP YOUR EYES.wav

Peak level 100.0 % Track quality 100.0 % Test CRC 1BD1E559 Copy CRC 1BD1E559 Cannot be verified as accurate (confidence 1) [9CEAF9D2], AccurateRip returned [C4C27149] Copy OK

Track 4

Filename C:\EACRips\Suburban Legends - Going On Tour [FLAC] - 2010\04 WOAH.wav

Peak level 100.0 % Track quality 100.0 % Test CRC B92DC760 Copy CRC B92DC760 Cannot be verified as accurate (confidence 1) [1D4D34EF], AccurateRip returned [59097FC2] Copy OK

Track 5

Filename C:\EACRips\Suburban Legends - Going On Tour [FLAC] - 2010\05 My Friend.wav

Peak level 100.0 % Track quality 99.9 % Test CRC 09B8A2DB Copy CRC 09B8A2DB Cannot be verified as accurate (confidence 1) [BA231507], AccurateRip returned [3A392BBD] Copy OK

Track 6

Filename C:\EACRips\Suburban Legends - Going On Tour [FLAC] - 2010\06 Doing It With You.wav

Peak level 100.0 % Track quality 100.0 % Test CRC CB01F31E Copy CRC CB01F31E Cannot be verified as accurate (confidence 1) [523E0D0C], AccurateRip returned [80B0FEC7] Copy OK

Track 7

Filename C:\EACRips\Suburban Legends - Going On Tour [FLAC] - 2010\07 Going On Tour.wav

Peak level 100.0 % Track quality 100.0 % Test CRC 394994D6 Copy CRC 394994D6 Cannot be verified as accurate (confidence 1) [E70F5AF2], AccurateRip returned [5C0EF0BA] Copy OK

No tracks could be verified as accurateYou may have a different pressing from the one(s) in the database

No errors occurred

End of status report
 
REM GENRE SkaREM DATE 2010REM DISCID 57047107REM COMMENT "ExactAudioCopy v0.99pb5"PERFORMER "Suburban Legends"TITLE "Going On Tour"FILE "01 - Dance Dance.wav" WAVE TRACK 01 AUDIO TITLE "Dance Dance" PERFORMER "Suburban Legends" INDEX 01 00:00:00FILE "02 - Take The Next Step.wav" WAVE TRACK 02 AUDIO TITLE "Take The Next Step" PERFORMER "Suburban Legends" INDEX 01 00:00:00FILE "03 - Open Up Your Eyes.wav" WAVE TRACK 03 AUDIO TITLE "Open Up Your Eyes" PERFORMER "Suburban Legends" INDEX 01 00:00:00FILE "04 - Woah.wav" WAVE TRACK 04 AUDIO TITLE "Woah" PERFORMER "Suburban Legends" INDEX 01 00:00:00FILE "05 - My Friend.wav" WAVE TRACK 05 AUDIO TITLE "My Friend" PERFORMER "Suburban Legends" INDEX 01 00:00:00FILE "06 - Doing It With You.wav" WAVE TRACK 06 AUDIO TITLE "Doing It With You" PERFORMER "Suburban Legends" INDEX 01 00:00:00FILE "07 - Going On Tour.wav" WAVE TRACK 07 AUDIO TITLE "Going On Tour" PERFORMER "Suburban Legends" INDEX 01 00:00:00




Трекер:  [ 16-Дек-2011 22:15 ]

  

Скачать .torrent

Размер .torrent файла 23 KB


Размер: 1.54 GB
Хэш (hash) релиза: 28923412883bb398e30cf7ca2192b960765fa0fe

bot

Топик был перенесен в форум Зарубежный Reggae, Ska, Dub (lossless)

Перенес Ronaldo C

Хотите добавить комментарий к записи скачать торрент Suburban Legends

!Обратная связь