Isabelle Defrénois-Souleau | Google Chrome APK 67.0.3396.87 | Télécharger Part 6

Скачать через торрент музыку The Bakesys - The Bakesys бесплатно без регистрации torrent

Статистика раздачи
Размер:  409 MB   |    Зарегистрирован:  6 лет 5 месяцев   |    .torrent скачан:  35 раз   |   
Раздают:  1  
   
загрузка...
 
Автор Сообщение

Galfimbul

avatar Galfimbul



The Bakesys - The Bakesys (1997); Return To The Planet Of The Bakesys (Live) (2009)

Жанр: Post-Punk, Early Reggae, Punky Roots, Ska
Аудио кодек: FLAC
Тип рипа: tracks+.cue
Источник: локальная сеть
Страна: UK, Newbury

Лейбл: Do the Dog
Catalog Number: DOGCD01
Продолжительность: 30мин 05с

Треклист:
01. Sex Freaks
02. The Lick
03. Looking For Love
04. Life So Tuff
05. Confused
06. Open All Hours
07. Animated Violence
08. Days Gone By
09. Grass Is Greener
10. Life So Dub
 
Exact Audio Copy V0.99 prebeta 5 from 4. May 2009

EAC extraction logfile from 1. September 2010, 19:15

The Bakesys / The Bakesys

Used drive : SONY DVD-ROM DDU1615 Adapter: 1 ID: 0

Read mode : SecureUtilize accurate stream : YesDefeat audio cache : YesMake use of C2 pointers : No

Read offset correction : 6Overread into Lead-In and Lead-Out : NoFill up missing offset samples with silence : YesDelete leading and trailing silent blocks : NoNull samples used in CRC calculations : YesUsed interface : Native Win32 interface for Win NT & 2000Gap handling : Appended to previous track

Used output format : User Defined EncoderSelected bitrate : 128 kBit/sQuality : HighAdd ID3 tag : NoCommand line compressor : C:\Program Files\Exact Audio Copy\Flac\flac.exeAdditional command line options : -V -8 -T "artist=%a" -T "title=%t" -T "album=%g" -T "date=%y" -T "tracknumber=%n" -T "genre=%m" %s

TOC of the extracted CD

Track | Start | Length | Start sector | End sector --------------------------------------------------------- 1 | 0:00.00 | 2:44.17 | 0 | 12316 2 | 2:44.17 | 2:36.50 | 12317 | 24066 3 | 5:20.67 | 3:30.68 | 24067 | 39884 4 | 8:51.60 | 2:52.45 | 39885 | 52829 5 | 11:44.30 | 2:30.52 | 52830 | 64131 6 | 14:15.07 | 2:27.68 | 64132 | 75224 7 | 16:43.00 | 3:55.00 | 75225 | 92849 8 | 20:38.00 | 3:26.52 | 92850 | 108351 9 | 24:04.52 | 2:38.40 | 108352 | 120241 10 | 26:43.17 | 3:22.58 | 120242 | 135449

Track 1

Filename G:\EACrips\The Bakesys - The Bakesys (1997) - FLAC\01 - Sex Freaks.wav

Pre-gap length 0:00:02.00

Peak level 78.3 % Track quality 100.0 % Test CRC 3CD5FA2A Copy CRC 3CD5FA2A Track not present in AccurateRip database Copy OK

Track 2

Filename G:\EACrips\The Bakesys - The Bakesys (1997) - FLAC\02 - The Lick.wav

Pre-gap length 0:00:01.29

Peak level 83.6 % Track quality 100.0 % Test CRC 6B36A454 Copy CRC 6B36A454 Track not present in AccurateRip database Copy OK

Track 3

Filename G:\EACrips\The Bakesys - The Bakesys (1997) - FLAC\03 - Looking For Love.wav

Pre-gap length 0:00:01.86

Peak level 90.3 % Track quality 100.0 % Test CRC 0D99134B Copy CRC 0D99134B Track not present in AccurateRip database Copy OK

Track 4

Filename G:\EACrips\The Bakesys - The Bakesys (1997) - FLAC\04 - Life So Tuff.wav

Pre-gap length 0:00:01.93

Peak level 99.0 % Track quality 100.0 % Test CRC 79DB6CCE Copy CRC 79DB6CCE Track not present in AccurateRip database Copy OK

Track 5

Filename G:\EACrips\The Bakesys - The Bakesys (1997) - FLAC\05 - Confused.wav

Pre-gap length 0:00:02.06

Peak level 99.6 % Track quality 100.0 % Test CRC E6BEAD26 Copy CRC E6BEAD26 Track not present in AccurateRip database Copy OK

Track 6

Filename G:\EACrips\The Bakesys - The Bakesys (1997) - FLAC\06 - Open All Hours.wav

Pre-gap length 0:00:02.00

Peak level 99.2 % Track quality 100.0 % Test CRC 78A4A87F Copy CRC 78A4A87F Track not present in AccurateRip database Copy OK

Track 7

Filename G:\EACrips\The Bakesys - The Bakesys (1997) - FLAC\07 - Animated Violence.wav

Pre-gap length 0:00:02.20

Peak level 100.0 % Track quality 100.0 % Test CRC 1335A786 Copy CRC 1335A786 Track not present in AccurateRip database Copy OK

Track 8

Filename G:\EACrips\The Bakesys - The Bakesys (1997) - FLAC\08 - Days Gone By.wav

Pre-gap length 0:00:01.80

Peak level 83.6 % Track quality 100.0 % Test CRC 928F9ABC Copy CRC 928F9ABC Track not present in AccurateRip database Copy OK

Track 9

Filename G:\EACrips\The Bakesys - The Bakesys (1997) - FLAC\09 - Grass Is Greener.wav

Pre-gap length 0:00:01.26

Peak level 76.8 % Track quality 100.0 % Test CRC 9738863A Copy CRC 9738863A Track not present in AccurateRip database Copy OK

Track 10

Filename G:\EACrips\The Bakesys - The Bakesys (1997) - FLAC\10 - Life So Dub.wav

Pre-gap length 0:00:02.09

Peak level 99.5 % Track quality 100.0 % Test CRC E1674BCC Copy CRC E1674BCC Track not present in AccurateRip database Copy OK

None of the tracks are present in the AccurateRip database

No errors occurred

End of status report
 
REM GENRE SkaREM DATE 1997REM DISCID 6A070E0AREM COMMENT "ExactAudioCopy v0.99pb5"PERFORMER "The Bakesys"TITLE "The Bakesys"FILE "01 - Sex Freaks.wav" WAVE TRACK 01 AUDIO TITLE "Sex Freaks" PERFORMER "The Bakesys" INDEX 01 00:00:00 TRACK 02 AUDIO TITLE "The Lick" PERFORMER "The Bakesys" INDEX 00 02:42:70FILE "02 - The Lick.wav" WAVE INDEX 01 00:00:00 TRACK 03 AUDIO TITLE "Looking For Love" PERFORMER "The Bakesys" INDEX 00 02:34:60FILE "03 - Looking For Love.wav" WAVE INDEX 01 00:00:00 TRACK 04 AUDIO TITLE "Life So Tuff" PERFORMER "The Bakesys" INDEX 00 03:28:73FILE "04 - Life So Tuff.wav" WAVE INDEX 01 00:00:00 TRACK 05 AUDIO TITLE "Confused" PERFORMER "The Bakesys" INDEX 00 02:50:40FILE "05 - Confused.wav" WAVE INDEX 01 00:00:00 TRACK 06 AUDIO TITLE "Open All Hours" PERFORMER "The Bakesys" INDEX 00 02:28:52FILE "06 - Open All Hours.wav" WAVE INDEX 01 00:00:00 TRACK 07 AUDIO TITLE "Animated Violence" PERFORMER "The Bakesys" INDEX 00 02:25:53FILE "07 - Animated Violence.wav" WAVE INDEX 01 00:00:00 TRACK 08 AUDIO TITLE "Days Gone By" PERFORMER "The Bakesys" INDEX 00 03:53:15FILE "08 - Days Gone By.wav" WAVE INDEX 01 00:00:00 TRACK 09 AUDIO TITLE "Grass Is Greener" PERFORMER "The Bakesys" INDEX 00 03:25:32FILE "09 - Grass Is Greener.wav" WAVE INDEX 01 00:00:00 TRACK 10 AUDIO TITLE "Life So Dub" PERFORMER "The Bakesys" INDEX 00 02:36:33FILE "10 - Life So Dub.wav" WAVE INDEX 01 00:00:00


Лейбл: Do The Dog
Catalog Number: DOGCD43
Продолжительность: 35мин 34с

Треклист:
01. Piddler's Song
02. Sunnyside Up
03. Life So Tuff
04. Liquidator
05. Sex Freaks
06. Revolution
07. Manic Days
08. Days Gone By
09. Animated Violence
10. Old
11. Looking For Love
 
Exact Audio Copy V0.99 prebeta 5 from 4. May 2009

EAC extraction logfile from 11. September 2010, 17:54

The Bakesys / Return To The Planet Of The Bakesys

Used drive : SONY DVD-ROM DDU1615 Adapter: 1 ID: 0

Read mode : SecureUtilize accurate stream : YesDefeat audio cache : YesMake use of C2 pointers : No

Read offset correction : 6Overread into Lead-In and Lead-Out : NoFill up missing offset samples with silence : YesDelete leading and trailing silent blocks : NoNull samples used in CRC calculations : YesUsed interface : Native Win32 interface for Win NT & 2000Gap handling : Appended to previous track

Used output format : User Defined EncoderSelected bitrate : 128 kBit/sQuality : HighAdd ID3 tag : NoCommand line compressor : C:\Program Files\Exact Audio Copy\Flac\flac.exeAdditional command line options : -V -8 -T "artist=%a" -T "title=%t" -T "album=%g" -T "date=%y" -T "tracknumber=%n" -T "genre=%m" %s

TOC of the extracted CD

Track | Start | Length | Start sector | End sector --------------------------------------------------------- 1 | 0:00.00 | 2:35.00 | 0 | 11624 2 | 2:35.00 | 3:06.00 | 11625 | 25574 3 | 5:41.00 | 4:04.00 | 25575 | 43874 4 | 9:45.00 | 2:36.00 | 43875 | 55574 5 | 12:21.00 | 2:45.00 | 55575 | 67949 6 | 15:06.00 | 4:25.00 | 67950 | 87824 7 | 19:31.00 | 2:05.00 | 87825 | 97199 8 | 21:36.00 | 3:29.00 | 97200 | 112874 9 | 25:05.00 | 3:39.43 | 112875 | 129342 10 | 28:44.43 | 3:04.30 | 129343 | 143172 11 | 31:48.73 | 3:45.30 | 143173 | 160077

Track 1

Filename G:\EACrips\The Bakesys - Return To The Planet Of The Bakesys (2009) - FLAC\01 - Piddler's Song.wav

Pre-gap length 0:00:02.00

Peak level 96.2 % Track quality 100.0 % Test CRC 37F1B128 Copy CRC 37F1B128 Track not present in AccurateRip database Copy OK

Track 2

Filename G:\EACrips\The Bakesys - Return To The Planet Of The Bakesys (2009) - FLAC\02 - Sunnyside Up.wav

Peak level 96.2 % Track quality 100.0 % Test CRC 0C4E6DBC Copy CRC 0C4E6DBC Track not present in AccurateRip database Copy OK

Track 3

Filename G:\EACrips\The Bakesys - Return To The Planet Of The Bakesys (2009) - FLAC\03 - Life So Tuff.wav

Peak level 96.2 % Track quality 100.0 % Test CRC 6D3C897F Copy CRC 6D3C897F Track not present in AccurateRip database Copy OK

Track 4

Filename G:\EACrips\The Bakesys - Return To The Planet Of The Bakesys (2009) - FLAC\04 - Liquidator.wav

Peak level 96.2 % Track quality 100.0 % Test CRC B6AE21AC Copy CRC B6AE21AC Track not present in AccurateRip database Copy OK

Track 5

Filename G:\EACrips\The Bakesys - Return To The Planet Of The Bakesys (2009) - FLAC\05 - Sex Freaks.wav

Peak level 94.9 % Track quality 100.0 % Test CRC 6E3632FB Copy CRC 6E3632FB Track not present in AccurateRip database Copy OK

Track 6

Filename G:\EACrips\The Bakesys - Return To The Planet Of The Bakesys (2009) - FLAC\06 - Revolution.wav

Peak level 96.2 % Track quality 99.9 % Test CRC 605BBDED Copy CRC 605BBDED Track not present in AccurateRip database Copy OK

Track 7

Filename G:\EACrips\The Bakesys - Return To The Planet Of The Bakesys (2009) - FLAC\07 - Manid Days.wav

Peak level 96.2 % Track quality 100.0 % Test CRC 909CD247 Copy CRC 909CD247 Track not present in AccurateRip database Copy OK

Track 8

Filename G:\EACrips\The Bakesys - Return To The Planet Of The Bakesys (2009) - FLAC\08 - Days Gone By.wav

Peak level 96.2 % Track quality 100.0 % Test CRC F29C8D64 Copy CRC F29C8D64 Track not present in AccurateRip database Copy OK

Track 9

Filename G:\EACrips\The Bakesys - Return To The Planet Of The Bakesys (2009) - FLAC\09 - Animated Violence.wav

Peak level 96.2 % Track quality 100.0 % Test CRC EDADC5B5 Copy CRC EDADC5B5 Track not present in AccurateRip database Copy OK

Track 10

Filename G:\EACrips\The Bakesys - Return To The Planet Of The Bakesys (2009) - FLAC\10 - Old.wav

Peak level 96.2 % Track quality 100.0 % Test CRC 779E6C35 Copy CRC 779E6C35 Track not present in AccurateRip database Copy OK

Track 11

Filename G:\EACrips\The Bakesys - Return To The Planet Of The Bakesys (2009) - FLAC\11 - Looking For Love.wav

Peak level 96.2 % Track quality 100.0 % Test CRC DF86F682 Copy CRC DF86F682 Track not present in AccurateRip database Copy OK

None of the tracks are present in the AccurateRip database

No errors occurred

End of status report
 
REM GENRE SkaREM DATE 2009REM DISCID 9408560BREM COMMENT "ExactAudioCopy v0.99pb5"PERFORMER "The Bakesys"TITLE "Return To The Planet Of The Bakesys (Live)"FILE "01 - Piddler's Song.wav" WAVE TRACK 01 AUDIO TITLE "Piddler's Song" PERFORMER "The Bakesys" INDEX 01 00:00:00FILE "02 - Sunnyside Up.wav" WAVE TRACK 02 AUDIO TITLE "Sunnyside Up" PERFORMER "The Bakesys" INDEX 01 00:00:00FILE "03 - Life So Tuff.wav" WAVE TRACK 03 AUDIO TITLE "Life So Tuff" PERFORMER "The Bakesys" INDEX 01 00:00:00FILE "04 - Liquidator.wav" WAVE TRACK 04 AUDIO TITLE "Liquidator" PERFORMER "The Bakesys" INDEX 01 00:00:00FILE "05 - Sex Freaks.wav" WAVE TRACK 05 AUDIO TITLE "Sex Freaks" PERFORMER "The Bakesys" INDEX 01 00:00:00FILE "06 - Revolution.wav" WAVE TRACK 06 AUDIO TITLE "Revolution" PERFORMER "The Bakesys" INDEX 01 00:00:00FILE "07 - Manid Days.wav" WAVE TRACK 07 AUDIO TITLE "Manid Days" PERFORMER "The Bakesys" INDEX 01 00:00:00FILE "08 - Days Gone By.wav" WAVE TRACK 08 AUDIO TITLE "Days Gone By" PERFORMER "The Bakesys" INDEX 01 00:00:00FILE "09 - Animated Violence.wav" WAVE TRACK 09 AUDIO TITLE "Animated Violence" PERFORMER "The Bakesys" INDEX 01 00:00:00FILE "10 - Old.wav" WAVE TRACK 10 AUDIO TITLE "Old" PERFORMER "The Bakesys" INDEX 01 00:00:00FILE "11 - Looking For Love.wav" WAVE TRACK 11 AUDIO TITLE "Looking For Love" PERFORMER "The Bakesys" INDEX 01 00:00:00



Трекер:  [ 03-Фев-2012 01:14 ]

  

Скачать .torrent

Размер .torrent файла 20 KB


Размер: 409 MB
Хэш (hash) релиза: 9d5c13f96ba281ceb3b3ab810a94604d6f3291ad

Еще никто не оставлял запись к записи скачать торрент The Bakesys - The Bakesys . Будь первым!

!Обратная связь