Télécharger Part 1 | Pitbull - Give Me Everything ft. Ne-Yo, Afrojack, Nayer.mp3 {Speed9Hunter} | A Pillow Case Of Mystery Season 2

Скачать через торрент музыку Catch-it Kebabs - Skankin Sausages бесплатно без регистрации torrent

Статистика раздачи
Размер:  374 MB   |    Зарегистрирован:  6 лет 7 месяцев   |    .torrent скачан:  31 раз   |   
Раздают:  1  
   
загрузка...
 
Автор Сообщение

_N_

avatar _N_



Catch-it Kebabs - Skankin' Sausages (2004); Return of the Kebabulance (2006)

Жанр: Ska-Punk
Аудио кодек: FLAC
Тип рипа: tracks+.cue
Источник: локальная сеть
Страна: UK, Barnsley

Лейбл: Do the Dog
Catalog Number: DOGCD16
Продолжительность: 35мин 03с

Треклист:
01. 3rd Degree
02. The Feasta
03. Genetic Suicide
04. Selectively Lazy
05. My Little White Friend
06. She Needs Protection
07. Skamasutra
08. Miss Chernobyl
09. Nazi Paparazzi
10. Skankin' Sausages
11. 00-Nothing
 
Exact Audio Copy V0.99 prebeta 5 from 4. May 2009

EAC extraction logfile from 5. June 2010, 10:35

Catch-It Kebabs / Skankin' Sausages

Used drive : SONY DVD-ROM DDU1615 Adapter: 1 ID: 0

Read mode : SecureUtilize accurate stream : YesDefeat audio cache : YesMake use of C2 pointers : No

Read offset correction : 6Overread into Lead-In and Lead-Out : NoFill up missing offset samples with silence : YesDelete leading and trailing silent blocks : NoNull samples used in CRC calculations : YesUsed interface : Native Win32 interface for Win NT & 2000Gap handling : Appended to previous track

Used output format : User Defined EncoderSelected bitrate : 128 kBit/sQuality : HighAdd ID3 tag : NoCommand line compressor : C:\Program Files\Exact Audio Copy\Flac\flac.exeAdditional command line options : -V -8 -T "artist=%a" -T "title=%t" -T "album=%g" -T "date=%y" -T "tracknumber=%n" -T "genre=%m" %s

TOC of the extracted CD

Track | Start | Length | Start sector | End sector --------------------------------------------------------- 1 | 0:00.00 | 2:02.52 | 0 | 9201 2 | 2:02.52 | 2:57.01 | 9202 | 22477 3 | 4:59.53 | 2:30.52 | 22478 | 33779 4 | 7:30.30 | 3:59.74 | 33780 | 51778 5 | 11:30.29 | 2:59.09 | 51779 | 65212 6 | 14:29.38 | 3:08.15 | 65213 | 79327 7 | 17:37.53 | 3:05.41 | 79328 | 93243 8 | 20:43.19 | 4:07.11 | 93244 | 111779 9 | 24:50.30 | 2:41.17 | 111780 | 123871 10 | 27:31.47 | 1:58.47 | 123872 | 132768 11 | 29:30.19 | 5:33.20 | 132769 | 157763

Track 1

Filename C:\EACrips\Catch-It Kebabs - 2004 - Skankin' Sausages[FLAC]\01 - 3rd Degree.wav

Pre-gap length 0:00:02.00

Peak level 97.7 % Track quality 100.0 % Test CRC A31DAB1D Copy CRC A31DAB1D Track not present in AccurateRip database Copy OK

Track 2

Filename C:\EACrips\Catch-It Kebabs - 2004 - Skankin' Sausages[FLAC]\02 - The Feasta.wav

Pre-gap length 0:00:00.92

Peak level 97.7 % Track quality 100.0 % Test CRC 27E17B41 Copy CRC 27E17B41 Track not present in AccurateRip database Copy OK

Track 3

Filename C:\EACrips\Catch-It Kebabs - 2004 - Skankin' Sausages[FLAC]\03 - Genetic Suicide.wav

Pre-gap length 0:00:01.26

Peak level 97.7 % Track quality 100.0 % Test CRC AF7ADD58 Copy CRC AF7ADD58 Track not present in AccurateRip database Copy OK

Track 4

Filename C:\EACrips\Catch-It Kebabs - 2004 - Skankin' Sausages[FLAC]\04 - Selectively Lazy.wav

Pre-gap length 0:00:01.34

Peak level 97.7 % Track quality 100.0 % Test CRC 02D9BD20 Copy CRC 02D9BD20 Track not present in AccurateRip database Copy OK

Track 5

Filename C:\EACrips\Catch-It Kebabs - 2004 - Skankin' Sausages[FLAC]\05 - My Little White Friend.wav

Peak level 97.7 % Track quality 100.0 % Test CRC 6FC3B877 Copy CRC 6FC3B877 Track not present in AccurateRip database Copy OK

Track 6

Filename C:\EACrips\Catch-It Kebabs - 2004 - Skankin' Sausages[FLAC]\06 - She Needs Protection.wav

Pre-gap length 0:00:00.38

Peak level 97.7 % Track quality 100.0 % Test CRC 070ED81E Copy CRC 070ED81E Track not present in AccurateRip database Copy OK

Track 7

Filename C:\EACrips\Catch-It Kebabs - 2004 - Skankin' Sausages[FLAC]\07 - Skamasutra.wav

Pre-gap length 0:00:00.40

Peak level 97.7 % Track quality 100.0 % Test CRC B891712F Copy CRC B891712F Track not present in AccurateRip database Copy OK

Track 8

Filename C:\EACrips\Catch-It Kebabs - 2004 - Skankin' Sausages[FLAC]\08 - Miss Chernobyl.wav

Pre-gap length 0:00:01.04

Peak level 97.7 % Track quality 100.0 % Test CRC C07D4EBD Copy CRC C07D4EBD Track not present in AccurateRip database Copy OK

Track 9

Filename C:\EACrips\Catch-It Kebabs - 2004 - Skankin' Sausages[FLAC]\09 - Nazi Paparazzi.wav

Peak level 97.7 % Track quality 100.0 % Test CRC B2101B99 Copy CRC B2101B99 Track not present in AccurateRip database Copy OK

Track 10

Filename C:\EACrips\Catch-It Kebabs - 2004 - Skankin' Sausages[FLAC]\10 - Skankin' Sausages.wav

Pre-gap length 0:00:00.49

Peak level 97.7 % Track quality 100.0 % Test CRC 997C2F6F Copy CRC 997C2F6F Track not present in AccurateRip database Copy OK

Track 11

Filename C:\EACrips\Catch-It Kebabs - 2004 - Skankin' Sausages[FLAC]\11 - OO-Nothing.wav

Pre-gap length 0:00:00.37

Peak level 97.7 % Track quality 100.0 % Test CRC 779C88F8 Copy CRC 779C88F8 Track not present in AccurateRip database Copy OK

None of the tracks are present in the AccurateRip database

No errors occurred

End of status report
 
REM GENRE SkaREM DATE 2004REM DISCID 8408370BREM COMMENT "ExactAudioCopy v0.99pb5"PERFORMER "Catch-it Kebabs"TITLE "Skankin' Sausages"FILE "01 - 3rd Degree.wav" WAVE TRACK 01 AUDIO TITLE "3rd Degree" PERFORMER "Catch-it Kebabs" INDEX 01 00:00:00 TRACK 02 AUDIO TITLE "The Feasta" PERFORMER "Catch-it Kebabs" INDEX 00 02:01:58FILE "02 - The Feasta.wav" WAVE INDEX 01 00:00:00 TRACK 03 AUDIO TITLE "Genetic Suicide" PERFORMER "Catch-it Kebabs" INDEX 00 02:55:56FILE "03 - Genetic Suicide.wav" WAVE INDEX 01 00:00:00 TRACK 04 AUDIO TITLE "Selectively Lazy" PERFORMER "Catch-it Kebabs" INDEX 00 02:29:26FILE "04 - Selectively Lazy.wav" WAVE INDEX 01 00:00:00FILE "05 - My Little White Friend.wav" WAVE TRACK 05 AUDIO TITLE "My Little White Friend" PERFORMER "Catch-it Kebabs" INDEX 01 00:00:00 TRACK 06 AUDIO TITLE "She Needs Protection" PERFORMER "Catch-it Kebabs" INDEX 00 02:58:55FILE "06 - She Needs Protection.wav" WAVE INDEX 01 00:00:00 TRACK 07 AUDIO TITLE "Skamasutra" PERFORMER "Catch-it Kebabs" INDEX 00 03:07:60FILE "07 - Skamasutra.wav" WAVE INDEX 01 00:00:00 TRACK 08 AUDIO TITLE "Miss Chernobyl" PERFORMER "Catch-it Kebabs" INDEX 00 03:04:38FILE "08 - Miss Chernobyl.wav" WAVE INDEX 01 00:00:00FILE "09 - Nazi Paparazzi.wav" WAVE TRACK 09 AUDIO TITLE "Nazi Paparazzi" PERFORMER "Catch-it Kebabs" INDEX 01 00:00:00 TRACK 10 AUDIO TITLE "Skankin' Sausages" PERFORMER "Catch-it Kebabs" INDEX 00 02:40:55FILE "10 - Skankin' Sausages.wav" WAVE INDEX 01 00:00:00 TRACK 11 AUDIO TITLE "OO-Nothing" PERFORMER "Catch-it Kebabs" INDEX 00 01:58:19FILE "11 - OO-Nothing.wav" WAVE INDEX 01 00:00:00


Лейбл: RIOT Music/Feet First Record
Catalog Number: RIOTCD005
Продолжительность: 22мин 02с

Треклист:
01. 5 years
02. Party Politics
03. Bluelight
04. Subculture Contamination
05. 00 Nothing
06. Rudi Got Swing
07. Damnation
 
Exact Audio Copy V0.99 prebeta 5 from 4. May 2009

EAC extraction logfile from 5. June 2010, 14:49

Catch-It Kebabs / Return of the Kebabulance

Used drive : SONY DVD-ROM DDU1615 Adapter: 1 ID: 0

Read mode : SecureUtilize accurate stream : YesDefeat audio cache : YesMake use of C2 pointers : No

Read offset correction : 6Overread into Lead-In and Lead-Out : NoFill up missing offset samples with silence : YesDelete leading and trailing silent blocks : NoNull samples used in CRC calculations : YesUsed interface : Native Win32 interface for Win NT & 2000Gap handling : Appended to previous track

Used output format : User Defined EncoderSelected bitrate : 128 kBit/sQuality : HighAdd ID3 tag : NoCommand line compressor : C:\Program Files\Exact Audio Copy\Flac\flac.exeAdditional command line options : -V -8 -T "artist=%a" -T "title=%t" -T "album=%g" -T "date=%y" -T "tracknumber=%n" -T "genre=%m" %s

TOC of the extracted CD

Track | Start | Length | Start sector | End sector --------------------------------------------------------- 1 | 0:00.00 | 3:14.25 | 0 | 14574 2 | 3:14.25 | 2:59.27 | 14575 | 28026 3 | 6:13.52 | 2:22.63 | 28027 | 38739 4 | 8:36.40 | 3:13.48 | 38740 | 53262 5 | 11:50.13 | 3:46.26 | 53263 | 70238 6 | 15:36.39 | 2:15.08 | 70239 | 80371 7 | 17:51.47 | 4:10.68 | 80372 | 99189

Track 1

Filename C:\EACrips\Catch-It Kebabs - 2006 - Return of the Kebabulance[FLAC]\01 - 5 Years.wav

Pre-gap length 0:00:02.00

Peak level 96.6 % Track quality 100.0 % Test CRC B10C87C7 Copy CRC B10C87C7 Track not present in AccurateRip database Copy OK

Track 2

Filename C:\EACrips\Catch-It Kebabs - 2006 - Return of the Kebabulance[FLAC]\02 - Party Politics.wav

Pre-gap length 0:00:01.00

Peak level 96.6 % Track quality 100.0 % Test CRC E1E9722F Copy CRC E1E9722F Track not present in AccurateRip database Copy OK

Track 3

Filename C:\EACrips\Catch-It Kebabs - 2006 - Return of the Kebabulance[FLAC]\03 - Bluelight.wav

Peak level 96.6 % Track quality 100.0 % Test CRC 0C22D35A Copy CRC 0C22D35A Track not present in AccurateRip database Copy OK

Track 4

Filename C:\EACrips\Catch-It Kebabs - 2006 - Return of the Kebabulance[FLAC]\04 - Subculture Contamination.wav

Pre-gap length 0:00:01.00

Peak level 96.6 % Track quality 100.0 % Test CRC 81223C5C Copy CRC 81223C5C Track not present in AccurateRip database Copy OK

Track 5

Filename C:\EACrips\Catch-It Kebabs - 2006 - Return of the Kebabulance[FLAC]\05 - OO Nothing.wav

Pre-gap length 0:00:02.00

Peak level 96.6 % Track quality 100.0 % Test CRC D1BEB60A Copy CRC D1BEB60A Track not present in AccurateRip database Copy OK

Track 6

Filename C:\EACrips\Catch-It Kebabs - 2006 - Return of the Kebabulance[FLAC]\06 - Rudi Got Swing.wav

Pre-gap length 0:00:00.33

Peak level 96.6 % Track quality 100.0 % Test CRC DC0585F6 Copy CRC DC0585F6 Track not present in AccurateRip database Copy OK

Track 7

Filename C:\EACrips\Catch-It Kebabs - 2006 - Return of the Kebabulance[FLAC]\07 - Damnation.wav

Pre-gap length 0:00:00.09

Peak level 96.6 % Track quality 100.0 % Test CRC B762D099 Copy CRC B762D099 Track not present in AccurateRip database Copy OK

None of the tracks are present in the AccurateRip database

No errors occurred

End of status report
 
REM GENRE SkaREM DATE 2006REM DISCID 58052A07REM COMMENT "ExactAudioCopy v0.99pb5"PERFORMER "Catch-it Kebabs"TITLE "Return of the Kebabulance"FILE "01 - 5 Years.wav" WAVE TRACK 01 AUDIO TITLE "5 Years" PERFORMER "Catch-it Kebabs" INDEX 01 00:00:00 TRACK 02 AUDIO TITLE "Party Politics" PERFORMER "Catch-it Kebabs" INDEX 00 03:13:25FILE "02 - Party Politics.wav" WAVE INDEX 01 00:00:00FILE "03 - Bluelight.wav" WAVE TRACK 03 AUDIO TITLE "Bluelight" PERFORMER "Catch-it Kebabs" INDEX 01 00:00:00 TRACK 04 AUDIO TITLE "Subculture Contamination" PERFORMER "Catch-it Kebabs" INDEX 00 02:21:63FILE "04 - Subculture Contamination.wav" WAVE INDEX 01 00:00:00 TRACK 05 AUDIO TITLE "OO Nothing" PERFORMER "Catch-it Kebabs" INDEX 00 03:11:48FILE "05 - OO Nothing.wav" WAVE INDEX 01 00:00:00 TRACK 06 AUDIO TITLE "Rudi Got Swing" PERFORMER "Catch-it Kebabs" INDEX 00 03:46:01FILE "06 - Rudi Got Swing.wav" WAVE INDEX 01 00:00:00 TRACK 07 AUDIO TITLE "Damnation" PERFORMER "Catch-it Kebabs" INDEX 00 02:15:01FILE "07 - Damnation.wav" WAVE INDEX 01 00:00:00



Трекер:  [ 16-Дек-2011 22:16 ]

  

Скачать .torrent

Размер .torrent файла 18 KB


Размер: 374 MB
Хэш (hash) релиза: 869d75877a0ddd03c1672046473b274184309a71

bot

Топик был перенесен в форум Зарубежный Reggae, Ska, Dub (lossless)

Перенес Ronaldo C

Хотите добавить комментарий к записи скачать торрент Catch-it Kebabs - Skankin Sausages

!Обратная связь