L'Abc della programmazione | سموحة السكندري و المغرب التطواني | Dying Light Update v1.5.0 Installation Fix-BAT

Скачать через торрент музыку The Scrub - Lifes Torn The Tuna Out And Left Me For A Bread Roll - 2005, FLAC бесплатно без регистрации torrent

Статистика раздачи
Размер:  137 MB   |    Зарегистрирован:  6 лет 5 месяцев   |    .torrent скачан:  36 раз   |   
Раздают:  1  
   
загрузка...
 
Автор Сообщение

Galfimbul

avatar Galfimbul



The Scrub - Lifes Torn The Tuna Out And Left Me For A Bread Roll

Жанр: Ska Revival / Ska Core
Год выпуска диска: 2005
Страна / Лейбл: UK / Do The Dog
Catalog Number: DOGCD21
Аудио кодек: FLAC
Тип рипа: tracks+.cue
Битрейт аудио: lossless
Продолжительность: 22мин 22с
Источник: локальная сеть

Треклист:
01. Fine Time
02. Storm Ahead
03. Rhonda
04. Unstuck
 
Exact Audio Copy V0.99 prebeta 5 from 4. May 2009

EAC extraction logfile from 28. August 2010, 11:39

The Scrub / Lifes Torn the Tuna Out and Left Me for a Bread Roll

Used drive : SONY DVD-ROM DDU1615 Adapter: 1 ID: 0

Read mode : SecureUtilize accurate stream : YesDefeat audio cache : YesMake use of C2 pointers : No

Read offset correction : 6Overread into Lead-In and Lead-Out : NoFill up missing offset samples with silence : YesDelete leading and trailing silent blocks : NoNull samples used in CRC calculations : YesUsed interface : Native Win32 interface for Win NT & 2000Gap handling : Appended to previous track

Used output format : User Defined EncoderSelected bitrate : 128 kBit/sQuality : HighAdd ID3 tag : NoCommand line compressor : C:\Program Files\Exact Audio Copy\Flac\flac.exeAdditional command line options : -V -8 -T "artist=%a" -T "title=%t" -T "album=%g" -T "date=%y" -T "tracknumber=%n" -T "genre=%m" %s

TOC of the extracted CD

Track | Start | Length | Start sector | End sector --------------------------------------------------------- 1 | 0:00.00 | 5:17.25 | 0 | 23799 2 | 5:17.25 | 3:17.48 | 23800 | 38622 3 | 8:34.73 | 4:27.30 | 38623 | 58677 4 | 13:02.28 | 9:19.62 | 58678 | 100664

Track 1

Filename G:\EACrips\The Scrub - Lifes Torn the Tuna Out and Left Me for a Bread Roll (2005) - FLAC\01 - Fine Time.wav

Pre-gap length 0:00:02.00

Peak level 100.0 % Track quality 100.0 % Test CRC A6056A8C Copy CRC A6056A8C Track not present in AccurateRip database Copy OK

Track 2

Filename G:\EACrips\The Scrub - Lifes Torn the Tuna Out and Left Me for a Bread Roll (2005) - FLAC\02 - Storm Ahead.wav

Peak level 100.0 % Track quality 100.0 % Test CRC 0086FE4F Copy CRC 0086FE4F Track not present in AccurateRip database Copy OK

Track 3

Filename G:\EACrips\The Scrub - Lifes Torn the Tuna Out and Left Me for a Bread Roll (2005) - FLAC\03 - Rhonda.wav

Peak level 100.0 % Track quality 100.0 % Test CRC A8B5D43F Copy CRC A8B5D43F Track not present in AccurateRip database Copy OK

Track 4

Filename G:\EACrips\The Scrub - Lifes Torn the Tuna Out and Left Me for a Bread Roll (2005) - FLAC\04 - Unstuck .wav

Peak level 100.0 % Track quality 100.0 % Test CRC 27D369C6 Copy CRC 27D369C6 Track not present in AccurateRip database Copy OK

None of the tracks are present in the AccurateRip database

No errors occurred

End of status report
 
REM GENRE SkaREM DATE 2005REM DISCID 2E053E04REM COMMENT "ExactAudioCopy v0.99pb5"PERFORMER "The Scrub"TITLE "Lifes Torn The Tuna Out And Left Me For A Bread Roll"FILE "01 - Fine Time.wav" WAVE TRACK 01 AUDIO TITLE "Fine Time" PERFORMER "The Scrub" INDEX 01 00:00:00FILE "02 - Storm Ahead.wav" WAVE TRACK 02 AUDIO TITLE "Storm Ahead" PERFORMER "The Scrub" INDEX 01 00:00:00FILE "03 - Rhonda.wav" WAVE TRACK 03 AUDIO TITLE "Rhonda" PERFORMER "The Scrub" INDEX 01 00:00:00FILE "04 - Unstuck .wav" WAVE TRACK 04 AUDIO TITLE "Unstuck" PERFORMER "The Scrub" INDEX 01 00:00:00



Трекер:  [ 03-Фев-2012 01:13 ]

  

Скачать .torrent

Размер .torrent файла 12 KB


Размер: 137 MB
Хэш (hash) релиза: cf98ebf0988ac9532aedecd0e99dc18e32abba9b

Еще никто не оставлял запись к записи скачать торрент The Scrub - Lifes Torn The Tuna Out And Left Me For A Bread Roll - 2005, FLAC . Будь первым!

!Обратная связь