Elvis Costello - Detour Live at Liverpool Philharmonic Hall. | Super Star Academy | Regarder un film

Скачать через торрент музыку Hopalong Knut бесплатно без регистрации torrent

Статистика раздачи
Размер:  800 MB   |    Зарегистрирован:  6 лет 7 месяцев   |    .torrent скачан:  44 раза   |   
Раздают:  1  
   
загрузка...
 
Автор Сообщение

_N_

avatar _N_


Hopalong Knut

Жанр: Ska / Reggae / Dub || Страна: Norway || Аудио кодек: FLAC || Тип рипа: tracks+.cue || Битрейт аудио: lossless || Источник: what.cd
01 - Feilkalibrert Tidsmaskin (03:17)
02 - Jabbsaft (02:36)
03 - Lykkejegere (03:39)
04 - Bokhandlern Din (03:09)
05 - Hallo Jænki (02:52)
06 - Suppe (03:44)
07 - Sol & Jubel (03:50)
08 - Brupyroman (02:47)
09 - Hap (03:48)
10 - Artikaill (03:05)
11 - Bautastein (02:32)
12 - Gjor Det Sjol (03:37)
13 - Hallo Jænki (03:48)
 
EAC extraction logfile from 8. December 2008, 21:52 for CDHopalong Knut / Feilkalibrert Tidsmaskin

Used drive : ATAPI CDROM DRIVE-50MAX Adapter: 0 ID: 3Read mode : Secure with NO C2, accurate stream, disable cacheRead offset correction : 12Overread into Lead-In and Lead-Out : No

Used output format : C:\Program Files\FLAC\flac.exe (User Defined Encoder) 192 kBit/s Additional command line options : -8 -A tukey(0.25) -A gauss(0.1875) -b 4096 -V -T "artist=%a" -T "title=%t" -T "album=%g" -T "date=%y" -T "tracknumber=%n" -T "genre=%m" %s --sector-align

Other options : Fill up missing offset samples with silence : Yes Delete leading and trailing silent blocks : No Installed external ASPI interface

Track 1 Filename F:\Uploads\Hopalong Knut - Feilkalibrert Tidsmaskin - 2006 - FLAC\01 - Hopalong Knut - Feilkalibrert Tidsmaskin.wav

Pre-gap length 0:00:02.00

Peak level 98.8 % Track quality 99.9 % Test CRC 533D087A Copy CRC 533D087A Copy OK

Track 2 Filename F:\Uploads\Hopalong Knut - Feilkalibrert Tidsmaskin - 2006 - FLAC\02 - Hopalong Knut - Jabbsaft.wav

Peak level 94.6 % Track quality 100.0 % Test CRC 2664807B Copy CRC 2664807B Copy OK

Track 3 Filename F:\Uploads\Hopalong Knut - Feilkalibrert Tidsmaskin - 2006 - FLAC\03 - Hopalong Knut - Lykkejegere.wav

Peak level 95.6 % Track quality 99.9 % Test CRC 7575F279 Copy CRC 7575F279 Copy OK

Track 4 Filename F:\Uploads\Hopalong Knut - Feilkalibrert Tidsmaskin - 2006 - FLAC\04 - Hopalong Knut - Bokhandlern Din.wav

Peak level 95.7 % Track quality 100.0 % Test CRC CBB50D62 Copy CRC CBB50D62 Copy OK

Track 5 Filename F:\Uploads\Hopalong Knut - Feilkalibrert Tidsmaskin - 2006 - FLAC\05 - Hopalong Knut - Hallo Jжnki.wav

Peak level 95.5 % Track quality 100.0 % Test CRC 40504FB7 Copy CRC 40504FB7 Copy OK

Track 6 Filename F:\Uploads\Hopalong Knut - Feilkalibrert Tidsmaskin - 2006 - FLAC\06 - Hopalong Knut - Suppe.wav

Peak level 95.4 % Track quality 100.0 % Test CRC D170E3EC Copy CRC D170E3EC Copy OK

Track 7 Filename F:\Uploads\Hopalong Knut - Feilkalibrert Tidsmaskin - 2006 - FLAC\07 - Hopalong Knut - Sol & Jubel.wav

Peak level 94.9 % Track quality 100.0 % Test CRC 2A8224E9 Copy CRC 2A8224E9 Copy OK

Track 8 Filename F:\Uploads\Hopalong Knut - Feilkalibrert Tidsmaskin - 2006 - FLAC\08 - Hopalong Knut - Brupyroman.wav

Peak level 95.8 % Track quality 100.0 % Test CRC 0E4E97CD Copy CRC 0E4E97CD Copy OK

Track 9 Filename F:\Uploads\Hopalong Knut - Feilkalibrert Tidsmaskin - 2006 - FLAC\09 - Hopalong Knut - Hеp.wav

Peak level 97.3 % Track quality 100.0 % Test CRC 59CA60A8 Copy CRC 59CA60A8 Copy OK

Track 10 Filename F:\Uploads\Hopalong Knut - Feilkalibrert Tidsmaskin - 2006 - FLAC\10 - Hopalong Knut - Artikaill.wav

Peak level 96.1 % Track quality 100.0 % Test CRC F32C67DD Copy CRC F32C67DD Copy OK

Track 11 Filename F:\Uploads\Hopalong Knut - Feilkalibrert Tidsmaskin - 2006 - FLAC\11 - Hopalong Knut - Bautastein.wav

Peak level 95.9 % Track quality 100.0 % Test CRC 95397812 Copy CRC 95397812 Copy OK

Track 12 Filename F:\Uploads\Hopalong Knut - Feilkalibrert Tidsmaskin - 2006 - FLAC\12 - Hopalong Knut - Gjшr Det Sjшl.wav

Peak level 100.0 % Track quality 99.9 % Test CRC CD33939D Copy CRC CD33939D Copy OK

Track 13 Filename F:\Uploads\Hopalong Knut - Feilkalibrert Tidsmaskin - 2006 - FLAC\13 - Hopalong Knut - Hallo Jжnki.wav

Peak level 98.9 % Track quality 100.0 % Test CRC 932611E3 Copy CRC 932611E3 Copy OK

No errors occured

End of status report
 
REM GENRE SkaREM DATE 2006REM DISCID D20CE90EREM COMMENT "ExactAudioCopy v0.95b4"PERFORMER "Hopalong Knut"TITLE "Feilkalibrert Tidsmaskin"FILE "01 - Feilkalibrert Tidsmaskin.wav" WAVE TRACK 01 AUDIO TITLE "Feilkalibrert Tidsmaskin" PERFORMER "Hopalong Knut" FLAGS DCP INDEX 01 00:00:00FILE "02 - Jabbsaft.wav" WAVE TRACK 02 AUDIO TITLE "Jabbsaft" PERFORMER "Hopalong Knut" FLAGS DCP INDEX 01 00:00:00FILE "03 - Lykkejegere.wav" WAVE TRACK 03 AUDIO TITLE "Lykkejegere" PERFORMER "Hopalong Knut" FLAGS DCP INDEX 01 00:00:00FILE "04 - Bokhandlern Din.wav" WAVE TRACK 04 AUDIO TITLE "Bokhandlern Din" PERFORMER "Hopalong Knut" FLAGS DCP INDEX 01 00:00:00FILE "05 - Hallo Jaenki.wav" WAVE TRACK 05 AUDIO TITLE "Hallo Jaenki" PERFORMER "Hopalong Knut" FLAGS DCP INDEX 01 00:00:00FILE "06 - Suppe.wav" WAVE TRACK 06 AUDIO TITLE "Suppe" PERFORMER "Hopalong Knut" FLAGS DCP INDEX 01 00:00:00FILE "07 - Sol & Jubel.wav" WAVE TRACK 07 AUDIO TITLE "Sol & Jubel" PERFORMER "Hopalong Knut" FLAGS DCP INDEX 01 00:00:00FILE "08 - Brupyroman.wav" WAVE TRACK 08 AUDIO TITLE "Brupyroman" PERFORMER "Hopalong Knut" FLAGS DCP INDEX 01 00:00:00FILE "09 - Hap.wav" WAVE TRACK 09 AUDIO TITLE "Hap" PERFORMER "Hopalong Knut" FLAGS DCP INDEX 01 00:00:00FILE "10 - Artikaill.wav" WAVE TRACK 10 AUDIO TITLE "Artikaill" PERFORMER "Hopalong Knut" FLAGS DCP INDEX 01 00:00:00FILE "11 - Bautastein.wav" WAVE TRACK 11 AUDIO TITLE "Bautastein" PERFORMER "Hopalong Knut" FLAGS DCP INDEX 01 00:00:00FILE "12 - Gjor Det Sjol.wav" WAVE TRACK 12 AUDIO TITLE "Gjor Det Sjol" PERFORMER "Hopalong Knut" FLAGS DCP INDEX 01 00:00:00FILE "13 - Hallo Jaenki.wav" WAVE TRACK 13 AUDIO TITLE "Hallo Jaenki" PERFORMER "Hopalong Knut" FLAGS DCP INDEX 01 00:00:00
01 - Evolusjonens Trøst (03:21)
02 - Bedreviterdansen (03:30)
03 - Ut Gjennom Vinduet (02:34)
04 - Hunda Som Bit (02:37)
05 - Spark pa Leggen (05:12)
06 - Filmen om et Liv (02:40)
07 - Pitdownmann (03:00)
08 - Banditt (02:55)
09 - Ny-farriseera (02:59)
10 - Bohemens Rekrutt (04:37)
11 - Big Bang (02:52)
12 - Opus #1 (04:00)
 
Exact Audio Copy V0.99 prebeta 5 from 4. May 2009

EAC extraction logfile from 14. May 2010, 16:45

Hopalong Knut / Evolusjonens Trшst

Used drive : TSSTcorpCDDVDW SH-S203P Adapter: 2 ID: 1

Read mode : SecureUtilize accurate stream : YesDefeat audio cache : YesMake use of C2 pointers : No

Read offset correction : 6Overread into Lead-In and Lead-Out : NoFill up missing offset samples with silence : YesDelete leading and trailing silent blocks : NoNull samples used in CRC calculations : YesUsed interface : Native Win32 interface for Win NT & 2000Gap handling : Appended to previous track

Used output format : User Defined EncoderSelected bitrate : 768 kBit/sQuality : HighAdd ID3 tag : NoCommand line compressor : C:\Program Files\Exact Audio Copy\Flac\flac.exeAdditional command line options : -V -8 -T "artist=%a" -T "title=%t" -T "album=%g" -T "date=%y" -T "tracknumber=%n" -T "genre=%m" %s

TOC of the extracted CD

Track | Start | Length | Start sector | End sector --------------------------------------------------------- 1 | 0:00.00 | 3:20.74 | 0 | 15073 2 | 3:20.74 | 3:30.34 | 15074 | 30857 3 | 6:51.33 | 2:33.74 | 30858 | 42406 4 | 9:25.32 | 2:37.12 | 42407 | 54193 5 | 12:02.44 | 5:11.61 | 54194 | 77579 6 | 17:14.30 | 2:39.53 | 77580 | 89557 7 | 19:54.08 | 2:59.45 | 89558 | 103027 8 | 22:53.53 | 2:55.34 | 103028 | 116186 9 | 25:49.12 | 2:59.24 | 116187 | 129635 10 | 28:48.36 | 4:36.63 | 129636 | 150398 11 | 33:25.24 | 2:51.65 | 150399 | 163288 12 | 36:17.14 | 3:59.72 | 163289 | 181285

Track 1

Filename E:\music\rips\Hopalong Knut - 2006 - Evolusjonens Trшst [FLAC]\01 - Evolusjonens Trшst.wav

Pre-gap length 0:00:02.00

Peak level 98.8 % Track quality 100.0 % Test CRC 2A59150F Copy CRC 2A59150F Track not present in AccurateRip database Copy OK

Track 2

Filename E:\music\rips\Hopalong Knut - 2006 - Evolusjonens Trшst [FLAC]\02 - Bedreviterdansen.wav

Peak level 99.5 % Track quality 100.0 % Test CRC 125F306B Copy CRC 125F306B Track not present in AccurateRip database Copy OK

Track 3

Filename E:\music\rips\Hopalong Knut - 2006 - Evolusjonens Trшst [FLAC]\03 - Ut Gjennom Vinduet.wav

Peak level 92.6 % Track quality 100.0 % Test CRC 006FD5E7 Copy CRC 006FD5E7 Track not present in AccurateRip database Copy OK

Track 4

Filename E:\music\rips\Hopalong Knut - 2006 - Evolusjonens Trшst [FLAC]\04 - Hunda Som Bit.wav

Peak level 98.9 % Track quality 100.0 % Test CRC B2EAC6B1 Copy CRC B2EAC6B1 Track not present in AccurateRip database Copy OK

Track 5

Filename E:\music\rips\Hopalong Knut - 2006 - Evolusjonens Trшst [FLAC]\05 - Spark pе Leggen.wav

Peak level 98.8 % Track quality 99.9 % Test CRC CE8D6945 Copy CRC CE8D6945 Track not present in AccurateRip database Copy OK

Track 6

Filename E:\music\rips\Hopalong Knut - 2006 - Evolusjonens Trшst [FLAC]\06 - Filmen om et Liv.wav

Peak level 98.8 % Track quality 99.9 % Test CRC 2CF508C6 Copy CRC 2CF508C6 Track not present in AccurateRip database Copy OK

Track 7

Filename E:\music\rips\Hopalong Knut - 2006 - Evolusjonens Trшst [FLAC]\07 - Pitdownmann.wav

Peak level 98.6 % Track quality 100.0 % Test CRC 2D8092CD Copy CRC 2D8092CD Track not present in AccurateRip database Copy OK

Track 8

Filename E:\music\rips\Hopalong Knut - 2006 - Evolusjonens Trшst [FLAC]\08 - Banditt.wav

Peak level 98.8 % Track quality 100.0 % Test CRC 75EE971C Copy CRC 75EE971C Track not present in AccurateRip database Copy OK

Track 9

Filename E:\music\rips\Hopalong Knut - 2006 - Evolusjonens Trшst [FLAC]\09 - Ny-farriseera.wav

Peak level 98.8 % Track quality 99.9 % Test CRC 350F61BF Copy CRC 350F61BF Track not present in AccurateRip database Copy OK

Track 10

Filename E:\music\rips\Hopalong Knut - 2006 - Evolusjonens Trшst [FLAC]\10 - Bohemens Rekrutt.wav

Peak level 98.8 % Track quality 100.0 % Test CRC B3DE6312 Copy CRC B3DE6312 Track not present in AccurateRip database Copy OK

Track 11

Filename E:\music\rips\Hopalong Knut - 2006 - Evolusjonens Trшst [FLAC]\11 - Big Bang.wav

Peak level 98.8 % Track quality 100.0 % Test CRC 6E94381E Copy CRC 6E94381E Track not present in AccurateRip database Copy OK

Track 12

Filename E:\music\rips\Hopalong Knut - 2006 - Evolusjonens Trшst [FLAC]\12 - Opus #1.wav

Peak level 93.1 % Track quality 100.0 % Test CRC E4857B2A Copy CRC E4857B2A Track not present in AccurateRip database Copy OK

None of the tracks are present in the AccurateRip database

No errors occurred

End of status report
 
REM GENRE SkaREM DATE 2006REM DISCID 8B09710CREM COMMENT "ExactAudioCopy v0.99pb5"PERFORMER "Hopalong Knut"TITLE "Evolusjonens Trost"FILE "01 - Evolusjonens Trost.wav" WAVE TRACK 01 AUDIO TITLE "Evolusjonens Trost" PERFORMER "Hopalong Knut" INDEX 01 00:00:00FILE "02 - Bedreviterdansen.wav" WAVE TRACK 02 AUDIO TITLE "Bedreviterdansen" PERFORMER "Hopalong Knut" INDEX 01 00:00:00FILE "03 - Ut Gjennom Vinduet.wav" WAVE TRACK 03 AUDIO TITLE "Ut Gjennom Vinduet" PERFORMER "Hopalong Knut" INDEX 01 00:00:00FILE "04 - Hunda Som Bit.wav" WAVE TRACK 04 AUDIO TITLE "Hunda Som Bit" PERFORMER "Hopalong Knut" INDEX 01 00:00:00FILE "05 - Spark pa Leggen.wav" WAVE TRACK 05 AUDIO TITLE "Spark pa Leggen" PERFORMER "Hopalong Knut" INDEX 01 00:00:00FILE "06 - Filmen om et Liv.wav" WAVE TRACK 06 AUDIO TITLE "Filmen om et Liv" PERFORMER "Hopalong Knut" INDEX 01 00:00:00FILE "07 - Pitdownmann.wav" WAVE TRACK 07 AUDIO TITLE "Pitdownmann" PERFORMER "Hopalong Knut" INDEX 01 00:00:00FILE "08 - Banditt.wav" WAVE TRACK 08 AUDIO TITLE "Banditt" PERFORMER "Hopalong Knut" INDEX 01 00:00:00FILE "09 - Ny-farriseera.wav" WAVE TRACK 09 AUDIO TITLE Ny-"farriseera" PERFORMER "Hopalong Knut" INDEX 01 00:00:00FILE "10 - Bohemens Rekrutt.wav" WAVE TRACK 10 AUDIO TITLE "Bohemens Rekrutt" PERFORMER "Hopalong Knut" INDEX 01 00:00:00FILE "11 - Big Bang.wav" WAVE TRACK 11 AUDIO TITLE "Big Bang" PERFORMER "Hopalong Knut" INDEX 01 00:00:00FILE "12 - Opus #1.wav" WAVE TRACK 12 AUDIO TITLE "Opus #1" PERFORMER "Hopalong Knut" INDEX 01 00:00:00
01 - Intro (00:39)
02 - Mager trost (03:10)
03 - Pluto (02:43)
04 - Uten ror og med strikkmotor (02:53)
05 - Darlig frokost (04:42)
06 - Alt e i orden (02:19)
07 - Sukker (02:47)
08 - Dekrypter dae (03:54)
09 - Champagne (02:50)
10 - Tandempandemi (02:46)
11 - Hell i spell (04:46)
 
Exact Audio Copy V1.0 beta 2 from 29. April 2011

EAC extraction logfile from 5. June 2011, 11:18

Hopalong Knut / La Pluto bli en planet igjen

Used drive : HL-DT-STDVDRAM GSA-T10N Adapter: 1 ID: 0

Read mode : SecureUtilize accurate stream : YesDefeat audio cache : YesMake use of C2 pointers : No

Read offset correction : 667Overread into Lead-In and Lead-Out : NoFill up missing offset samples with silence : YesDelete leading and trailing silent blocks : NoNull samples used in CRC calculations : YesUsed interface : Installed external ASPI interfaceGap handling : Appended to previous track

Used output format : User Defined EncoderSelected bitrate : 1024 kBit/sQuality : HighAdd ID3 tag : NoCommand line compressor : C:\Programfiler\Exact Audio Copy\Flac\flac.exeAdditional command line options : -8 -V -T "ARTIST=%artist%" -T "TITLE=%title%" -T "ALBUM=%albumtitle%" -T "DATE=%year%" -T "TRACKNUMBER=%tracknr%" -T "GENRE=%genre%" -T "PERFORMER=%albuminterpret%" -T "COMPOSER=%composer%" %haslyrics%--tag-from-file=LYRICS

TOC of the extracted CD

Track | Start | Length | Start sector | End sector --------------------------------------------------------- 1 | 0:00.00 | 0:38.53 | 0 | 2902 2 | 0:38.53 | 3:10.05 | 2903 | 17157 3 | 3:48.58 | 2:43.35 | 17158 | 29417 4 | 6:32.18 | 2:52.57 | 29418 | 42374 5 | 9:25.00 | 4:41.40 | 42375 | 63489 6 | 14:06.40 | 2:18.65 | 63490 | 73904 7 | 16:25.30 | 2:47.20 | 73905 | 86449 8 | 19:12.50 | 3:54.30 | 86450 | 104029 9 | 23:07.05 | 2:49.51 | 104030 | 116755 10 | 25:56.56 | 2:45.61 | 116756 | 129191 11 | 28:42.42 | 4:45.55 | 129192 | 150621

Track 1

Filename C:\rips\Hopalong Knut - La Pluto bli en planet igjen (2011) [FLAC]\01 - Intro.wav

Pre-gap length 0:00:02.00

Peak level 81.9 % Extraction speed 1.0 X Track quality 100.0 % Test CRC 884B1761 Copy CRC 884B1761 Copy OK

Track 2

Filename C:\rips\Hopalong Knut - La Pluto bli en planet igjen (2011) [FLAC]\02 - Mager trøst.wav

Peak level 98.5 % Extraction speed 1.5 X Track quality 99.9 % Test CRC 538A1F98 Copy CRC 538A1F98 Copy OK

Track 3

Filename C:\rips\Hopalong Knut - La Pluto bli en planet igjen (2011) [FLAC]\03 - Pluto.wav

Peak level 98.7 % Extraction speed 2.0 X Track quality 100.0 % Test CRC F58EB0B6 Copy CRC F58EB0B6 Copy OK

Track 4

Filename C:\rips\Hopalong Knut - La Pluto bli en planet igjen (2011) [FLAC]\04 - Uten ror og med strikkmotor.wav

Peak level 98.7 % Extraction speed 1.8 X Track quality 99.9 % Test CRC F978E42D Copy CRC F978E42D Copy OK

Track 5

Filename C:\rips\Hopalong Knut - La Pluto bli en planet igjen (2011) [FLAC]\05 - Dårlig frokost.wav

Peak level 99.6 % Extraction speed 2.2 X Track quality 99.9 % Test CRC 24448465 Copy CRC 24448465 Copy OK

Track 6

Filename C:\rips\Hopalong Knut - La Pluto bli en planet igjen (2011) [FLAC]\06 - Alt e i orden.wav

Peak level 98.7 % Extraction speed 2.4 X Track quality 100.0 % Test CRC 57351861 Copy CRC 57351861 Copy OK

Track 7

Filename C:\rips\Hopalong Knut - La Pluto bli en planet igjen (2011) [FLAC]\07 - Sukker.wav

Suspicious position 0:02:45 - 0:02:46

Peak level 98.2 % Extraction speed 0.5 X Track quality 99.1 % Test CRC 0EF53F24 Copy CRC CBD8E22B Copy finished

Track 8

Filename C:\rips\Hopalong Knut - La Pluto bli en planet igjen (2011) [FLAC]\08 - Dekrypter dæ.wav

Peak level 98.7 % Extraction speed 3.1 X Track quality 99.9 % Test CRC 7BC7D224 Copy CRC 7BC7D224 Copy OK

Track 9

Filename C:\rips\Hopalong Knut - La Pluto bli en planet igjen (2011) [FLAC]\09 - Champagne.wav

Peak level 98.7 % Extraction speed 3.3 X Track quality 100.0 % Test CRC 6F6645B4 Copy CRC 6F6645B4 Copy OK

Track 10

Filename C:\rips\Hopalong Knut - La Pluto bli en planet igjen (2011) [FLAC]\10 - Tandempandemi.wav

Peak level 98.0 % Extraction speed 3.6 X Track quality 100.0 % Test CRC A4ED0949 Copy CRC A4ED0949 Copy OK

Track 11

Filename C:\rips\Hopalong Knut - La Pluto bli en planet igjen (2011) [FLAC]\11 - Hell i spell.wav

Peak level 97.9 % Extraction speed 4.1 X Track quality 100.0 % Test CRC 53D66D03 Copy CRC 53D66D03 Copy OK

There were errors

End of status report

==== Log checksum 8F4D58AB774948E0BA2493E7ADE1B13E807A68B8B86ED7651096419F88050DBC ====

------------------------------------------------------------

Exact Audio Copy V1.0 beta 2 from 29. April 2011

EAC extraction logfile from 5. June 2011, 11:46

Hopalong Knut / La Pluto bli en planet igjen

Used drive : HL-DT-STDVDRAM GSA-T10N Adapter: 1 ID: 0

Read mode : SecureUtilize accurate stream : YesDefeat audio cache : YesMake use of C2 pointers : No

Read offset correction : 667Overread into Lead-In and Lead-Out : NoFill up missing offset samples with silence : YesDelete leading and trailing silent blocks : NoNull samples used in CRC calculations : YesUsed interface : Installed external ASPI interfaceGap handling : Appended to previous track

Used output format : User Defined EncoderSelected bitrate : 1024 kBit/sQuality : HighAdd ID3 tag : NoCommand line compressor : C:\Programfiler\Exact Audio Copy\Flac\flac.exeAdditional command line options : -8 -V -T "ARTIST=%artist%" -T "TITLE=%title%" -T "ALBUM=%albumtitle%" -T "DATE=%year%" -T "TRACKNUMBER=%tracknr%" -T "GENRE=%genre%" -T "PERFORMER=%albuminterpret%" -T "COMPOSER=%composer%" %haslyrics%--tag-from-file=LYRICS

TOC of the extracted CD

Track | Start | Length | Start sector | End sector --------------------------------------------------------- 1 | 0:00.00 | 0:38.53 | 0 | 2902 2 | 0:38.53 | 3:10.05 | 2903 | 17157 3 | 3:48.58 | 2:43.35 | 17158 | 29417 4 | 6:32.18 | 2:52.57 | 29418 | 42374 5 | 9:25.00 | 4:41.40 | 42375 | 63489 6 | 14:06.40 | 2:18.65 | 63490 | 73904 7 | 16:25.30 | 2:47.20 | 73905 | 86449 8 | 19:12.50 | 3:54.30 | 86450 | 104029 9 | 23:07.05 | 2:49.51 | 104030 | 116755 10 | 25:56.56 | 2:45.61 | 116756 | 129191 11 | 28:42.42 | 4:45.55 | 129192 | 150621

Track 7

Filename C:\rips\Hopalong Knut - La Pluto bli en planet igjen (2011) [FLAC]\07 - Sukker.wav

Peak level 98.2 % Extraction speed 3.1 X Track quality 100.0 % Test CRC B7EC3B86 Copy CRC B7EC3B86 Copy OK

No errors occurred

End of status report

==== Log checksum D9287F2D9E53662FD3B26E10E6A74789C42F0EFA544C310AA767ADB25CAFFD47 ====
 
REM GENRE SkaREM DATE 2011REM DISCID 9A07D80BREM COMMENT "ExactAudioCopy v1.0b2"PERFORMER "Hopalong Knut"TITLE "La Pluto Bli En Planet Igjen"FILE "01 - Intro.wav" WAVE TRACK 01 AUDIO TITLE "Intro" PERFORMER "Hopalong Knut" ISRC DKBV71100901 INDEX 01 00:00:00FILE "02 - Mager trost.wav" WAVE TRACK 02 AUDIO TITLE "Mager trost" PERFORMER "Hopalong Knut" ISRC DKBV71100902 INDEX 01 00:00:00FILE "03 - Pluto.wav" WAVE TRACK 03 AUDIO TITLE "Pluto" PERFORMER "Hopalong Knut" ISRC DKBV71100903 INDEX 01 00:00:00FILE "04 - Uten ror og med strikkmotor.wav" WAVE TRACK 04 AUDIO TITLE "Uten ror og med strikkmotor" PERFORMER "Hopalong Knut" ISRC DKBV71100904 INDEX 01 00:00:00FILE "05 - Darlig frokost.wav" WAVE TRACK 05 AUDIO TITLE "Darlig frokost" PERFORMER "Hopalong Knut" ISRC DKBV71100905 INDEX 01 00:00:00FILE "06 - Alt e i orden.wav" WAVE TRACK 06 AUDIO TITLE "Alt e i orden" PERFORMER "Hopalong Knut" ISRC DKBV71100906 INDEX 01 00:00:00FILE "07 - Sukker.wav" WAVE TRACK 07 AUDIO TITLE "Sukker" PERFORMER "Hopalong Knut" ISRC DKBV71100907 INDEX 01 00:00:00FILE "08 - Dekrypter dae.wav" WAVE TRACK 08 AUDIO TITLE "Dekrypter dae" PERFORMER "Hopalong Knut" ISRC DKBV71100908 INDEX 01 00:00:00FILE "09 - Champagne.wav" WAVE TRACK 09 AUDIO TITLE "Champagne" PERFORMER "Hopalong Knut" ISRC DKBV71100909 INDEX 01 00:00:00FILE "10 - Tandempandemi.wav" WAVE TRACK 10 AUDIO TITLE "Tandempandemi" PERFORMER "Hopalong Knut" ISRC DKBV71100910 INDEX 01 00:00:00FILE "11 - Hell i spell.wav" WAVE TRACK 11 AUDIO TITLE "Hell i spell" PERFORMER "Hopalong Knut" ISRC DKBV71100911 INDEX 01 00:00:00




Трекер:  [ 16-Дек-2011 21:59 ]

  

Скачать .torrent

Размер .torrent файла 20 KB


Размер: 800 MB
Хэш (hash) релиза: 873b0dde5bedefccc51aad5b3789b19b4aacd019

bot

Топик был перенесен в форум Зарубежный Reggae, Ska, Dub (lossless)

Перенес Ronaldo C

Хотите добавить комментарий к записи скачать торрент Hopalong Knut

!Обратная связь