film de Jean Renoir | June 2017 (112) | Bloons td5

Скачать через торрент музыку Against All Authority - Discography бесплатно без регистрации torrent

Статистика раздачи
Размер:  1.47 GB   |    Зарегистрирован:  6 лет 5 месяцев   |    .torrent скачан:  33 раза   |   
Раздают:  1  
   
загрузка...
 
Автор Сообщение

Galfimbul

avatar Galfimbul


Against All Authority - Discography

Жанр: SkaPunk / SkaCore || Период: 1996-2006 || Страна: USA || Аудио кодек: FLAC || Тип рипа: tracks+.cue || Битрейт аудио: lossless || Источник: what.cd
Albums:
01 - Lifestyle Of Rebellion (01:52)
02 - No Reason (02:20)
03 - Conditioning (02:10)
04 - Freedom (01:58)
05 - Destroy What Destroys You (01:48)
06 - It Really Sucks When... (01:33)
07 - Bloodclot (01:36)
08 - Another Fuck You Song (02:08)
09 - 30 sec. song (00:35)
10 - Kickin The Dog (01:36)
11 - Sounds Of The Underground (01:46)
12 - Osuchowski's On The Loose (02:07)
13 - Walking Revolution (02:34)
14 - Disobey (01:37)
15 - Chelsea Baby (01:53)
16 - Corporate Takeover (01:58)
17 - Hard as Fuck (02:14)
18 - Centerfold (01:54)
19 - We Won't Submit (02:28)
20 - Above The Law (02:51)
21 - Under Your Authority (02:43)
22 - Court 22 (02:17)
 
Exact Audio Copy V0.99 prebeta 4 from 23. January 2008

EAC extraction logfile from 13. May 2009, 15:34

Against All Authority / Destroy What Destroys You

Used drive : PHILIPS CDRW/DVD CDD5263 Adapter: 0 ID: 0

Read mode : SecureUtilize accurate stream : YesDefeat audio cache : YesMake use of C2 pointers : No

Read offset correction : 594Overread into Lead-In and Lead-Out : NoFill up missing offset samples with silence : YesDelete leading and trailing silent blocks : NoNull samples used in CRC calculations : YesUsed interface : Native Win32 interface for Win NT & 2000Gap handling : Appended to previous track

Used output format : Internal WAV RoutinesSample format : 44.100 Hz; 16 Bit; Stereo

TOC of the extracted CD

Track | Start | Length | Start sector | End sector --------------------------------------------------------- 1 | 0:00.00 | 1:51.51 | 0 | 8375 2 | 1:51.51 | 2:19.33 | 8376 | 18833 3 | 4:11.09 | 2:09.55 | 18834 | 28563 4 | 6:20.64 | 1:57.31 | 28564 | 37369 5 | 8:18.20 | 1:47.72 | 37370 | 45466 6 | 10:06.17 | 1:33.18 | 45467 | 52459 7 | 11:39.35 | 1:35.62 | 52460 | 59646 8 | 13:15.22 | 2:08.16 | 59647 | 69262 9 | 15:23.38 | 0:35.10 | 69263 | 71897 10 | 15:58.48 | 1:36.09 | 71898 | 79106 11 | 17:34.57 | 1:45.67 | 79107 | 87048 12 | 19:20.49 | 2:06.51 | 87049 | 96549 13 | 21:27.25 | 2:33.35 | 96550 | 108059 14 | 24:00.60 | 1:36.30 | 108060 | 115289 15 | 25:37.15 | 1:53.02 | 115290 | 123766 16 | 27:30.17 | 1:58.01 | 123767 | 132617 17 | 29:28.18 | 2:13.45 | 132618 | 142637 18 | 31:41.63 | 1:54.25 | 142638 | 151212 19 | 33:36.13 | 2:27.39 | 151213 | 162276 20 | 36:03.52 | 2:51.10 | 162277 | 175111 21 | 38:54.62 | 2:42.25 | 175112 | 187286 22 | 41:37.12 | 2:17.14 | 187287 | 197575

Track 1

Filename C:\Documents and Settings\Administrator\Desktop\what.cd\Destroy What Destroys You\Against All Authority - 1995 - Destroy What Destroys You - 01 - Lifestyle Of Rebellion.wav

Pre-gap length 0:00:02.00

Peak level 96.5 % Track quality 100.0 % Test CRC EC246304 Copy CRC EC246304 Track not present in AccurateRip database Copy OK

Track 2

Filename C:\Documents and Settings\Administrator\Desktop\what.cd\Destroy What Destroys You\Against All Authority - 1995 - Destroy What Destroys You - 02 - No Reason.wav

Peak level 96.3 % Track quality 100.0 % Test CRC 7B7FD15E Copy CRC 7B7FD15E Track not present in AccurateRip database Copy OK

Track 3

Filename C:\Documents and Settings\Administrator\Desktop\what.cd\Destroy What Destroys You\Against All Authority - 1995 - Destroy What Destroys You - 03 - Conditioning.wav

Peak level 98.3 % Track quality 100.0 % Test CRC 131C8490 Copy CRC 131C8490 Track not present in AccurateRip database Copy OK

Track 4

Filename C:\Documents and Settings\Administrator\Desktop\what.cd\Destroy What Destroys You\Against All Authority - 1995 - Destroy What Destroys You - 04 - Freedom.wav

Peak level 94.1 % Track quality 100.0 % Test CRC E7F98E86 Copy CRC E7F98E86 Track not present in AccurateRip database Copy OK

Track 5

Filename C:\Documents and Settings\Administrator\Desktop\what.cd\Destroy What Destroys You\Against All Authority - 1995 - Destroy What Destroys You - 05 - Destroy What Destroys You.wav

Peak level 90.1 % Track quality 100.0 % Test CRC 2BF03F14 Copy CRC 2BF03F14 Track not present in AccurateRip database Copy OK

Track 6

Filename C:\Documents and Settings\Administrator\Desktop\what.cd\Destroy What Destroys You\Against All Authority - 1995 - Destroy What Destroys You - 06 - It Really Sucks When....wav

Peak level 89.4 % Track quality 100.0 % Test CRC C47E2741 Copy CRC C47E2741 Track not present in AccurateRip database Copy OK

Track 7

Filename C:\Documents and Settings\Administrator\Desktop\what.cd\Destroy What Destroys You\Against All Authority - 1995 - Destroy What Destroys You - 07 - Bloodclot.wav

Peak level 89.2 % Track quality 100.0 % Test CRC 9ADCADD6 Copy CRC 9ADCADD6 Track not present in AccurateRip database Copy OK

Track 8

Filename C:\Documents and Settings\Administrator\Desktop\what.cd\Destroy What Destroys You\Against All Authority - 1995 - Destroy What Destroys You - 08 - Another Fuck You Song.wav

Peak level 89.0 % Track quality 100.0 % Test CRC E3883C4D Copy CRC E3883C4D Track not present in AccurateRip database Copy OK

Track 9

Filename C:\Documents and Settings\Administrator\Desktop\what.cd\Destroy What Destroys You\Against All Authority - 1995 - Destroy What Destroys You - 09 - 30 sec. song.wav

Peak level 88.4 % Track quality 100.0 % Test CRC E9313DC0 Copy CRC E9313DC0 Track not present in AccurateRip database Copy OK

Track 10

Filename C:\Documents and Settings\Administrator\Desktop\what.cd\Destroy What Destroys You\Against All Authority - 1995 - Destroy What Destroys You - 10 - Kickin The Dog.wav

Peak level 88.5 % Track quality 100.0 % Test CRC 657F2BE5 Copy CRC 657F2BE5 Track not present in AccurateRip database Copy OK

Track 11

Filename C:\Documents and Settings\Administrator\Desktop\what.cd\Destroy What Destroys You\Against All Authority - 1995 - Destroy What Destroys You - 11 - Sounds Of The Underground.wav

Peak level 88.5 % Track quality 99.8 % Test CRC B859700D Copy CRC B859700D Track not present in AccurateRip database Copy OK

Track 12

Filename C:\Documents and Settings\Administrator\Desktop\what.cd\Destroy What Destroys You\Against All Authority - 1995 - Destroy What Destroys You - 12 - Osuchowski's On The Loose.wav

Peak level 89.0 % Track quality 100.0 % Test CRC A92D2CAF Copy CRC A92D2CAF Track not present in AccurateRip database Copy OK

Track 13

Filename C:\Documents and Settings\Administrator\Desktop\what.cd\Destroy What Destroys You\Against All Authority - 1995 - Destroy What Destroys You - 13 - Walking Revolution.wav

Peak level 93.9 % Track quality 100.0 % Test CRC 24982C1C Copy CRC 24982C1C Track not present in AccurateRip database Copy OK

Track 14

Filename C:\Documents and Settings\Administrator\Desktop\what.cd\Destroy What Destroys You\Against All Authority - 1995 - Destroy What Destroys You - 14 - Disobey.wav

Peak level 89.5 % Track quality 100.0 % Test CRC 561CDEE3 Copy CRC 561CDEE3 Track not present in AccurateRip database Copy OK

Track 15

Filename C:\Documents and Settings\Administrator\Desktop\what.cd\Destroy What Destroys You\Against All Authority - 1995 - Destroy What Destroys You - 15 - Chelsea Baby.wav

Peak level 96.7 % Track quality 100.0 % Test CRC 89EB2E98 Copy CRC 89EB2E98 Track not present in AccurateRip database Copy OK

Track 16

Filename C:\Documents and Settings\Administrator\Desktop\what.cd\Destroy What Destroys You\Against All Authority - 1995 - Destroy What Destroys You - 16 - Corporate Takeover.wav

Peak level 90.2 % Track quality 100.0 % Test CRC 92F9A2CD Copy CRC 92F9A2CD Track not present in AccurateRip database Copy OK

Track 17

Filename C:\Documents and Settings\Administrator\Desktop\what.cd\Destroy What Destroys You\Against All Authority - 1995 - Destroy What Destroys You - 17 - Hard as Fuck.wav

Peak level 90.0 % Track quality 100.0 % Test CRC 6EA0892A Copy CRC 6EA0892A Track not present in AccurateRip database Copy OK

Track 18

Filename C:\Documents and Settings\Administrator\Desktop\what.cd\Destroy What Destroys You\Against All Authority - 1995 - Destroy What Destroys You - 18 - Centerfold.wav

Peak level 91.5 % Track quality 100.0 % Test CRC 9D6EEEAC Copy CRC 9D6EEEAC Track not present in AccurateRip database Copy OK

Track 19

Filename C:\Documents and Settings\Administrator\Desktop\what.cd\Destroy What Destroys You\Against All Authority - 1995 - Destroy What Destroys You - 19 - We Won't Submit.wav

Peak level 90.2 % Track quality 100.0 % Test CRC F8F53F8B Copy CRC F8F53F8B Cannot be verified as accurate (confidence 2) [842B1B87], AccurateRip returned [2CF5345B] Copy OK

Track 20

Filename C:\Documents and Settings\Administrator\Desktop\what.cd\Destroy What Destroys You\Against All Authority - 1995 - Destroy What Destroys You - 20 - Above The Law.wav

Peak level 88.3 % Track quality 100.0 % Test CRC CD7CAE6C Copy CRC CD7CAE6C Cannot be verified as accurate (confidence 2) [02ACD2AC], AccurateRip returned [09BE7D08] Copy OK

Track 21

Filename C:\Documents and Settings\Administrator\Desktop\what.cd\Destroy What Destroys You\Against All Authority - 1995 - Destroy What Destroys You - 21 - Under Your Authority.wav

Peak level 89.0 % Track quality 100.0 % Test CRC DEC041C6 Copy CRC DEC041C6 Cannot be verified as accurate (confidence 2) [A3C8D0E8], AccurateRip returned [000F0626] Copy OK

Track 22

Filename C:\Documents and Settings\Administrator\Desktop\what.cd\Destroy What Destroys You\Against All Authority - 1995 - Destroy What Destroys You - 22 - Court 22.wav

Peak level 88.3 % Track quality 99.9 % Test CRC 901BBC60 Copy CRC 901BBC60 Cannot be verified as accurate (confidence 2) [EFBC3620], AccurateRip returned [046C0814] Copy OK

4 track(s) could not be verified as accurate18 track(s) not present in the AccurateRip database

No tracks could be verified as accurateYou may have a different pressing from the one(s) in the database

No errors occurred

End of status report
 
REM GENRE PunkREM DATE 1995REM DISCID 200A4A16REM COMMENT "ExactAudioCopy v0.99pb4"PERFORMER "Against All Authority"TITLE "Destroy What Destroys You"FILE "01 - Lifestyle Of Rebellion.wav" WAVE TRACK 01 AUDIO TITLE "Lifestyle Of Rebellion" PERFORMER "Against All Authority" INDEX 01 00:00:00FILE "02 - No Reason.wav" WAVE TRACK 02 AUDIO TITLE "No Reason" PERFORMER "Against All Authority" INDEX 01 00:00:00FILE "03 - Conditioning.wav" WAVE TRACK 03 AUDIO TITLE Conditioning PERFORMER "Against All Authority" INDEX 01 00:00:00FILE "04 - Freedom.wav" WAVE TRACK 04 AUDIO TITLE Freedom PERFORMER "Against All Authority" INDEX 01 00:00:00FILE "05 - Destroy What Destroys You.wav" WAVE TRACK 05 AUDIO TITLE "Destroy What Destroys You" PERFORMER "Against All Authority" INDEX 01 00:00:00FILE "06 - It Really Sucks When....wav" WAVE TRACK 06 AUDIO TITLE "It Really Sucks When..." PERFORMER "Against All Authority" INDEX 01 00:00:00FILE "07 - Bloodclot.wav" WAVE TRACK 07 AUDIO TITLE Bloodclot PERFORMER "Against All Authority" INDEX 01 00:00:00FILE "08 - Another Fuck You Song.wav" WAVE TRACK 08 AUDIO TITLE "Another Fuck You Song" PERFORMER "Against All Authority" INDEX 01 00:00:00FILE "09 - 30 Sec. Song.wav" WAVE TRACK 09 AUDIO TITLE "30 Sec. Song" PERFORMER "Against All Authority" INDEX 01 00:00:00FILE "10 - Kickin The Dog.wav" WAVE TRACK 10 AUDIO TITLE "Kickin The Dog" PERFORMER "Against All Authority" INDEX 01 00:00:00FILE "11 - Sounds Of The Underground.wav" WAVE TRACK 11 AUDIO TITLE "Sounds Of The Underground" PERFORMER "Against All Authority" INDEX 01 00:00:00FILE "12 - Osuchowski's On The Loose.wav" WAVE TRACK 12 AUDIO TITLE "Osuchowski's On The Loose" PERFORMER "Against All Authority" INDEX 01 00:00:00FILE "13 - Walking Revolution.wav" WAVE TRACK 13 AUDIO TITLE "Walking Revolution" PERFORMER "Against All Authority" INDEX 01 00:00:00FILE "14 - Disobey.wav" WAVE TRACK 14 AUDIO TITLE Disobey PERFORMER "Against All Authority" INDEX 01 00:00:00FILE "15 - Chelsea Baby.wav" WAVE TRACK 15 AUDIO TITLE "Chelsea Baby" PERFORMER "Against All Authority" INDEX 01 00:00:00FILE "16 - Corporate Takeover.wav" WAVE TRACK 16 AUDIO TITLE "Corporate Takeover" PERFORMER "Against All Authority" INDEX 01 00:00:00FILE "17 - Hard As Fuck.wav" WAVE TRACK 17 AUDIO TITLE "Hard As Fuck" PERFORMER "Against All Authority" INDEX 01 00:00:00FILE "18 - Centerfold.wav" WAVE TRACK 18 AUDIO TITLE Centerfold PERFORMER "Against All Authority" INDEX 01 00:00:00FILE "19 - We Won't Submit.wav" WAVE TRACK 19 AUDIO TITLE "We Won't Submit" PERFORMER "Against All Authority" INDEX 01 00:00:00FILE "20 - Above The Law.wav" WAVE TRACK 20 AUDIO TITLE "Above The Law" PERFORMER "Against All Authority" INDEX 01 00:00:00FILE "21 - Under Your Authority.wav" WAVE TRACK 21 AUDIO TITLE "Under Your Authority" PERFORMER "Against All Authority" INDEX 01 00:00:00FILE "22 - Court 22.wav" WAVE TRACK 22 AUDIO TITLE "Court 22" PERFORMER "Against All Authority" INDEX 01 00:00:00
01 - All Fall Down (02:11)
02 - 12:00 AM (02:39)
03 - Justification (02:17)
04 - Keep Trying (01:48)
05 - At Our Expense (02:15)
06 - Stand in Line (02:04)
07 - Toby (01:16)
08 - We Don't Need You (01:34)
09 - The Mayhem & The Pain (01:51)
10 - Louder Than Words (02:03)
11 - What the Fuck'd You Expect? (02:16)
12 - Daddy's Little Girl (01:22)
13 - Sk8 Rock (01:40)
14 - Watered Down & Passive (01:59)
15 - When the Rain Begins to Fall (01:51)
 
Exact Audio Copy V0.99 prebeta 4 from 23. January 2008

EAC extraction logfile from 6. December 2008, 13:34

Against All Authority / All Fall Down

Used drive : ASUS DRW-1814BLT Adapter: 2 ID: 0

Read mode : SecureUtilize accurate stream : YesDefeat audio cache : YesMake use of C2 pointers : No

Read offset correction : 6Overread into Lead-In and Lead-Out : NoFill up missing offset samples with silence : YesDelete leading and trailing silent blocks : NoNull samples used in CRC calculations : YesUsed interface : Native Win32 interface for Win NT & 2000Gap handling : Appended to previous track

Used output format : User Defined EncoderSelected bitrate : 192 kBit/sQuality : HighAdd ID3 tag : NoCommand line compressor : C:\Program Files (x86)\FLAC\flac.exeAdditional command line options : -V -8 -T "artist=%a" -T "title=%t" -T "album=%g" -T "date=%y" -T "tracknumber=%n" -T "genre=%m" %s

TOC of the extracted CD

Track | Start | Length | Start sector | End sector --------------------------------------------------------- 1 | 0:00.00 | 2:11.02 | 0 | 9826 2 | 2:11.02 | 2:38.25 | 9827 | 21701 3 | 4:49.27 | 2:16.28 | 21702 | 31929 4 | 7:05.55 | 1:47.52 | 31930 | 40006 5 | 8:53.32 | 2:15.03 | 40007 | 50134 6 | 11:08.35 | 2:03.60 | 50135 | 59419 7 | 13:12.20 | 1:16.00 | 59420 | 65119 8 | 14:28.20 | 1:33.37 | 65120 | 72131 9 | 16:01.57 | 1:51.10 | 72132 | 80466 10 | 17:52.67 | 2:02.43 | 80467 | 89659 11 | 19:55.35 | 2:15.62 | 89660 | 99846 12 | 22:11.22 | 1:21.55 | 99847 | 105976 13 | 23:33.02 | 1:39.35 | 105977 | 113436 14 | 25:12.37 | 1:59.08 | 113437 | 122369 15 | 27:11.45 | 1:50.67 | 122370 | 130686

Track 1

Filename D:\EAC Rips\Against All Authority - All Fall Down\01 - All Fall Down.wav

Pre-gap length 0:00:02.00

Peak level 98.8 % Track quality 100.0 % Test CRC 5DA57396 Copy CRC 5DA57396 Copy OK

Track 2

Filename D:\EAC Rips\Against All Authority - All Fall Down\02 - 12-00 AM.wav

Peak level 98.8 % Track quality 100.0 % Test CRC A05FBC98 Copy CRC A05FBC98 Copy OK

Track 3

Filename D:\EAC Rips\Against All Authority - All Fall Down\03 - Justification.wav

Peak level 98.8 % Track quality 100.0 % Test CRC 368914C1 Copy CRC 368914C1 Copy OK

Track 4

Filename D:\EAC Rips\Against All Authority - All Fall Down\04 - Keep Trying.wav

Peak level 98.8 % Track quality 100.0 % Test CRC 7A3C51AE Copy CRC 7A3C51AE Copy OK

Track 5

Filename D:\EAC Rips\Against All Authority - All Fall Down\05 - At Our Expense.wav

Peak level 98.8 % Track quality 100.0 % Test CRC 542F6E9A Copy CRC 542F6E9A Copy OK

Track 6

Filename D:\EAC Rips\Against All Authority - All Fall Down\06 - Stand in Line.wav

Peak level 98.8 % Track quality 100.0 % Test CRC C994D3B6 Copy CRC C994D3B6 Copy OK

Track 7

Filename D:\EAC Rips\Against All Authority - All Fall Down\07 - Toby.wav

Peak level 98.8 % Track quality 100.0 % Test CRC CEFA9F78 Copy CRC CEFA9F78 Copy OK

Track 8

Filename D:\EAC Rips\Against All Authority - All Fall Down\08 - We Don't Need You.wav

Peak level 98.8 % Track quality 100.0 % Test CRC B2CAB9DB Copy CRC B2CAB9DB Copy OK

Track 9

Filename D:\EAC Rips\Against All Authority - All Fall Down\09 - The Mayhem & The Pain.wav

Peak level 98.8 % Track quality 100.0 % Test CRC 11129657 Copy CRC 11129657 Copy OK

Track 10

Filename D:\EAC Rips\Against All Authority - All Fall Down\10 - Louder Than Words.wav

Peak level 98.8 % Track quality 100.0 % Test CRC 6DBFD406 Copy CRC 6DBFD406 Copy OK

Track 11

Filename D:\EAC Rips\Against All Authority - All Fall Down\11 - What the Fuck'd You Expect .wav

Peak level 98.8 % Track quality 99.9 % Test CRC 18091E09 Copy CRC 18091E09 Copy OK

Track 12

Filename D:\EAC Rips\Against All Authority - All Fall Down\12 - Daddy's Little Girl.wav

Peak level 93.3 % Track quality 100.0 % Test CRC F284C704 Copy CRC F284C704 Copy OK

Track 13

Filename D:\EAC Rips\Against All Authority - All Fall Down\13 - Sk8 Rock.wav

Peak level 98.8 % Track quality 100.0 % Test CRC F217BB95 Copy CRC F217BB95 Copy OK

Track 14

Filename D:\EAC Rips\Against All Authority - All Fall Down\14 - Watered Down & Passive.wav

Peak level 98.8 % Track quality 100.0 % Test CRC A720A153 Copy CRC A720A153 Copy OK

Track 15

Filename D:\EAC Rips\Against All Authority - All Fall Down\15 - When the Rain Begins to Fall.wav

Peak level 98.8 % Track quality 100.0 % Test CRC 110B9AE7 Copy CRC 110B9AE7 Copy OK

No errors occurred

End of status report
 
REM GENRE PunkREM DATE 1998REM DISCID BC06CE0FREM COMMENT "ExactAudioCopy v0.99pb4"PERFORMER "Against All Authority"TITLE "All Fall Down"FILE "01 - All Fall Down.wav" WAVE TRACK 01 AUDIO TITLE "All Fall Down" PERFORMER "Against All Authority" INDEX 01 00:00:00FILE "02 - 12-00 AM.wav" WAVE TRACK 02 AUDIO TITLE "12:00 AM" PERFORMER "Against All Authority" INDEX 01 00:00:00FILE "03 - Justification.wav" WAVE TRACK 03 AUDIO TITLE "Justification" PERFORMER "Against All Authority" INDEX 01 00:00:00FILE "04 - Keep Trying.wav" WAVE TRACK 04 AUDIO TITLE "Keep Trying" PERFORMER "Against All Authority" INDEX 01 00:00:00FILE "05 - At Our Expense.wav" WAVE TRACK 05 AUDIO TITLE "At Our Expense" PERFORMER "Against All Authority" INDEX 01 00:00:00FILE "06 - Stand in Line.wav" WAVE TRACK 06 AUDIO TITLE "Stand in Line" PERFORMER "Against All Authority" INDEX 01 00:00:00FILE "07 - Toby.wav" WAVE TRACK 07 AUDIO TITLE "Toby" PERFORMER "Against All Authority" INDEX 01 00:00:00FILE "08 - We Don't Need You.wav" WAVE TRACK 08 AUDIO TITLE "We Don't Need You" PERFORMER "Against All Authority" INDEX 01 00:00:00FILE "09 - The Mayhem & The Pain.wav" WAVE TRACK 09 AUDIO TITLE "The Mayhem & The Pain" PERFORMER "Against All Authority" INDEX 01 00:00:00FILE "10 - Louder Than Words.wav" WAVE TRACK 10 AUDIO TITLE "Louder Than Words" PERFORMER "Against All Authority" INDEX 01 00:00:00FILE "11 - What the Fuck'd You Expect .wav" WAVE TRACK 11 AUDIO TITLE "What the Fuck'd You Expect?" PERFORMER "Against All Authority" INDEX 01 00:00:00FILE "12 - Daddy's Little Girl.wav" WAVE TRACK 12 AUDIO TITLE "Daddy's Little Girl" PERFORMER "Against All Authority" INDEX 01 00:00:00FILE "13 - Sk8 Rock.wav" WAVE TRACK 13 AUDIO TITLE "Sk8 Rock" PERFORMER "Against All Authority" INDEX 01 00:00:00FILE "14 - Watered Down & Passive.wav" WAVE TRACK 14 AUDIO TITLE "Watered Down & Passive" PERFORMER "Against All Authority" INDEX 01 00:00:00FILE "15 - When the Rain Begins to Fall.wav" WAVE TRACK 15 AUDIO TITLE "When the Rain Begins to Fall" PERFORMER "Against All Authority" INDEX 01 00:00:00
01 - The Bottle's Lookin' Better (02:41)
02 - WWYD? (01:35)
03 - I Want To Stab You With Something Rusty (01:39)
04 - Wet Foot Policy (03:10)
05 - All Fall Down (02:20)
06 - Five Years On (01:47)
07 - Down and Out (02:30)
 
Exact Audio Copy V0.99 prebeta 5 from 4. May 2009

EAC extraction logfile from 1. October 2009, 20:34

Against All Authority and The Criminals / The Exchange

Used drive : LITE-ON DVDRW LH-20A1S Adapter: 2 ID: 0

Read mode : SecureUtilize accurate stream : YesDefeat audio cache : YesMake use of C2 pointers : No

Read offset correction : 6Overread into Lead-In and Lead-Out : NoFill up missing offset samples with silence : YesDelete leading and trailing silent blocks : NoNull samples used in CRC calculations : YesUsed interface : Native Win32 interface for Win NT & 2000Gap handling : Appended to previous track

Used output format : User Defined EncoderSelected bitrate : 320 kBit/sQuality : HighAdd ID3 tag : NoCommand line compressor : C:\Program Files (x86)\Exact Audio Copy\Flac\flac.exeAdditional command line options : -V -8 -T "artist=%a" -T "title=%t" -T "album=%g" -T "date=%y" -T "tracknumber=%n" -T "genre=%m" %s

TOC of the extracted CD

Track | Start | Length | Start sector | End sector --------------------------------------------------------- 1 | 0:00.00 | 2:40.30 | 0 | 12029 2 | 2:40.30 | 1:34.67 | 12030 | 19146 3 | 4:15.22 | 1:39.18 | 19147 | 26589 4 | 5:54.40 | 3:09.70 | 26590 | 40834 5 | 9:04.35 | 2:20.00 | 40835 | 51334 6 | 11:24.35 | 1:46.32 | 51335 | 59316 7 | 13:10.67 | 2:30.00 | 59317 | 70566

Track 1

Filename F:\EACrips\Against All Authority and The Criminals - 1999 - The Exchange [FLAC]\01 - The Bottle's Lookin' Better.wav

Pre-gap length 0:00:02.00

Peak level 98.8 % Track quality 99.9 % Test CRC FD8DB171 Copy CRC FD8DB171 Accurately ripped (confidence 1) [62588A85] Copy OK

Track 2

Filename F:\EACrips\Against All Authority and The Criminals - 1999 - The Exchange [FLAC]\02 - WWYD .wav

Peak level 98.8 % Track quality 100.0 % Test CRC C1E391D2 Copy CRC C1E391D2 Accurately ripped (confidence 1) [089E5EB4] Copy OK

Track 3

Filename F:\EACrips\Against All Authority and The Criminals - 1999 - The Exchange [FLAC]\03 - I Want To Stab You With Something Rusty.wav

Peak level 93.3 % Track quality 100.0 % Test CRC 966D2CB1 Copy CRC 966D2CB1 Accurately ripped (confidence 1) [C9C3F9D7] Copy OK

Track 4

Filename F:\EACrips\Against All Authority and The Criminals - 1999 - The Exchange [FLAC]\04 - Wet Foot Policy.wav

Peak level 93.3 % Track quality 99.9 % Test CRC E109C207 Copy CRC E109C207 Accurately ripped (confidence 1) [DE6C84CA] Copy OK

Track 5

Filename F:\EACrips\Against All Authority and The Criminals - 1999 - The Exchange [FLAC]\05 - All Fall Down.wav

Peak level 98.8 % Track quality 100.0 % Test CRC 882E9921 Copy CRC 882E9921 Accurately ripped (confidence 1) [71F15C46] Copy OK

Track 6

Filename F:\EACrips\Against All Authority and The Criminals - 1999 - The Exchange [FLAC]\06 - Five Years On.wav

Peak level 99.0 % Track quality 100.0 % Test CRC B6FEB49B Copy CRC B6FEB49B Accurately ripped (confidence 1) [1EDA10D5] Copy OK

Track 7

Filename F:\EACrips\Against All Authority and The Criminals - 1999 - The Exchange [FLAC]\07 - Down and Out.wav

Peak level 100.0 % Track quality 100.0 % Test CRC B1634ACE Copy CRC B1634ACE Accurately ripped (confidence 1) [B36EBE2B] Copy OK

All tracks accurately ripped

No errors occurred

End of status report
 
REM GENRE PunkREM DATE 1999REM DISCID 5C03AC07REM COMMENT "ExactAudioCopy v0.99pb5"PERFORMER "Against All Authority and The Criminals"TITLE "The Exchange"FILE "01 - The Bottle's Lookin' Better.wav" WAVE TRACK 01 AUDIO TITLE "The Bottle's Lookin' Better" PERFORMER "Against All Authority and The Criminals" INDEX 01 00:00:00FILE "02 - WWYD.wav" WAVE TRACK 02 AUDIO TITLE "WWYD?" PERFORMER "Against All Authority and The Criminals" INDEX 01 00:00:00FILE "03 - I Want To Stab You With Something Rusty.wav" WAVE TRACK 03 AUDIO TITLE "I Want To Stab You With Something Rusty" PERFORMER "Against All Authority and The Criminals" INDEX 01 00:00:00FILE "04 - Wet Foot Policy.wav" WAVE TRACK 04 AUDIO TITLE "Wet Foot Policy" PERFORMER "Against All Authority and The Criminals" INDEX 01 00:00:00FILE "05 - All Fall Down.wav" WAVE TRACK 05 AUDIO TITLE "All Fall Down" PERFORMER "Against All Authority and The Criminals" INDEX 01 00:00:00FILE "06 - Five Years On.wav" WAVE TRACK 06 AUDIO TITLE "Five Years On" PERFORMER "Against All Authority and The Criminals" INDEX 01 00:00:00FILE "07 - Down and Out.wav" WAVE TRACK 07 AUDIO TITLE "Down and Out" PERFORMER "Against All Authority and The Criminals" INDEX 01 00:00:00
01 - 24 Hour Roadside Resistance (01:58)
02 - Dinkas When I Close My Eyes (01:40)
03 - Pestilent Existence (02:18)
04 - Committing The Truth (01:58)
05 - Nothing To Lose (02:18)
06 - I Think You Think Too Much (02:15)
07 - The Next Song (03:28)
08 - Ugly Desires (01:46)
09 - Killing The Truth (02:51)
10 - Policeman (01:45)
11 - I'm Weak Inside (02:40)
12 - Stuck In A Rut (02:30)
13 - The Excuse (01:38)
14 - The Source of Strontium 90 (05:08)
 
Exact Audio Copy V0.99 prebeta 4 from 23. January 2008

EAC extraction logfile from 6. May 2009, 12:53

Against All Authority / 24 Hour Roadside Resistance

Used drive : TSSTcorpDVD+-RW TS-L532B Adapter: 1 ID: 0

Read mode : SecureUtilize accurate stream : YesDefeat audio cache : YesMake use of C2 pointers : No

Read offset correction : 704Overread into Lead-In and Lead-Out : YesFill up missing offset samples with silence : YesDelete leading and trailing silent blocks : NoNull samples used in CRC calculations : YesUsed interface : Native Win32 interface for Win NT & 2000Gap handling : Appended to previous track

Used output format : User Defined EncoderSelected bitrate : 768 kBit/sQuality : HighAdd ID3 tag : NoCommand line compressor : C:\Program Files\Exact Audio Copy\FLAC\FLAC.EXEAdditional command line options : -6 -V -T "ARTIST=%a" -T "TITLE=%t" -T "ALBUM=%g" -T "DATE=%y" -T "TRACKNUMBER=%n" -T "GENRE=%m" -T "COMMENT=%e" %s -o %d

TOC of the extracted CD

Track | Start | Length | Start sector | End sector --------------------------------------------------------- 1 | 0:00.00 | 1:57.35 | 0 | 8809 2 | 1:57.35 | 1:40.20 | 8810 | 16329 3 | 3:37.55 | 2:17.40 | 16330 | 26644 4 | 5:55.20 | 1:57.40 | 26645 | 35459 5 | 7:52.60 | 2:17.62 | 35460 | 45796 6 | 10:10.47 | 2:15.20 | 45797 | 55941 7 | 12:25.67 | 3:28.20 | 55942 | 71561 8 | 15:54.12 | 1:45.55 | 71562 | 79491 9 | 17:39.67 | 2:50.38 | 79492 | 92279 10 | 20:30.30 | 1:44.40 | 92280 | 100119 11 | 22:14.70 | 2:39.30 | 100120 | 112074 12 | 24:54.25 | 2:30.22 | 112075 | 123346 13 | 27:24.47 | 1:37.38 | 123347 | 130659 14 | 29:02.10 | 5:08.07 | 130660 | 153766

Track 1

Filename C:\Albums\Against All Authority\24 Hour Roadside Resistance[2000]\01 - 24 Hour Roadside Resistance.wav

Pre-gap length 0:00:02.00

Peak level 98.8 % Track quality 100.0 % Test CRC CA789733 Copy CRC CA789733 Accurately ripped (confidence 2) [20BF2E3F] Copy OK

Track 2

Filename C:\Albums\Against All Authority\24 Hour Roadside Resistance[2000]\02 - Dinkas When I Close My Eyes.wav

Peak level 98.9 % Track quality 99.8 % Test CRC CAB567EB Copy CRC CAB567EB Accurately ripped (confidence 2) [035EAD2C] Copy OK

Track 3

Filename C:\Albums\Against All Authority\24 Hour Roadside Resistance[2000]\03 - Pestilent Existence.wav

Peak level 98.8 % Track quality 100.0 % Test CRC CE5DEE99 Copy CRC CE5DEE99 Accurately ripped (confidence 2) [A3DAE4BA] Copy OK

Track 4

Filename C:\Albums\Against All Authority\24 Hour Roadside Resistance[2000]\04 - Committing The Truth.wav

Peak level 98.8 % Track quality 99.9 % Test CRC 613F85B5 Copy CRC 613F85B5 Accurately ripped (confidence 2) [F5FC2FFF] Copy OK

Track 5

Filename C:\Albums\Against All Authority\24 Hour Roadside Resistance[2000]\05 - Nothing To Lose.wav

Peak level 98.8 % Track quality 99.9 % Test CRC C2308EBF Copy CRC C2308EBF Accurately ripped (confidence 2) [1C3AE6F8] Copy OK

Track 6

Filename C:\Albums\Against All Authority\24 Hour Roadside Resistance[2000]\06 - I Think You Think Too Much.wav

Peak level 98.8 % Track quality 100.0 % Test CRC A69AE2FA Copy CRC A69AE2FA Accurately ripped (confidence 2) [59719E75] Copy OK

Track 7

Filename C:\Albums\Against All Authority\24 Hour Roadside Resistance[2000]\07 - The Next Song.wav

Peak level 98.8 % Track quality 100.0 % Test CRC FD89611E Copy CRC FD89611E Accurately ripped (confidence 2) [E401FB09] Copy OK

Track 8

Filename C:\Albums\Against All Authority\24 Hour Roadside Resistance[2000]\08 - Ugly Desires.wav

Peak level 98.8 % Track quality 100.0 % Test CRC DDAAAC1A Copy CRC DDAAAC1A Accurately ripped (confidence 2) [C067FF30] Copy OK

Track 9

Filename C:\Albums\Against All Authority\24 Hour Roadside Resistance[2000]\09 - Killing The Truth.wav

Peak level 98.8 % Track quality 100.0 % Test CRC B925F351 Copy CRC B925F351 Accurately ripped (confidence 2) [A26A098A] Copy OK

Track 10

Filename C:\Albums\Against All Authority\24 Hour Roadside Resistance[2000]\10 - Policeman.wav

Peak level 98.8 % Track quality 100.0 % Test CRC CD8270DB Copy CRC CD8270DB Accurately ripped (confidence 2) [DE31397C] Copy OK

Track 11

Filename C:\Albums\Against All Authority\24 Hour Roadside Resistance[2000]\11 - I'm Weak Inside.wav

Peak level 98.8 % Track quality 99.9 % Test CRC 43CEF4CF Copy CRC 43CEF4CF Accurately ripped (confidence 2) [BDA849FD] Copy OK

Track 12

Filename C:\Albums\Against All Authority\24 Hour Roadside Resistance[2000]\12 - Stuck In A Rut.wav

Peak level 98.8 % Track quality 100.0 % Test CRC CD0C65DE Copy CRC CD0C65DE Accurately ripped (confidence 2) [67D998CF] Copy OK

Track 13

Filename C:\Albums\Against All Authority\24 Hour Roadside Resistance[2000]\13 - The Excuse.wav

Peak level 98.8 % Track quality 100.0 % Test CRC 26E43712 Copy CRC 26E43712 Accurately ripped (confidence 2) [CCA24E74] Copy OK

Track 14

Filename C:\Albums\Against All Authority\24 Hour Roadside Resistance[2000]\14 - The Source of Strontium 90.wav

Peak level 100.0 % Track quality 100.0 % Test CRC 3E8E977B Copy CRC 3E8E977B Accurately ripped (confidence 2) [4CC9C4A3] Copy OK

All tracks accurately ripped

No errors occurred

End of status report
 
REM GENRE PunkREM DATE 2000REM DISCID B808020EREM COMMENT "ExactAudioCopy v0.99pb4"PERFORMER "Against All Authority"TITLE "24 Hour Roadside Resistance"FILE "01 - 24 Hour Roadside Resistance.wav" WAVE TRACK 01 AUDIO TITLE "24 Hour Roadside Resistance" PERFORMER "Against All Authority" INDEX 01 00:00:00FILE "02 - Dinkas When I Close My Eyes.wav" WAVE TRACK 02 AUDIO TITLE "Dinkas When I Close My Eyes" PERFORMER "Against All Authority" INDEX 01 00:00:00FILE "03 - Pestilent Existence.wav" WAVE TRACK 03 AUDIO TITLE "Pestilent Existence" PERFORMER "Against All Authority" INDEX 01 00:00:00FILE "04 - Committing The Truth.wav" WAVE TRACK 04 AUDIO TITLE "Committing The Truth" PERFORMER "Against All Authority" INDEX 01 00:00:00FILE "05 - Nothing To Lose.wav" WAVE TRACK 05 AUDIO TITLE "Nothing To Lose" PERFORMER "Against All Authority" INDEX 01 00:00:00FILE "06 - I Think You Think Too Much.wav" WAVE TRACK 06 AUDIO TITLE "I Think You Think Too Much" PERFORMER "Against All Authority" INDEX 01 00:00:00FILE "07 - The Next Song.wav" WAVE TRACK 07 AUDIO TITLE "The Next Song" PERFORMER "Against All Authority" INDEX 01 00:00:00FILE "08 - Ugly Desires.wav" WAVE TRACK 08 AUDIO TITLE "Ugly Desires" PERFORMER "Against All Authority" INDEX 01 00:00:00FILE "09 - Killing The Truth.wav" WAVE TRACK 09 AUDIO TITLE "Killing The Truth" PERFORMER "Against All Authority" INDEX 01 00:00:00FILE "10 - Policeman.wav" WAVE TRACK 10 AUDIO TITLE Policeman PERFORMER "Against All Authority" INDEX 01 00:00:00FILE "11 - I'm Weak Inside.wav" WAVE TRACK 11 AUDIO TITLE "I'm Weak Inside" PERFORMER "Against All Authority" INDEX 01 00:00:00FILE "12 - Stuck In A Rut.wav" WAVE TRACK 12 AUDIO TITLE "Stuck In A Rut" PERFORMER "Against All Authority" INDEX 01 00:00:00FILE "13 - The Excuse.wav" WAVE TRACK 13 AUDIO TITLE "The Excuse" PERFORMER "Against All Authority" INDEX 01 00:00:00FILE "14 - The Source Of Strontium 90.wav" WAVE TRACK 14 AUDIO TITLE "The Source Of Strontium 90" PERFORMER "Against All Authority" INDEX 01 00:00:00
01 - Just An Obstruction (01:33)
02 - That Way (02:19)
03 - In On Your Joke (01:41)
04 - Bakunin (02:18)
05 - Livin' In Miami (01:53)
06 - When It Comes Down To You (01:39)
07 - Nothing To Lose (02:08)
08 - Haymarket Square (02:13)
09 - Sacco & Vanzetti (01:37)
10 - Alba (01:56)
11 - Threat (01:50)
12 - Hard As Fuck (02:07)
13 - Centerfold (01:52)
14 - Above The Law (02:50)
15 - We Won't Submit (02:13)
16 - Court 22 (02:10)
17 - Under Your Authority (02:39)
18 - Ska Sucks (01:35)
 
Exact Audio Copy V0.99 prebeta 4 from 23. January 2008

EAC extraction logfile from 4. May 2009, 9:36

Against All Authority / Nothing New For Trash Like You

Used drive : ASUS DVD-E616A Adapter: 2 ID: 0

Read mode : SecureUtilize accurate stream : YesDefeat audio cache : YesMake use of C2 pointers : No

Read offset correction : 6Overread into Lead-In and Lead-Out : NoFill up missing offset samples with silence : YesDelete leading and trailing silent blocks : NoNull samples used in CRC calculations : YesUsed interface : Native Win32 interface for Win NT & 2000Gap handling : Appended to previous track

Used output format : User Defined EncoderSelected bitrate : 128 kBit/sQuality : HighAdd ID3 tag : NoCommand line compressor : C:\Program Files\Exact Audio Copy\Flac\flac.exeAdditional command line options : -V -8 -T "artist=%a" -T "title=%t" -T "album=%g" -T "date=%y" -T "tracknumber=%n" -T "genre=%m" %s

TOC of the extracted CD

Track | Start | Length | Start sector | End sector --------------------------------------------------------- 1 | 0:00.00 | 1:32.42 | 0 | 6941 2 | 1:32.42 | 2:19.08 | 6942 | 17374 3 | 3:51.50 | 1:41.17 | 17375 | 24966 4 | 5:32.67 | 2:18.05 | 24967 | 35321 5 | 7:50.72 | 1:52.48 | 35322 | 43769 6 | 9:43.45 | 1:38.27 | 43770 | 51146 7 | 11:21.72 | 2:08.10 | 51147 | 60756 8 | 13:30.07 | 2:13.18 | 60757 | 70749 9 | 15:43.25 | 1:36.42 | 70750 | 77991 10 | 17:19.67 | 1:55.60 | 77992 | 86676 11 | 19:15.52 | 1:49.53 | 86677 | 94904 12 | 21:05.30 | 2:06.72 | 94905 | 104426 13 | 23:12.27 | 1:52.00 | 104427 | 112826 14 | 25:04.27 | 2:49.50 | 112827 | 125551 15 | 27:54.02 | 2:12.48 | 125552 | 135499 16 | 30:06.50 | 2:10.12 | 135500 | 145261 17 | 32:16.62 | 2:39.15 | 145262 | 157201 18 | 34:56.02 | 1:34.60 | 157202 | 164311

Track 1

Filename C:\EACrips\Against All Authority - Nothing New For Trash Like You [FLAC]\01 - Just An Obstruction.wav

Pre-gap length 0:00:02.00

Peak level 96.6 % Track quality 100.0 % Test CRC B84335C0 Copy CRC B84335C0 Track not present in AccurateRip database Copy OK

Track 2

Filename C:\EACrips\Against All Authority - Nothing New For Trash Like You [FLAC]\02 - That Way.wav

Peak level 89.1 % Track quality 100.0 % Test CRC 8D6BE341 Copy CRC 8D6BE341 Track not present in AccurateRip database Copy OK

Track 3

Filename C:\EACrips\Against All Authority - Nothing New For Trash Like You [FLAC]\03 - In On Your Joke.wav

Peak level 92.2 % Track quality 100.0 % Test CRC BDA82D1F Copy CRC BDA82D1F Track not present in AccurateRip database Copy OK

Track 4

Filename C:\EACrips\Against All Authority - Nothing New For Trash Like You [FLAC]\04 - Bakunin.wav

Peak level 98.8 % Track quality 100.0 % Test CRC EEEFE0BE Copy CRC EEEFE0BE Track not present in AccurateRip database Copy OK

Track 5

Filename C:\EACrips\Against All Authority - Nothing New For Trash Like You [FLAC]\05 - Livin' In Miami.wav

Peak level 98.8 % Track quality 100.0 % Test CRC 557E6BBC Copy CRC 557E6BBC Track not present in AccurateRip database Copy OK

Track 6

Filename C:\EACrips\Against All Authority - Nothing New For Trash Like You [FLAC]\06 - When It Comes Down To You.wav

Peak level 98.8 % Track quality 100.0 % Test CRC 145C782E Copy CRC 145C782E Track not present in AccurateRip database Copy OK

Track 7

Filename C:\EACrips\Against All Authority - Nothing New For Trash Like You [FLAC]\07 - Nothing To Lose.wav

Peak level 96.6 % Track quality 100.0 % Test CRC 123FC70D Copy CRC 123FC70D Track not present in AccurateRip database Copy OK

Track 8

Filename C:\EACrips\Against All Authority - Nothing New For Trash Like You [FLAC]\08 - Haymarket Square.wav

Peak level 98.8 % Track quality 100.0 % Test CRC 58CC65F5 Copy CRC 58CC65F5 Track not present in AccurateRip database Copy OK

Track 9

Filename C:\EACrips\Against All Authority - Nothing New For Trash Like You [FLAC]\09 - Sacco & Vanzetti.wav

Peak level 97.7 % Track quality 100.0 % Test CRC 61992BEC Copy CRC 61992BEC Track not present in AccurateRip database Copy OK

Track 10

Filename C:\EACrips\Against All Authority - Nothing New For Trash Like You [FLAC]\10 - Alba.wav

Peak level 98.8 % Track quality 100.0 % Test CRC 10F5BEFC Copy CRC 10F5BEFC Track not present in AccurateRip database Copy OK

Track 11

Filename C:\EACrips\Against All Authority - Nothing New For Trash Like You [FLAC]\11 - Threat.wav

Peak level 95.5 % Track quality 100.0 % Test CRC B0F29142 Copy CRC B0F29142 Track not present in AccurateRip database Copy OK

Track 12

Filename C:\EACrips\Against All Authority - Nothing New For Trash Like You [FLAC]\12 - Hard As Fuck.wav

Peak level 96.6 % Track quality 100.0 % Test CRC 34912C5D Copy CRC 34912C5D Track not present in AccurateRip database Copy OK

Track 13

Filename C:\EACrips\Against All Authority - Nothing New For Trash Like You [FLAC]\13 - Centerfold.wav

Peak level 94.4 % Track quality 100.0 % Test CRC 50509BC8 Copy CRC 50509BC8 Track not present in AccurateRip database Copy OK

Track 14

Filename C:\EACrips\Against All Authority - Nothing New For Trash Like You [FLAC]\14 - Above The Law.wav

Peak level 98.8 % Track quality 99.9 % Test CRC 26CDE404 Copy CRC 26CDE404 Track not present in AccurateRip database Copy OK

Track 15

Filename C:\EACrips\Against All Authority - Nothing New For Trash Like You [FLAC]\15 - We Won't Submit.wav

Peak level 98.8 % Track quality 100.0 % Test CRC CD205B05 Copy CRC CD205B05 Track not present in AccurateRip database Copy OK

Track 16

Filename C:\EACrips\Against All Authority - Nothing New For Trash Like You [FLAC]\16 - Court 22.wav

Peak level 98.8 % Track quality 99.9 % Test CRC 243D9404 Copy CRC 243D9404 Track not present in AccurateRip database Copy OK

Track 17

Filename C:\EACrips\Against All Authority - Nothing New For Trash Like You [FLAC]\17 - Under Your Authority.wav

Peak level 98.8 % Track quality 100.0 % Test CRC 8C9E860C Copy CRC 8C9E860C Track not present in AccurateRip database Copy OK

Track 18

Filename C:\EACrips\Against All Authority - Nothing New For Trash Like You [FLAC]\18 - Ska Sucks.wav

Peak level 94.4 % Track quality 100.0 % Test CRC FCF44061 Copy CRC FCF44061 Track not present in AccurateRip database Copy OK

None of the tracks are present in the AccurateRip database

No errors occurred

End of status report
 
REM GENRE PunkREM DATE 2001REM DISCID FC088E12REM COMMENT "ExactAudioCopy v0.99pb4"PERFORMER "Against All Authority"TITLE "Nothing New For Trash Like You"FILE "01 - Just An Obstruction.wav" WAVE TRACK 01 AUDIO TITLE "Just An Obstruction" PERFORMER "Against All Authority" INDEX 01 00:00:00FILE "02 - That Way.wav" WAVE TRACK 02 AUDIO TITLE "That Way" PERFORMER "Against All Authority" INDEX 01 00:00:00FILE "03 - In On Your Joke.wav" WAVE TRACK 03 AUDIO TITLE "In On Your Joke" PERFORMER "Against All Authority" INDEX 01 00:00:00FILE "04 - Bakunin.wav" WAVE TRACK 04 AUDIO TITLE Bakunin PERFORMER "Against All Authority" INDEX 01 00:00:00FILE "05 - Livin' In Miami.wav" WAVE TRACK 05 AUDIO TITLE "Livin' In Miami" PERFORMER "Against All Authority" INDEX 01 00:00:00FILE "06 - When It Comes Down To You.wav" WAVE TRACK 06 AUDIO TITLE "When It Comes Down To You" PERFORMER "Against All Authority" INDEX 01 00:00:00FILE "07 - Nothing To Lose.wav" WAVE TRACK 07 AUDIO TITLE "Nothing To Lose" PERFORMER "Against All Authority" INDEX 01 00:00:00FILE "08 - Haymarket Square.wav" WAVE TRACK 08 AUDIO TITLE "Haymarket Square" PERFORMER "Against All Authority" INDEX 01 00:00:00FILE "09 - Sacco & Vanzetti.wav" WAVE TRACK 09 AUDIO TITLE "Sacco & Vanzetti" PERFORMER "Against All Authority" INDEX 01 00:00:00FILE "10 - Alba.wav" WAVE TRACK 10 AUDIO TITLE Alba PERFORMER "Against All Authority" INDEX 01 00:00:00FILE "11 - Threat.wav" WAVE TRACK 11 AUDIO TITLE Threat PERFORMER "Against All Authority" INDEX 01 00:00:00FILE "12 - Hard As Fuck.wav" WAVE TRACK 12 AUDIO TITLE "Hard As Fuck" PERFORMER "Against All Authority" INDEX 01 00:00:00FILE "13 - Centerfold.wav" WAVE TRACK 13 AUDIO TITLE Centerfold PERFORMER "Against All Authority" INDEX 01 00:00:00FILE "14 - Above The Law.wav" WAVE TRACK 14 AUDIO TITLE "Above The Law" PERFORMER "Against All Authority" INDEX 01 00:00:00FILE "15 - We Won't Submit.wav" WAVE TRACK 15 AUDIO TITLE "We Won't Submit" PERFORMER "Against All Authority" INDEX 01 00:00:00FILE "16 - Court 22.wav" WAVE TRACK 16 AUDIO TITLE "Court 22" PERFORMER "Against All Authority" INDEX 01 00:00:00FILE "17 - Under Your Authority.wav" WAVE TRACK 17 AUDIO TITLE "Under Your Authority" PERFORMER "Against All Authority" INDEX 01 00:00:00FILE "18 - Ska Sucks.wav" WAVE TRACK 18 AUDIO TITLE "Ska Sucks" PERFORMER "Against All Authority" INDEX 01 00:00:00
01 - The Resoration Of Chaos And Order (02:25)
02 - Sweet Televised Destruction (02:45)
03 - All Ages Show Tonight (03:09)
04 - Collecting Scars (02:01)
05 - Radio Waves (02:34)
06 - Silence Is Golden But Duct Tape Is Silver (03:47)
07 - Shut It Down (02:52)
08 - Sunshine Fist Magnet (02:49)
09 - I Just Want To Start A Circle Pit (02:02)
10 - War Machine Breakdown (03:16)
11 - Grinding My Life Away (02:39)
12 - The Production Of Self Destruction (02:38)
13 - Buried Alive (01:58)
14 - Best Enemy (02:52)
 
Exact Audio Copy V0.99 prebeta 4 from 23. January 2008

EAC extraction logfile from 19. December 2009, 13:39

Against All Authority / The Resoration Of Chaos And Order

Used drive : TSSTcorpDVD+-RW TS-L632H Adapter: 0 ID: 0

Read mode : SecureUtilize accurate stream : YesDefeat audio cache : YesMake use of C2 pointers : No

Read offset correction : 6Overread into Lead-In and Lead-Out : NoFill up missing offset samples with silence : YesDelete leading and trailing silent blocks : NoNull samples used in CRC calculations : YesUsed interface : Native Win32 interface for Win NT & 2000Gap handling : Appended to previous track

Used output format : User Defined EncoderSelected bitrate : 128 kBit/sQuality : HighAdd ID3 tag : NoCommand line compressor : C:\Program Files\FLAC\flac.exeAdditional command line options : -V -8 -T "artist=%a" -T "title=%t" -T "album=%g" -T "date=%y" -T "tracknumber=%n" -T "genre=%m" %s

TOC of the extracted CD

Track | Start | Length | Start sector | End sector --------------------------------------------------------- 1 | 0:00.00 | 2:25.15 | 0 | 10889 2 | 2:25.15 | 2:44.30 | 10890 | 23219 3 | 5:09.45 | 3:08.37 | 23220 | 37356 4 | 8:18.07 | 2:01.05 | 37357 | 46436 5 | 10:19.12 | 2:34.18 | 46437 | 58004 6 | 12:53.30 | 3:46.25 | 58005 | 74979 7 | 16:39.55 | 2:52.00 | 74980 | 87879 8 | 19:31.55 | 2:48.40 | 87880 | 100519 9 | 22:20.20 | 2:01.50 | 100520 | 109644 10 | 24:21.70 | 3:15.45 | 109645 | 124314 11 | 27:37.40 | 2:38.32 | 124315 | 136196 12 | 30:15.72 | 2:37.40 | 136197 | 148011 13 | 32:53.37 | 1:57.50 | 148012 | 156836 14 | 34:51.12 | 2:51.25 | 156837 | 169686

Track 1

Filename C:\Documents and Settings\Administrator\Desktop\Against All Authority - The Restoration Of Chaos And & Order (2006) FLAC\01 - The Resoration Of Chaos And Order.wav

Pre-gap length 0:00:02.00

Peak level 100.0 % Track quality 100.0 % Test CRC BEF7ED66 Copy CRC BEF7ED66 Cannot be verified as accurate (confidence 1) [ADABE654], AccurateRip returned [04CEC5BD] Copy OK

Track 2

Filename C:\Documents and Settings\Administrator\Desktop\Against All Authority - The Restoration Of Chaos And & Order (2006) FLAC\02 - Sweet Televised Destruction.wav

Peak level 100.0 % Track quality 100.0 % Test CRC 4FF41348 Copy CRC 4FF41348 Cannot be verified as accurate (confidence 1) [64FB3FC1], AccurateRip returned [3496D2E9] Copy OK

Track 3

Filename C:\Documents and Settings\Administrator\Desktop\Against All Authority - The Restoration Of Chaos And & Order (2006) FLAC\03 - All Ages Show Tonight.wav

Peak level 100.0 % Track quality 100.0 % Test CRC 5A4E3D2C Copy CRC 5A4E3D2C Cannot be verified as accurate (confidence 1) [27DA25E7], AccurateRip returned [A849B07D] Copy OK

Track 4

Filename C:\Documents and Settings\Administrator\Desktop\Against All Authority - The Restoration Of Chaos And & Order (2006) FLAC\04 - Collecting Scars.wav

Peak level 100.0 % Track quality 100.0 % Test CRC 3662F2B3 Copy CRC 3662F2B3 Cannot be verified as accurate (confidence 1) [4C6C6CC6], AccurateRip returned [2B17ACD4] Copy OK

Track 5

Filename C:\Documents and Settings\Administrator\Desktop\Against All Authority - The Restoration Of Chaos And & Order (2006) FLAC\05 - Radio Waves.wav

Peak level 100.0 % Track quality 100.0 % Test CRC 968A2171 Copy CRC 968A2171 Cannot be verified as accurate (confidence 1) [CF410C1F], AccurateRip returned [77175D89] Copy OK

Track 6

Filename C:\Documents and Settings\Administrator\Desktop\Against All Authority - The Restoration Of Chaos And & Order (2006) FLAC\06 - Silence Is Golden But Duct Tape Is Silver.wav

Peak level 100.0 % Track quality 100.0 % Test CRC 8064695D Copy CRC 8064695D Cannot be verified as accurate (confidence 1) [2B00DF2B], AccurateRip returned [2D625E1B] Copy OK

Track 7

Filename C:\Documents and Settings\Administrator\Desktop\Against All Authority - The Restoration Of Chaos And & Order (2006) FLAC\07 - Shut It Down.wav

Peak level 100.0 % Track quality 99.9 % Test CRC 472D8985 Copy CRC 472D8985 Cannot be verified as accurate (confidence 1) [30978F6B], AccurateRip returned [DF20C49D] Copy OK

Track 8

Filename C:\Documents and Settings\Administrator\Desktop\Against All Authority - The Restoration Of Chaos And & Order (2006) FLAC\08 - Sunshine Fist Magnet.wav

Peak level 100.0 % Track quality 100.0 % Test CRC 60471200 Copy CRC 60471200 Cannot be verified as accurate (confidence 1) [0C65ABC3], AccurateRip returned [072AB901] Copy OK

Track 9

Filename C:\Documents and Settings\Administrator\Desktop\Against All Authority - The Restoration Of Chaos And & Order (2006) FLAC\09 - I Just Want To Start A Circle Pit.wav

Peak level 100.0 % Track quality 100.0 % Test CRC CC5B9BF1 Copy CRC CC5B9BF1 Cannot be verified as accurate (confidence 1) [7E2818BE], AccurateRip returned [747374D8] Copy OK

Track 10

Filename C:\Documents and Settings\Administrator\Desktop\Against All Authority - The Restoration Of Chaos And & Order (2006) FLAC\10 - War Machine Breakdown.wav

Peak level 100.0 % Track quality 99.9 % Test CRC FC6E37CA Copy CRC FC6E37CA Cannot be verified as accurate (confidence 1) [2D18DB02], AccurateRip returned [F97C393A] Copy OK

Track 11

Filename C:\Documents and Settings\Administrator\Desktop\Against All Authority - The Restoration Of Chaos And & Order (2006) FLAC\11 - Grinding My Life Away.wav

Peak level 100.0 % Track quality 100.0 % Test CRC 8133E681 Copy CRC 8133E681 Cannot be verified as accurate (confidence 1) [EAC7A2A1], AccurateRip returned [14B326F7] Copy OK

Track 12

Filename C:\Documents and Settings\Administrator\Desktop\Against All Authority - The Restoration Of Chaos And & Order (2006) FLAC\12 - The Production Of Self Destruction.wav

Peak level 100.0 % Track quality 100.0 % Test CRC ACD606C0 Copy CRC ACD606C0 Cannot be verified as accurate (confidence 1) [B88FE5EC], AccurateRip returned [4878E6F4] Copy OK

Track 13

Filename C:\Documents and Settings\Administrator\Desktop\Against All Authority - The Restoration Of Chaos And & Order (2006) FLAC\13 - Buried Alive.wav

Peak level 100.0 % Track quality 100.0 % Test CRC 454827B0 Copy CRC 454827B0 Cannot be verified as accurate (confidence 1) [E913DFF4], AccurateRip returned [0E488E5C] Copy OK

Track 14

Filename C:\Documents and Settings\Administrator\Desktop\Against All Authority - The Restoration Of Chaos And & Order (2006) FLAC\14 - Best Enemy.wav

Peak level 100.0 % Track quality 99.9 % Test CRC A807E28C Copy CRC A807E28C Cannot be verified as accurate (confidence 1) [11C7BC40], AccurateRip returned [085559DE] Copy OK

No tracks could be verified as accurateYou may have a different pressing from the one(s) in the database

No errors occurred

End of status report
 
REM GENRE PunkREM DATE 2006REM DISCID A408D60EREM COMMENT "ExactAudioCopy v0.99pb4"PERFORMER "Against All Authority"TITLE "The Resoration Of Chaos And Order"FILE "01 - The Resoration Of Chaos And Order.wav" WAVE TRACK 01 AUDIO TITLE "The Resoration Of Chaos And Order" PERFORMER "Against All Authority" INDEX 01 00:00:00FILE "02 - Sweet Televised Destruction.wav" WAVE TRACK 02 AUDIO TITLE "Sweet Televised Destruction" PERFORMER "Against All Authority" INDEX 01 00:00:00FILE "03 - All Ages Show Tonight.wav" WAVE TRACK 03 AUDIO TITLE "All Ages Show Tonight" PERFORMER "Against All Authority" INDEX 01 00:00:00FILE "04 - Collecting Scars.wav" WAVE TRACK 04 AUDIO TITLE "Collecting Scars" PERFORMER "Against All Authority" INDEX 01 00:00:00FILE "05 - Radio Waves.wav" WAVE TRACK 05 AUDIO TITLE "Radio Waves" PERFORMER "Against All Authority" INDEX 01 00:00:00FILE "06 - Silence Is Golden But Duct Tape Is Silver.wav" WAVE TRACK 06 AUDIO TITLE "Silence Is Golden But Duct Tape Is Silver" PERFORMER "Against All Authority" INDEX 01 00:00:00FILE "07 - Shut It Down.wav" WAVE TRACK 07 AUDIO TITLE "Shut It Down" PERFORMER "Against All Authority" INDEX 01 00:00:00FILE "08 - Sunshine Fist Magnet.wav" WAVE TRACK 08 AUDIO TITLE "Sunshine Fist Magnet" PERFORMER "Against All Authority" INDEX 01 00:00:00FILE "09 - I Just Want To Start A Circle Pit.wav" WAVE TRACK 09 AUDIO TITLE "I Just Want To Start A Circle Pit" PERFORMER "Against All Authority" INDEX 01 00:00:00FILE "10 - War Machine Breakdown.wav" WAVE TRACK 10 AUDIO TITLE "War Machine Breakdown" PERFORMER "Against All Authority" INDEX 01 00:00:00FILE "11 - Grinding My Life Away.wav" WAVE TRACK 11 AUDIO TITLE "Grinding My Life Away" PERFORMER "Against All Authority" INDEX 01 00:00:00FILE "12 - The Production Of Self Destruction.wav" WAVE TRACK 12 AUDIO TITLE "The Production Of Self Destruction" PERFORMER "Against All Authority" INDEX 01 00:00:00FILE "13 - Buried Alive.wav" WAVE TRACK 13 AUDIO TITLE "Buried Alive" PERFORMER "Against All Authority" INDEX 01 00:00:00FILE "14 - Best Enemy.wav" WAVE TRACK 14 AUDIO TITLE "Best Enemy" PERFORMER "Against All Authority" INDEX 01 00:00:00

Доп. информация:
Danny Lore – Bass and Vocals
Joe Koontz – Guitar and Backing Vocals
Jeremy Kaiser – Trumpet
Macbeth Proenza – Drums
Against All Authority (англ. Против всех властей) это ска-панк группа из Майами, штат Флорида, образованная в 1992, и приводимая в движение одной мыслью — «поставить под сомнения наши экономические различия и продвинуть идею о челевеческой схожести», как утверждает их официальный сайт. Сильное убеждение в политических и социальных делах просматриваются в текстах их песен. Сначала, группа решила огранизовывать концерты, делать записи и производить символику самостоятельно. Затем они подписали контракт с независимым лэйблом Hopeless Records, становясь одной из лидирующих групп. Кроме гастролей и записей, они активно учавствуют в демонстрациях и социальных проэктах.


Трекер:  [ 03-Фев-2012 01:13 ]

  

Скачать .torrent

Размер .torrent файла 25 KB


Размер: 1.47 GB
Хэш (hash) релиза: 1a6d2d36ff600c387cccbfbe374b74bbbcd60250

Торренты, похожие на Against All Authority - Discography скачать торрент

Форум Название Автор Размер S L Добавлен
Reggae, Ska, Dub (mp3) ·· (SkaPunk / SkaCore) Against All Authority - Discography (1995-2006) [MP3 (tracks) 320 kbps] Galfimbul 586503686559 MB 0 0 1327243990

17:53

22-Янв-12

Еще никто не оставлял запись к записи скачать торрент Against All Authority - Discography . Будь первым!

!Обратная связь