MaDonna Grimes Dance Street Collection DVDRip NEws Links | BUNK'D saison 3 episode 13 streaming | Watch Now

Скачать через торрент музыку Skalariak - 7 CD бесплатно без регистрации torrent

Статистика раздачи
Размер:  2.89 GB   |    Зарегистрирован:  6 лет 7 месяцев   |    .torrent скачан:  37 раз   |   
Раздают:  1  
   
загрузка...
 
Автор Сообщение

_N_

avatar _N_


Skalariak - 7 CD -(1997-2008)

Жанр: 3rd Wave Ska / Skinhead Reggae
Страна-производитель диска: USA
Год издания диска: 1997-2008
Издатель (лейбл): GOR
Страна: Испания
Аудио кодек: FLAC (*.flac)
Тип рипа: image+.cue
Битрейт аудио: lossless
Продолжительность: 07:00
Источник (релизер): BOG6
Наличие сканов в содержимом раздачи: да
01 Sarrera 01:08
02 O, neure herri 03:33
03 Ningun valor 02:43
04 Calipso-reggae 04:07
05 Fuego de revolucion 04:08
06 Todos los hintxas 03:39
07 Agur Euskal Herriari 02:35
08 Jaia 03:41
09 Rabia 04:15
10 Txapeldunak 02:32
11 Una vez mas 04:12
12 Capitalismo canibal 02:16
13 Niegan 04:42
14 Skalariak 02:50
Exact Audio Copy V0.99 prebeta 5 from 4. May 2009

Отчёт EAC об извлечении, выполненном 14. февраля 2011, 21:08

Skalariak / Skalariak

Дисковод: HL-DT-STDVD-ROM GDR8162B Adapter: 1 ID: 0

Режим чтения : Достоверность
Использование точного потока : Да
Отключение кэша аудио : Да
Использование указателей C2 : Нет

Коррекция смещения при чтении : 102
Способность читать области Lead-in и Lead-out : Нет
Заполнение пропущенных сэмплов тишиной : Да
Удаление блоков с тишиной в начале и конце : Нет
При вычислениях CRC использовались нулевые сэмплы : Да
Интерфейс : Встроенный Win32-интерфейс для Win NT/2000

Выходной формат : Пользовательский кодировщик
Выбранный битрейт : 768 kBit/s
Качество : Высокий
Добавление ID3-тэга : Нет
Утилита сжатия : C:\FLAC.EXE
Дополнительные параметры : -6 -V -T "ARTIST=%a" -T "TITLE=%t" -T "ALBUM=%g" -T "DATE=%y" -T "TRACKNUMBER=%n" -T "GENRE=%m" -T "COMMENT=%e" %s -o %d

TOC извлечённого CD

Трек | Старт | Длительность | Начальный сектор | Конечный сектор
---------------------------------------------------------------------
1 | 0:00.00 | 1:08.20 | 0 | 5119
2 | 1:08.20 | 3:33.05 | 5120 | 21099
3 | 4:41.25 | 2:43.47 | 21100 | 33371
4 | 7:24.72 | 4:07.60 | 33372 | 51956
5 | 11:32.57 | 4:08.20 | 51957 | 70576
6 | 15:41.02 | 3:39.68 | 70577 | 87069
7 | 19:20.70 | 2:35.40 | 87070 | 98734
8 | 21:56.35 | 3:41.22 | 98735 | 115331
9 | 25:37.57 | 4:15.25 | 115332 | 134481
10 | 29:53.07 | 2:32.73 | 134482 | 145954
11 | 32:26.05 | 4:12.10 | 145955 | 164864
12 | 36:38.15 | 2:16.52 | 164865 | 175116
13 | 38:54.67 | 4:42.40 | 175117 | 196306
14 | 43:37.32 | 2:50.58 | 196307 | 209114

Характеристики диапазона извлечения и сообщения об ошибках

Выбранный диапазон

Имя файла C:\Skalariak - Skalariak.wav

Пиковый уровень 100.0 %
Качество диапазона 100.0 %
CRC копии BA48AFAF
Копирование... OK

Ошибок не произошло

AccurateRip: сводка

Трек 1 нет в базе данных
Трек 2 нет в базе данных
Трек 3 нет в базе данных
Трек 4 нет в базе данных
Трек 5 нет в базе данных
Трек 6 точность не определена (достоверность 1) [8FDADEB7], AccurateRip вернул [BEAD58B1]
Трек 7 нет в базе данных
Трек 8 точность не определена (достоверность 1) [A0CE4675], AccurateRip вернул [8313A246]
Трек 9 нет в базе данных
Трек 10 нет в базе данных
Трек 11 точность не определена (достоверность 1) [08FFF40B], AccurateRip вернул [7A239E6B]
Трек 12 нет в базе данных
Трек 13 нет в базе данных
Трек 14 нет в базе данных

3 трек(и) не удалось проверить на точность
11 трек(и) не содержатся в базе AccurateRip

Ни один трек не прошёл проверки на точность
В вашей базе может быть иной вариант штамповки диска

Конец отчёта
01 Sarrera II 02:20
02 Puto alcohol 02:26
03 Segi, segi, segi 04:32
04 Unios 04:01
05 Solo vivir 03:26
06 Huyes 03:23
07 Naturarekin bat 03:12
08 Soldados 03:24
09 Neska-reggae 03:53
10 En mi skarabajo rojo 03:13
11 Maldita sea tu suerte!! 04:12
12 A buen ritmo 03:37
13 Pide perdon 03:45
14 Klub ska 03:56
Exact Audio Copy V0.99 prebeta 5 from 4. May 2009

Отчёт EAC об извлечении, выполненном 14. февраля 2011, 21:20

Skalariak / Klub Ska

Дисковод: HL-DT-STDVD-ROM GDR8162B Adapter: 1 ID: 0

Режим чтения : Достоверность
Использование точного потока : Да
Отключение кэша аудио : Да
Использование указателей C2 : Нет

Коррекция смещения при чтении : 102
Способность читать области Lead-in и Lead-out : Нет
Заполнение пропущенных сэмплов тишиной : Да
Удаление блоков с тишиной в начале и конце : Нет
При вычислениях CRC использовались нулевые сэмплы : Да
Интерфейс : Встроенный Win32-интерфейс для Win NT/2000

Выходной формат : Пользовательский кодировщик
Выбранный битрейт : 768 kBit/s
Качество : Высокий
Добавление ID3-тэга : Нет
Утилита сжатия : C:\FLAC.EXE
Дополнительные параметры : -6 -V -T "ARTIST=%a" -T "TITLE=%t" -T "ALBUM=%g" -T "DATE=%y" -T "TRACKNUMBER=%n" -T "GENRE=%m" -T "COMMENT=%e" %s -o %d

TOC извлечённого CD

Трек | Старт | Длительность | Начальный сектор | Конечный сектор
---------------------------------------------------------------------
1 | 0:00.00 | 2:20.28 | 0 | 10527
2 | 2:20.28 | 2:26.33 | 10528 | 21510
3 | 4:46.61 | 4:32.20 | 21511 | 41930
4 | 9:19.06 | 4:01.00 | 41931 | 60005
5 | 13:20.06 | 3:26.02 | 60006 | 75457
6 | 16:46.08 | 3:23.23 | 75458 | 90705
7 | 20:09.31 | 3:12.34 | 90706 | 105139
8 | 23:21.65 | 3:24.28 | 105140 | 120467
9 | 26:46.18 | 3:53.02 | 120468 | 137944
10 | 30:39.20 | 3:13.18 | 137945 | 152437
11 | 33:52.38 | 4:12.19 | 152438 | 171356
12 | 38:04.57 | 3:37.30 | 171357 | 187661
13 | 41:42.12 | 3:45.35 | 187662 | 204571
14 | 45:27.47 | 3:56.67 | 204572 | 222338

Характеристики диапазона извлечения и сообщения об ошибках

Выбранный диапазон

Имя файла C:\Skalariak - Klub Ska.wav

Пиковый уровень 100.0 %
Качество диапазона 100.0 %
CRC копии AA79BC63
Копирование... OK

Ошибок не произошло

AccurateRip: сводка

Трек 1 нет в базе данных
Трек 2 нет в базе данных
Трек 3 нет в базе данных
Трек 4 нет в базе данных
Трек 5 нет в базе данных
Трек 6 нет в базе данных
Трек 7 нет в базе данных
Трек 8 нет в базе данных
Трек 9 нет в базе данных
Трек 10 нет в базе данных
Трек 11 нет в базе данных
Трек 12 нет в базе данных
Трек 13 нет в базе данных
Трек 14 нет в базе данных

Ни одного трека нет в базе AccurateRip

Конец отчёта
01 Sarrera III 02:00
02 iEstoy de revuelta ! 02:15
03 Oligarquia 02:55
04 En la civilizacion 03:50
05 Skalari Rude Klub (s.r.k.) 03:37
06 Ruido 02:55
07 ?Quien nos ha robado? 03:21
08 Nuestra manifestacion 03:30
09 Emakume askea ...lur askea 03:46
10 La makina ska 03:18
11 Vodka revolucion 03:32
12 Plaza Gorria 03:21
13 Eguzkitan edan 02:53
14 La kalle Ska 04:46
Exact Audio Copy V1.0 beta 1 from 15. November 2010

EAC extraction logfile from 28. March 2011, 22:41

SKALARIAK / En la kalle

Used drive : HL-DT-STDVD-ROM GDR8162B Adapter: 1 ID: 0

Read mode : Secure
Utilize accurate stream : Yes
Defeat audio cache : Yes
Make use of C2 pointers : No

Read offset correction : 102
Overread into Lead-In and Lead-Out : No
Fill up missing offset samples with silence : Yes
Delete leading and trailing silent blocks : No
Null samples used in CRC calculations : Yes
Used interface : Installed external ASPI interface

Used output format : User Defined Encoder
Selected bitrate : 768 kBit/s
Quality : High
Add ID3 tag : No
Command line compressor : C:\FLAC.EXE
Additional command line options : -6 -V -T "ARTIST=%a" -T "TITLE=%t" -T "ALBUM=%g" -T "DATE=%y" -T "TRACKNUMBER=%n" -T "GENRE=%m" -T "COMMENT=%e" %j--picture="%i"%j %s -o %d

TOC of the extracted CD

Track | Start | Length | Start sector | End sector
---------------------------------------------------------
1 | 0:00.00 | 2:00.00 | 0 | 8999
2 | 2:00.00 | 2:15.16 | 9000 | 19140
3 | 4:15.16 | 2:55.02 | 19141 | 32267
4 | 7:10.18 | 3:50.19 | 32268 | 49536
5 | 11:00.37 | 3:37.61 | 49537 | 65872
6 | 14:38.23 | 2:55.55 | 65873 | 79052
7 | 17:34.03 | 3:21.09 | 79053 | 94136
8 | 20:55.12 | 3:30.66 | 94137 | 109952
9 | 24:26.03 | 3:46.03 | 109953 | 126905
10 | 28:12.06 | 3:18.69 | 126906 | 141824
11 | 31:31.00 | 3:32.40 | 141825 | 157764
12 | 35:03.40 | 3:21.46 | 157765 | 172885
13 | 38:25.11 | 2:53.46 | 172886 | 185906
14 | 41:18.57 | 4:46.35 | 185907 | 207391

Range status and errors

Selected range

Filename C:\SKALARIAK - En la kalle.wav

Peak level 100.0 %
Extraction speed 0.8 X
Range quality 100.0 %
Copy CRC 60DA93B6
Copy OK

No errors occurred

AccurateRip summary

Track 1 cannot be verified as accurate (confidence 1) [BF889738], AccurateRip returned [08AA4183]
Track 2 cannot be verified as accurate (confidence 1) [A71E4016], AccurateRip returned [1D28B736]
Track 3 cannot be verified as accurate (confidence 1) [0642AACE], AccurateRip returned [AAD578B3]
Track 4 cannot be verified as accurate (confidence 1) [C7016DB6], AccurateRip returned [68183820]
Track 5 cannot be verified as accurate (confidence 1) [1D3FCC62], AccurateRip returned [2242F39B]
Track 6 cannot be verified as accurate (confidence 1) [7B7FE04E], AccurateRip returned [3E21698B]
Track 7 cannot be verified as accurate (confidence 1) [1DE19B07], AccurateRip returned [7E0F60FB]
Track 8 cannot be verified as accurate (confidence 1) [BB037DE4], AccurateRip returned [06DF0EF3]
Track 9 cannot be verified as accurate (confidence 1) [974B0386], AccurateRip returned [9926E1EF]
Track 10 cannot be verified as accurate (confidence 1) [DCDDC73C], AccurateRip returned [E3D361C3]
Track 11 cannot be verified as accurate (confidence 1) [7288989C], AccurateRip returned [B54F1B4D]
Track 12 cannot be verified as accurate (confidence 1) [A916ACD1], AccurateRip returned [7C4C0CC5]
Track 13 cannot be verified as accurate (confidence 1) [D93F8BA8], AccurateRip returned [D7CD77CD]
Track 14 cannot be verified as accurate (confidence 1) [7153EBC3], AccurateRip returned [072A6751]

No tracks could be verified as accurate
You may have a different pressing from the one(s) in the database

End of status report

==== Log checksum 66BA2F83AC8BEC9D9971E874F79F9F8FAB73AEDB71FBA37065567F2DD784D150 ====
01 Sarrera Iv 02:25
02 Viento Del Ghetto 03:22
03 Despideme 03:18
04 El Tiempo Tuyo 03:23
05 Luna De Barcelona 03:07
06 Errainuaren Modura 02:43
07 Los Golpes 04:27
08 Jose Republica 04:44
09 La Solucion 03:32
10 En Mi Nombre 03:09
11 En El Callejon 03:49
12 Guantanamo 03:40
13 Radio Ghetto 03:58
Exact Audio Copy V1.0 beta 2 from 29. April 2011

Отчёт EAC об извлечении, выполненном 19. июня 2011, 14:55

Skalariak / Radio Ghetto

Дисковод: HL-DT-STDVD-ROM GDR8162B Adapter: 4 ID: 0

Режим чтения : Достоверность
Использование точного потока : Да
Отключение кэша аудио : Да
Использование указателей C2 : Нет

Коррекция смещения при чтении : 102
Способность читать области Lead-in и Lead-out : Нет
Заполнение пропущенных сэмплов тишиной : Да
Удаление блоков с тишиной в начале и конце : Нет
При вычислениях CRC использовались нулевые сэмплы : Да
Интерфейс : Встроенный Win32-интерфейс для Win NT/2000

Выходной формат : Пользовательский кодировщик
Выбранный битрейт : 768 kBit/s
Качество : Высокий
Добавление ID3-тега : Нет
Утилита сжатия : C:\FLAC.EXE
Дополнительные параметры : -6 -V -T "ARTIST=%artist%" -T "TITLE=%title%" -T "ALBUM=%albumtitle%" -T "DATE=%year%" -T "TRACKNUMBER=%tracknr%" -T "GENRE=%genre%" -T "COMMENT=%comment%" -T "BAND=%albuminterpret%" -T "COMPOSER=%composer%" %haslyrics%--tag-from-

TOC извлечённого CD

Трек | Старт | Длительность | Начальный сектор | Конечный сектор
---------------------------------------------------------------------
1 | 0:00.00 | 2:25.66 | 0 | 10940
2 | 2:25.66 | 3:22.03 | 10941 | 26093
3 | 5:47.69 | 3:18.04 | 26094 | 40947
4 | 9:05.73 | 3:23.64 | 40948 | 56236
5 | 12:29.62 | 3:07.54 | 56237 | 70315
6 | 15:37.41 | 2:43.49 | 70316 | 82589
7 | 18:21.15 | 4:27.34 | 82590 | 102648
8 | 22:48.49 | 4:44.32 | 102649 | 123980
9 | 27:33.06 | 3:32.49 | 123981 | 139929
10 | 31:05.55 | 3:09.03 | 139930 | 154107
11 | 34:14.58 | 3:49.62 | 154108 | 171344
12 | 38:04.45 | 3:40.03 | 171345 | 187847
13 | 41:44.48 | 3:58.30 | 187848 | 205727

Характеристики диапазона извлечения и сообщения об ошибках

Выбранный диапазон

Имя файла C:\Skalariak - Radio Ghetto.wav

Пиковый уровень 100.0 %
Скорость извлечения 8.0 X
Качество диапазона 100.0 %
CRC копии 9B99E0C7
Копирование... OK

Ошибок не произошло

AccurateRip: сводка

Трек 1 : извлечено точно (доверие 1) [CED4505A] (AR v1)
Трек 2 : извлечено точно (доверие 1) [57769363] (AR v1)
Трек 3 : извлечено точно (доверие 1) [913C7C3D] (AR v1)
Трек 4 : извлечено точно (доверие 1) [94D84AC5] (AR v1)
Трек 5 : извлечено точно (доверие 1) [4D26EB4F] (AR v1)
Трек 6 : извлечено точно (доверие 1) [B9969CCC] (AR v1)
Трек 7 : извлечено точно (доверие 1) [2D5976C9] (AR v1)
Трек 8 : извлечено точно (доверие 1) [0C7B2A91] (AR v1)
Трек 9 : извлечено точно (доверие 1) [9452E1E1] (AR v1)
Трек 10 : извлечено точно (доверие 1) [4AA7EB07] (AR v1)
Трек 11 : извлечено точно (доверие 1) [90BE583A] (AR v1)
Трек 12 : извлечено точно (доверие 1) [72905D98] (AR v1)
Трек 13 : извлечено точно (доверие 1) [AFD0403E] (AR v1)

Все треки извлечены точно

Конец отчёта

==== Контрольная сумма отчёта A7DB63D55E6070EDFAF4751362B3D91DAC3A8B224AF18B3E4E6942E1949D1FF1 ====
01. Sarrera V (01:45)
02. Global musik (03:41)
03. Corazon rebelde (04:09)
04. Anti-cancion (03:13)
05. Rude control (03:58)
06. Ale (03:17)
07. Luz rebelde (03:31)
08. Hartu (03:14)
09. Queremos Mas (03:10)
10. Maldito (04:23)
11. Segapotoen lurraldea (02:25)
12. Oil bombs (03:07)
13. Preso del sabado (02:23)
14. Donde esta la luz (03:07)
15. Sarrera V (reprise) (01:28)
Exact Audio Copy V1.0 beta 1 from 15. November 2010

EAC extraction logfile from 14. April 2011, 21:06

SKALARIAK / Luz Rebelde

Used drive : HL-DT-STDVD-ROM GDR8162B Adapter: 1 ID: 0

Read mode : Secure
Utilize accurate stream : Yes
Defeat audio cache : Yes
Make use of C2 pointers : No

Read offset correction : 102
Overread into Lead-In and Lead-Out : No
Fill up missing offset samples with silence : Yes
Delete leading and trailing silent blocks : No
Null samples used in CRC calculations : Yes
Used interface : Native Win32 interface for Win NT & 2000

Used output format : User Defined Encoder
Selected bitrate : 768 kBit/s
Quality : High
Add ID3 tag : No
Command line compressor : C:\FLAC.EXE
Additional command line options : -6 -V -T "ARTIST=%a" -T "TITLE=%t" -T "ALBUM=%g" -T "DATE=%y" -T "TRACKNUMBER=%n" -T "GENRE=%m" -T "COMMENT=%e" %j--picture="%i"%j %s -o %d

TOC of the extracted CD

Track | Start | Length | Start sector | End sector
---------------------------------------------------------
1 | 0:00.00 | 1:44.57 | 0 | 7856
2 | 1:44.57 | 3:40.37 | 7857 | 24393
3 | 5:25.19 | 4:09.24 | 24394 | 43092
4 | 9:34.43 | 3:13.02 | 43093 | 57569
5 | 12:47.45 | 3:57.68 | 57570 | 75412
6 | 16:45.38 | 3:16.57 | 75413 | 90169
7 | 20:02.20 | 3:31.03 | 90170 | 105997
8 | 23:33.23 | 3:14.29 | 105998 | 120576
9 | 26:47.52 | 3:10.58 | 120577 | 134884
10 | 29:58.35 | 4:22.52 | 134885 | 154586
11 | 34:21.12 | 2:25.36 | 154587 | 165497
12 | 36:46.48 | 3:06.68 | 165498 | 179515
13 | 39:53.41 | 2:23.45 | 179516 | 190285
14 | 42:17.11 | 3:06.60 | 190286 | 204295
15 | 45:23.71 | 1:28.02 | 204296 | 210897

Range status and errors

Selected range

Filename C:\SKALARIAK - Luz Rebelde.wav

Peak level 99.9 %
Extraction speed 0.2 X
Range quality 100.0 %
Copy CRC 280CC93D
Copy OK

No errors occurred

AccurateRip summary

Track 1 accurately ripped (confidence 1) [087CEF3C]
Track 2 accurately ripped (confidence 1) [42225CEA]
Track 3 accurately ripped (confidence 1) [1E2F3820]
Track 4 accurately ripped (confidence 1) [D46C3BDB]
Track 5 accurately ripped (confidence 1) [2CF30266]
Track 6 accurately ripped (confidence 1) [53E1E8A0]
Track 7 accurately ripped (confidence 1) [54004791]
Track 8 accurately ripped (confidence 1) [24E0E5AD]
Track 9 accurately ripped (confidence 1) [B1A02CC4]
Track 10 accurately ripped (confidence 1) [3FC250D8]
Track 11 accurately ripped (confidence 1) [8EE0F6A4]
Track 12 accurately ripped (confidence 1) [1C2E57A7]
Track 13 accurately ripped (confidence 1) [108F25D2]
Track 14 accurately ripped (confidence 1) [A1F8BFA0]
Track 15 accurately ripped (confidence 1) [54EF499B]

All tracks accurately ripped

End of status report

==== Log checksum 7FDC29E91F121120BDD25AF53E59D0A6F3A623A55FB9649A4500FD4D9FA969A9 ====
01 Sarrera II 02:20
02 Solo Vivir 03:26
03 Skalariak Rude Klub (SRK) 03:37
04 Naturarekin Bat 03:12
05 Todos Los Hintxas 03:39
06 Unios 04:01
07 Jaia 03:41
08 Puto Alcohol 02:26
09 A Buen Ritmo 03:37
10 Oligarquia 02:55
11 Segi, Segi, Segi 04:32
12 Emakume Askea... Lur Askea 03:46
13 Ruido 02:55
14 Quien Nos Ha Robado? 03:21
15 Phoenix City 03:32
16 Fuego De Revolucion 04:08
17 Ningun Valor 02:43
18 Vodka Revolucion 03:32
19 La Maquina Ska 03:18
20 La Kalle Ska 04:46
21 Skalari Rude Klub (SRK) 03:48
22 Seulement Vivre 03:27
Exact Audio Copy V1.0 beta 1 from 15. November 2010

EAC extraction logfile from 28. March 2011, 23:17

Skalariak / 1997-2002

Used drive : HL-DT-STDVD-ROM GDR8162B Adapter: 1 ID: 0

Read mode : Secure
Utilize accurate stream : Yes
Defeat audio cache : Yes
Make use of C2 pointers : No

Read offset correction : 102
Overread into Lead-In and Lead-Out : No
Fill up missing offset samples with silence : Yes
Delete leading and trailing silent blocks : No
Null samples used in CRC calculations : Yes
Used interface : Installed external ASPI interface

Used output format : User Defined Encoder
Selected bitrate : 768 kBit/s
Quality : High
Add ID3 tag : No
Command line compressor : C:\FLAC.EXE
Additional command line options : -6 -V -T "ARTIST=%a" -T "TITLE=%t" -T "ALBUM=%g" -T "DATE=%y" -T "TRACKNUMBER=%n" -T "GENRE=%m" -T "COMMENT=%e" %j--picture="%i"%j %s -o %d

TOC of the extracted CD

Track | Start | Length | Start sector | End sector
---------------------------------------------------------
1 | 0:00.00 | 2:20.28 | 0 | 10527
2 | 2:20.28 | 3:26.02 | 10528 | 25979
3 | 5:46.30 | 3:37.61 | 25980 | 42315
4 | 9:24.16 | 3:12.34 | 42316 | 56749
5 | 12:36.50 | 3:39.68 | 56750 | 73242
6 | 16:16.43 | 4:01.00 | 73243 | 91317
7 | 20:17.43 | 3:41.22 | 91318 | 107914
8 | 23:58.65 | 2:26.33 | 107915 | 118897
9 | 26:25.23 | 3:37.30 | 118898 | 135202
10 | 30:02.53 | 2:55.49 | 135203 | 148376
11 | 32:58.27 | 4:32.20 | 148377 | 168796
12 | 37:30.47 | 3:46.03 | 168797 | 185749
13 | 41:16.50 | 2:55.55 | 185750 | 198929
14 | 44:12.30 | 3:21.09 | 198930 | 214013
15 | 47:33.39 | 3:32.48 | 214014 | 229961
16 | 51:06.12 | 4:08.20 | 229962 | 248581
17 | 55:14.32 | 2:43.47 | 248582 | 260853
18 | 57:58.04 | 3:32.40 | 260854 | 276793
19 | 61:30.44 | 3:18.69 | 276794 | 291712
20 | 64:49.38 | 4:46.35 | 291713 | 313197
21 | 69:35.73 | 3:48.61 | 313198 | 330358
22 | 73:24.59 | 3:27.00 | 330359 | 345883

Range status and errors

Selected range

Filename C:\Skalariak - 1997-2002.wav

Peak level 98.8 %
Extraction speed 0.3 X
Range quality 100.0 %
Copy CRC B7FFA343
Copy OK

No errors occurred

AccurateRip summary

Track 1 not present in database
Track 2 not present in database
Track 3 not present in database
Track 4 not present in database
Track 5 not present in database
Track 6 not present in database
Track 7 not present in database
Track 8 not present in database
Track 9 not present in database
Track 10 not present in database
Track 11 not present in database
Track 12 not present in database
Track 13 not present in database
Track 14 not present in database
Track 15 not present in database
Track 16 not present in database
Track 17 not present in database
Track 18 not present in database
Track 19 not present in database
Track 20 not present in database
Track 21 not present in database
Track 22 not present in database

None of the tracks are present in the AccurateRip database

End of status report

==== Log checksum 44AE6D751C13BBACCFCDC223EE3CE8A3A4842BFE9B1335553C15D45777DD5129 ====
CD-1
01 Intro 01:05
02 Sarrera VI / Ska-Republik 02:39
03 Global Musik 03:39
04 A Buen Ritmo 03:40
05 Oligarquia 02:50
06 Jose Republica 05:04
07 Errainuaren Modura 02:39
08 Nuestra Manifestacion 03:32
09 Rude Control 03:47
10 Anti-Cancion 03:38
11 Todos los Hintxas 03:36
12 Vodka Revolucion 03:57
13 Skalari Rude Klub 04:29
Exact Audio Copy V1.0 beta 1 from 15. November 2010

EAC extraction logfile from 28. March 2011, 22:55

Skalariak / Ska-Republik Concert

Used drive : HL-DT-STDVD-ROM GDR8162B Adapter: 1 ID: 0

Read mode : Secure
Utilize accurate stream : Yes
Defeat audio cache : Yes
Make use of C2 pointers : No

Read offset correction : 102
Overread into Lead-In and Lead-Out : No
Fill up missing offset samples with silence : Yes
Delete leading and trailing silent blocks : No
Null samples used in CRC calculations : Yes
Used interface : Installed external ASPI interface

Used output format : User Defined Encoder
Selected bitrate : 768 kBit/s
Quality : High
Add ID3 tag : No
Command line compressor : C:\FLAC.EXE
Additional command line options : -6 -V -T "ARTIST=%a" -T "TITLE=%t" -T "ALBUM=%g" -T "DATE=%y" -T "TRACKNUMBER=%n" -T "GENRE=%m" -T "COMMENT=%e" %j--picture="%i"%j %s -o %d

TOC of the extracted CD

Track | Start | Length | Start sector | End sector
---------------------------------------------------------
1 | 0:00.00 | 1:05.32 | 0 | 4906
2 | 1:05.32 | 2:39.51 | 4907 | 16882
3 | 3:45.08 | 3:39.36 | 16883 | 33343
4 | 7:24.44 | 3:40.36 | 33344 | 49879
5 | 11:05.05 | 2:50.03 | 49880 | 62632
6 | 13:55.08 | 5:04.68 | 62633 | 85500
7 | 19:00.01 | 2:39.69 | 85501 | 97494
8 | 21:39.70 | 3:32.53 | 97495 | 113447
9 | 25:12.48 | 3:47.58 | 113448 | 130530
10 | 29:00.31 | 3:38.37 | 130531 | 146917
11 | 32:38.68 | 3:36.39 | 146918 | 163156
12 | 36:15.32 | 3:57.61 | 163157 | 180992
13 | 40:13.18 | 4:29.67 | 180993 | 201234

Range status and errors

Selected range

Filename C:\Skalariak - Ska-Republik Concert CD1.wav

Peak level 99.8 %
Extraction speed 0.7 X
Range quality 99.9 %
Copy CRC 9B0ABE60
Copy OK

No errors occurred

AccurateRip summary

Track 1 not present in database
Track 2 not present in database
Track 3 not present in database
Track 4 not present in database
Track 5 not present in database
Track 6 not present in database
Track 7 not present in database
Track 8 not present in database
Track 9 not present in database
Track 10 not present in database
Track 11 not present in database
Track 12 not present in database
Track 13 not present in database

None of the tracks are present in the AccurateRip database

End of status report

==== Log checksum B87E4C13CEDF11BD9A38588D212E4662E2A8080745BB99205BCB57FB79788134 ====
CD-2
01 Sarrera II 02:45
02 La Makina Ska 03:26
03 Luz Rebelde 03:29
04 Ruido 03:15
05 Fuego de Revolucion 03:58
06 Makume Askea...Lur Askea 02:55
07 Sarrera IV 02:21
08 Naturarekin Bat 03:08
09 Puto Alcohol 02:10
10 Jaia 03:42
11 Despideme 07:52
12 Segi,Segi,Segi 05:09
13 Solo Vivir 04:20
14 Corazon Rebelde 05:55
Exact Audio Copy V1.0 beta 1 from 15. November 2010

EAC extraction logfile from 28. March 2011, 23:06

Skalariak / Ska-Republik Concert

Used drive : HL-DT-STDVD-ROM GDR8162B Adapter: 1 ID: 0

Read mode : Secure
Utilize accurate stream : Yes
Defeat audio cache : Yes
Make use of C2 pointers : No

Read offset correction : 102
Overread into Lead-In and Lead-Out : No
Fill up missing offset samples with silence : Yes
Delete leading and trailing silent blocks : No
Null samples used in CRC calculations : Yes
Used interface : Installed external ASPI interface

Used output format : User Defined Encoder
Selected bitrate : 768 kBit/s
Quality : High
Add ID3 tag : No
Command line compressor : C:\FLAC.EXE
Additional command line options : -6 -V -T "ARTIST=%a" -T "TITLE=%t" -T "ALBUM=%g" -T "DATE=%y" -T "TRACKNUMBER=%n" -T "GENRE=%m" -T "COMMENT=%e" %j--picture="%i"%j %s -o %d

TOC of the extracted CD

Track | Start | Length | Start sector | End sector
---------------------------------------------------------
1 | 0:00.00 | 2:45.54 | 0 | 12428
2 | 2:45.54 | 3:26.59 | 12429 | 27937
3 | 6:12.38 | 3:29.41 | 27938 | 43653
4 | 9:42.04 | 3:15.15 | 43654 | 58293
5 | 12:57.19 | 3:58.15 | 58294 | 76158
6 | 16:55.34 | 2:55.28 | 76159 | 89311
7 | 19:50.62 | 2:21.36 | 89312 | 99922
8 | 22:12.23 | 3:08.25 | 99923 | 114047
9 | 25:20.48 | 2:10.67 | 114048 | 123864
10 | 27:31.40 | 3:42.67 | 123865 | 140581
11 | 31:14.32 | 7:52.64 | 140582 | 176045
12 | 39:07.21 | 5:09.07 | 176046 | 199227
13 | 44:16.28 | 4:20.15 | 199228 | 218742
14 | 48:36.43 | 5:55.37 | 218743 | 245404

Range status and errors

Selected range

Filename C:\Skalariak - Ska-Republik Concert CD2.wav

Peak level 100.0 %
Extraction speed 0.8 X
Range quality 100.0 %
Copy CRC FBCBE9D7
Copy OK

No errors occurred

AccurateRip summary

Track 1 not present in database
Track 2 not present in database
Track 3 not present in database
Track 4 not present in database
Track 5 not present in database
Track 6 not present in database
Track 7 not present in database
Track 8 not present in database
Track 9 not present in database
Track 10 not present in database
Track 11 not present in database
Track 12 not present in database
Track 13 not present in database
Track 14 not present in database

None of the tracks are present in the AccurateRip database

End of status report

==== Log checksum EF5B349199DEE4D264C2D4BC06F25C71FE116214079CE3E0437173AAC03E279C ====


Трекер:  [ 16-Дек-2011 22:02 ]

  

Скачать .torrent

Размер .torrent файла 22 KB


Размер: 2.89 GB
Хэш (hash) релиза: 1521f261c43cc7f6aab6cebfd6a375730adc9b41

bot

Топик был перенесен в форум Зарубежный Reggae, Ska, Dub (lossless)

Перенес Ronaldo C

Хотите добавить комментарий к записи скачать торрент Skalariak - 7 CD

!Обратная связь