Blackadder | Watch Movie 1080HD | The Rain

Скачать через торрент музыку The Aquabats - Discography бесплатно без регистрации torrent

Статистика раздачи
Размер:  1.86 GB   |    Зарегистрирован:  6 лет 7 месяцев   |    .torrent скачан:  69 раз   |   
Раздают:  1  
   
загрузка...
 
Автор Сообщение

_N_

avatar _N_


The Aquabats! - Discography

Жанр: SkaPunk || Период: 1996-2011 || Страна: USA || Аудио кодек: FLAC || Тип рипа: tracks+.cue || Битрейт аудио: lossless || Источник: what.cd
Albums:
01 - Playdough (03:41)
02 - Martian Girl (03:46)
03 - Ska Robot Army (02:12)
04 - Idiot Box (02:12)
05 - Pinch and Roll (04:21)
06 - Tarantula (03:43)
07 - Marshmallow Man (02:58)
08 - Aquabat March (03:14)
09 - CD Repo Man (03:18)
10 - It's Crazy, Man! (05:07)
 
Exact Audio Copy V0.99 prebeta 4 from 23. January 2008

EAC extraction logfile from 16. April 2009, 1:37

The Aquabats / The Return of the Aquabats

Used drive : HL-DT-STCDRW/DVD GCC4244 Adapter: 0 ID: 1

Read mode : SecureUtilize accurate stream : YesDefeat audio cache : YesMake use of C2 pointers : No

Read offset correction : 102Overread into Lead-In and Lead-Out : NoFill up missing offset samples with silence : YesDelete leading and trailing silent blocks : NoNull samples used in CRC calculations : YesUsed interface : Native Win32 interface for Win NT & 2000Gap handling : Appended to previous track

Used output format : User Defined EncoderSelected bitrate : 128 kBit/sQuality : HighAdd ID3 tag : NoCommand line compressor : C:\Program Files\Exact Audio Copy\Flac\flac.exeAdditional command line options : -V -8 -T "artist=%a" -T "title=%t" -T "album=%g" -T "date=%y" -T "tracknumber=%n" -T "genre=%m" %s

TOC of the extracted CD

Track | Start | Length | Start sector | End sector --------------------------------------------------------- 1 | 0:00.00 | 3:40.22 | 0 | 16521 2 | 3:40.22 | 3:45.45 | 16522 | 33441 3 | 7:25.67 | 2:11.50 | 33442 | 43316 4 | 9:37.42 | 2:11.65 | 43317 | 53206 5 | 11:49.32 | 4:20.63 | 53207 | 72769 6 | 16:10.20 | 3:42.60 | 72770 | 89479 7 | 19:53.05 | 2:58.15 | 89480 | 102844 8 | 22:51.20 | 3:14.12 | 102845 | 117406 9 | 26:05.32 | 3:17.23 | 117407 | 132204 10 | 29:22.55 | 5:06.20 | 132205 | 155174

Track 1

Filename C:\Torrent\The Aquabats - 1995 - The Return of the Aquabats\01 - Playdough.wav

Pre-gap length 0:00:02.00

Peak level 92.4 % Track quality 100.0 % Test CRC B3F37FE3 Copy CRC B3F37FE3 Cannot be verified as accurate (confidence 2) [5031B43C], AccurateRip returned [CF020F93] Copy OK

Track 2

Filename C:\Torrent\The Aquabats - 1995 - The Return of the Aquabats\02 - Martian Girl.wav

Peak level 98.6 % Track quality 100.0 % Test CRC C302FCEF Copy CRC C302FCEF Cannot be verified as accurate (confidence 2) [FE8997CC], AccurateRip returned [82EB9D82] Copy OK

Track 3

Filename C:\Torrent\The Aquabats - 1995 - The Return of the Aquabats\03 - Ska Robot Army.wav

Peak level 99.8 % Track quality 100.0 % Test CRC 34B1882B Copy CRC 34B1882B Cannot be verified as accurate (confidence 2) [E184A0B4], AccurateRip returned [F9BDAE90] Copy OK

Track 4

Filename C:\Torrent\The Aquabats - 1995 - The Return of the Aquabats\04 - Idiot Box.wav

Peak level 97.6 % Track quality 100.0 % Test CRC 20FF78F0 Copy CRC 20FF78F0 Cannot be verified as accurate (confidence 2) [AE56C20D], AccurateRip returned [C590646C] Copy OK

Track 5

Filename C:\Torrent\The Aquabats - 1995 - The Return of the Aquabats\05 - Pinch and Roll.wav

Peak level 99.6 % Track quality 100.0 % Test CRC E9C80975 Copy CRC E9C80975 Cannot be verified as accurate (confidence 2) [25C603B9], AccurateRip returned [92417A80] Copy OK

Track 6

Filename C:\Torrent\The Aquabats - 1995 - The Return of the Aquabats\06 - Tarantula.wav

Peak level 98.4 % Track quality 99.9 % Test CRC 5A6482E9 Copy CRC 5A6482E9 Cannot be verified as accurate (confidence 2) [30300083], AccurateRip returned [1DD84A3C] Copy OK

Track 7

Filename C:\Torrent\The Aquabats - 1995 - The Return of the Aquabats\07 - Marshmallow Man.wav

Peak level 96.8 % Track quality 100.0 % Test CRC 42C84490 Copy CRC 42C84490 Cannot be verified as accurate (confidence 2) [CD348720], AccurateRip returned [6625384B] Copy OK

Track 8

Filename C:\Torrent\The Aquabats - 1995 - The Return of the Aquabats\08 - Aquabat March.wav

Peak level 98.5 % Track quality 100.0 % Test CRC 6AB37F8A Copy CRC 6AB37F8A Cannot be verified as accurate (confidence 2) [ADCAE50D], AccurateRip returned [D5CF302B] Copy OK

Track 9

Filename C:\Torrent\The Aquabats - 1995 - The Return of the Aquabats\09 - CD Repo Man.wav

Peak level 96.2 % Track quality 100.0 % Test CRC 74B8CB45 Copy CRC 74B8CB45 Cannot be verified as accurate (confidence 2) [23305B66], AccurateRip returned [CC4E6E15] Copy OK

Track 10

Filename C:\Torrent\The Aquabats - 1995 - The Return of the Aquabats\10 - It's Crazy, Man!.wav

Peak level 98.6 % Track quality 100.0 % Test CRC F2EDB1B6 Copy CRC F2EDB1B6 Cannot be verified as accurate (confidence 2) [9987225A], AccurateRip returned [A27F5632] Copy OK

No tracks could be verified as accurateYou may have a different pressing from the one(s) in the database

No errors occurred

End of status report
 
REM GENRE SkaREM DATE 1996REM DISCID 8A08150AREM COMMENT "ExactAudioCopy v0.99pb4"PERFORMER "The Aquabats!"TITLE "The Return of the Aquabats"FILE "01 - Playdough.wav" WAVE TRACK 01 AUDIO TITLE "Playdough" PERFORMER "The Aquabats!" INDEX 01 00:00:00FILE "02 - Martian Girl.wav" WAVE TRACK 02 AUDIO TITLE "Martian Girl" PERFORMER "The Aquabats!" INDEX 01 00:00:00FILE "03 - Ska Robot Army.wav" WAVE TRACK 03 AUDIO TITLE "Ska Robot Army" PERFORMER "The Aquabats!" INDEX 01 00:00:00FILE "04 - Idiot Box.wav" WAVE TRACK 04 AUDIO TITLE "Idiot Box" PERFORMER "The Aquabats!" INDEX 01 00:00:00FILE "05 - Pinch and Roll.wav" WAVE TRACK 05 AUDIO TITLE "Pinch and Roll" PERFORMER "The Aquabats!" INDEX 01 00:00:00FILE "06 - Tarantula.wav" WAVE TRACK 06 AUDIO TITLE "Tarantula" PERFORMER "The Aquabats!" INDEX 01 00:00:00FILE "07 - Marshmallow Man.wav" WAVE TRACK 07 AUDIO TITLE "Marshmallow Man" PERFORMER "The Aquabats!" INDEX 01 00:00:00FILE "08 - Aquabat March.wav" WAVE TRACK 08 AUDIO TITLE "Aquabat March" PERFORMER "The Aquabats!" INDEX 01 00:00:00FILE "09 - CD Repo Man.wav" WAVE TRACK 09 AUDIO TITLE "CD Repo Man" PERFORMER "The Aquabats!" INDEX 01 00:00:00FILE "10 - It's Crazy, Man!.wav" WAVE TRACK 10 AUDIO TITLE "It's Crazy, Man!" PERFORMER "The Aquabats!" INDEX 01 00:00:00 INDEX 02 04:44:17
01 - Super Rad! (03:03)
02 - Red Sweater! (03:24)
03 - Magic Chicken! (03:41)
04 - Fight Song! (01:13)
05 - Cat With 2 Heads! (03:01)
06 - The Story Of Nothing! (02:55)
07 - Captain Hampton And The Midget Pirates! (04:04)
08 - Martian Girl! (02:46)
09 - Attacked By Snakes! (05:02)
10 - Idiot Box! (02:01)
11 - Powdered Milk Man! (03:05)
12 - My Skateboard! (02:43)
13 - Phantasma Del Mar! (03:13)
14 - Lobster Bucket! (02:42)
15 - Theme Song! (01:49)
16 - Playdough! (06:44)
 
Exact Audio Copy V0.99 prebeta 4 from 23. January 2008

EAC extraction logfile from 4. May 2009, 11:09

The Aquabats / The Fury of the Aquabats!

Used drive : PHILIPS SPD2413P Adapter: 1 ID: 1

Read mode : SecureUtilize accurate stream : YesDefeat audio cache : YesMake use of C2 pointers : No

Read offset correction : 6Overread into Lead-In and Lead-Out : NoFill up missing offset samples with silence : YesDelete leading and trailing silent blocks : NoNull samples used in CRC calculations : YesUsed interface : Native Win32 interface for Win NT & 2000Gap handling : Appended to previous track

Used output format : User Defined EncoderSelected bitrate : 128 kBit/sQuality : HighAdd ID3 tag : NoCommand line compressor : F:\Apps\Exact Audio Copy\Flac\flac.exeAdditional command line options : -V -8 -T "artist=%a" -T "title=%t" -T "album=%g" -T "date=%y" -T "tracknumber=%n" -T "genre=%m" %s

TOC of the extracted CD

Track | Start | Length | Start sector | End sector --------------------------------------------------------- 1 | 0:00.00 | 3:02.60 | 0 | 13709 2 | 3:02.60 | 3:24.02 | 13710 | 29011 3 | 6:26.62 | 3:40.70 | 29012 | 45581 4 | 10:07.57 | 1:13.25 | 45582 | 51081 5 | 11:21.07 | 3:01.18 | 51082 | 64674 6 | 14:22.25 | 2:54.25 | 64675 | 77749 7 | 17:16.50 | 4:03.72 | 77750 | 96046 8 | 21:20.47 | 2:46.05 | 96047 | 108501 9 | 24:06.52 | 5:01.60 | 108502 | 131136 10 | 29:08.37 | 2:00.65 | 131137 | 140201 11 | 31:09.27 | 3:04.50 | 140202 | 154051 12 | 34:14.02 | 2:43.20 | 154052 | 166296 13 | 36:57.22 | 3:12.50 | 166297 | 180746 14 | 40:09.72 | 2:42.20 | 180747 | 192916 15 | 42:52.17 | 1:49.00 | 192917 | 201091 16 | 44:41.17 | 6:43.68 | 201092 | 231384

Track 1

Filename F:\FLAC Music\The Aquabats\The Fury of the Aquabats!\01 - Super Rad!.wav

Pre-gap length 0:00:02.00

Peak level 95.5 % Track quality 100.0 % Test CRC 9FF829C6 Copy CRC 9FF829C6 Accurately ripped (confidence 16) [67649F3D] Copy OK

Track 2

Filename F:\FLAC Music\The Aquabats\The Fury of the Aquabats!\02 - Red Sweater!.wav

Pre-gap length 0:00:00.17

Peak level 97.7 % Track quality 100.0 % Test CRC F1528C9B Copy CRC F1528C9B Accurately ripped (confidence 16) [454E3649] Copy OK

Track 3

Filename F:\FLAC Music\The Aquabats\The Fury of the Aquabats!\03 - Magic Chicken!.wav

Pre-gap length 0:00:00.49

Peak level 97.7 % Track quality 100.0 % Test CRC B6836526 Copy CRC B6836526 Accurately ripped (confidence 16) [5F22347C] Copy OK

Track 4

Filename F:\FLAC Music\The Aquabats\The Fury of the Aquabats!\04 - Fight Song!.wav

Pre-gap length 0:00:00.64

Peak level 95.8 % Track quality 100.0 % Test CRC 416FFAAE Copy CRC 416FFAAE Accurately ripped (confidence 16) [E144E3F5] Copy OK

Track 5

Filename F:\FLAC Music\The Aquabats\The Fury of the Aquabats!\05 - Cat With 2 Heads!.wav

Pre-gap length 0:00:00.36

Peak level 97.7 % Track quality 100.0 % Test CRC 6686747A Copy CRC 6686747A Accurately ripped (confidence 16) [737A9813] Copy OK

Track 6

Filename F:\FLAC Music\The Aquabats\The Fury of the Aquabats!\06 - The Story Of Nothing!.wav

Pre-gap length 0:00:00.93

Peak level 91.8 % Track quality 99.9 % Test CRC 2181B333 Copy CRC 2181B333 Accurately ripped (confidence 16) [6631A737] Copy OK

Track 7

Filename F:\FLAC Music\The Aquabats\The Fury of the Aquabats!\07 - Captain Hampton And The Midget Pirates!.wav

Pre-gap length 0:00:00.21

Peak level 89.1 % Track quality 100.0 % Test CRC BBB3A377 Copy CRC BBB3A377 Accurately ripped (confidence 15) [EB581FB8] Copy OK

Track 8

Filename F:\FLAC Music\The Aquabats\The Fury of the Aquabats!\08 - Martian Girl!.wav

Pre-gap length 0:00:00.76

Peak level 91.8 % Track quality 100.0 % Test CRC 28996063 Copy CRC 28996063 Accurately ripped (confidence 16) [55FFE108] Copy OK

Track 9

Filename F:\FLAC Music\The Aquabats\The Fury of the Aquabats!\09 - Attacked By Snakes!.wav

Pre-gap length 0:00:00.18

Peak level 91.8 % Track quality 100.0 % Test CRC AEAF6CDD Copy CRC AEAF6CDD Accurately ripped (confidence 15) [44588E0F] Copy OK

Track 10

Filename F:\FLAC Music\The Aquabats\The Fury of the Aquabats!\10 - Idiot Box!.wav

Pre-gap length 0:00:00.02

Peak level 97.7 % Track quality 99.9 % Test CRC 88115E84 Copy CRC 88115E84 Accurately ripped (confidence 16) [013BDA5B] Copy OK

Track 11

Filename F:\FLAC Music\The Aquabats\The Fury of the Aquabats!\11 - Powdered Milk Man!.wav

Pre-gap length 0:00:00.29

Peak level 97.7 % Track quality 100.0 % Test CRC 46BBC0FD Copy CRC 46BBC0FD Accurately ripped (confidence 16) [F9FCD90F] Copy OK

Track 12

Filename F:\FLAC Music\The Aquabats\The Fury of the Aquabats!\12 - My Skateboard!.wav

Pre-gap length 0:00:01.30

Peak level 97.7 % Track quality 100.0 % Test CRC 00B36AC1 Copy CRC 00B36AC1 Accurately ripped (confidence 16) [376B9FFC] Copy OK

Track 13

Filename F:\FLAC Music\The Aquabats\The Fury of the Aquabats!\13 - Phantasma Del Mar!.wav

Pre-gap length 0:00:00.25

Peak level 97.7 % Track quality 100.0 % Test CRC 17C03ABE Copy CRC 17C03ABE Accurately ripped (confidence 16) [9D8B65ED] Copy OK

Track 14

Filename F:\FLAC Music\The Aquabats\The Fury of the Aquabats!\14 - Lobster Bucket!.wav

Pre-gap length 0:00:00.09

Peak level 97.7 % Track quality 100.0 % Test CRC 21FFF6AA Copy CRC 21FFF6AA Accurately ripped (confidence 15) [80D071D6] Copy OK

Track 15

Filename F:\FLAC Music\The Aquabats\The Fury of the Aquabats!\15 - Theme Song!.wav

Pre-gap length 0:00:00.40

Peak level 90.9 % Track quality 100.0 % Test CRC 06DC765F Copy CRC 06DC765F Accurately ripped (confidence 15) [4C3D8C83] Copy OK

Track 16

Filename F:\FLAC Music\The Aquabats\The Fury of the Aquabats!\16 - Playdough!.wav

Pre-gap length 0:00:00.85

Peak level 91.8 % Track quality 100.0 % Test CRC CC7D0F3C Copy CRC CC7D0F3C Track not present in AccurateRip database Copy OK

15 track(s) accurately ripped 1 track(s) not present in the AccurateRip database

Some tracks could not be verified as accurate

No errors occurred

End of status report
 
REM GENRE SkaREM DATE 1997REM DISCID E40C0D10REM COMMENT "ExactAudioCopy v0.99pb4"PERFORMER "The Aquabats!"TITLE "The Fury of the Aquabats!"FILE "01 - Super Rad!.wav" WAVE TRACK 01 AUDIO TITLE "Super Rad!" PERFORMER "The Aquabats!" INDEX 01 00:00:00 TRACK 02 AUDIO TITLE "Red Sweater!" PERFORMER "The Aquabats!" INDEX 00 03:02:47FILE "02 - Red Sweater!.wav" WAVE INDEX 01 00:00:00 TRACK 03 AUDIO TITLE "Magic Chicken!" PERFORMER "The Aquabats!" INDEX 00 03:23:40FILE "03 - Magic Chicken!.wav" WAVE INDEX 01 00:00:00 TRACK 04 AUDIO TITLE "Fight Song!" PERFORMER "The Aquabats!" INDEX 00 03:40:22FILE "04 - Fight Song!.wav" WAVE INDEX 01 00:00:00 TRACK 05 AUDIO TITLE "Cat With 2 Heads!" PERFORMER "The Aquabats!" INDEX 00 01:12:73FILE "05 - Cat With 2 Heads!.wav" WAVE INDEX 01 00:00:00 TRACK 06 AUDIO TITLE "The Story Of Nothing!" PERFORMER "The Aquabats!" INDEX 00 03:00:23FILE "06 - The Story Of Nothing!.wav" WAVE INDEX 01 00:00:00 TRACK 07 AUDIO TITLE "Captain Hampton And The Midget Pirates!" PERFORMER "The Aquabats!" INDEX 00 02:54:09FILE "07 - Captain Hampton And The Midget Pirates!.wav" WAVE INDEX 01 00:00:00 TRACK 08 AUDIO TITLE "Martian Girl!" PERFORMER "The Aquabats!" INDEX 00 04:03:15FILE "08 - Martian Girl!.wav" WAVE INDEX 01 00:00:00 TRACK 09 AUDIO TITLE "Attacked By Snakes!" PERFORMER "The Aquabats!" INDEX 00 02:45:66FILE "09 - Attacked By Snakes!.wav" WAVE INDEX 01 00:00:00 TRACK 10 AUDIO TITLE "Idiot Box!" PERFORMER "The Aquabats!" INDEX 00 05:01:58FILE "10 - Idiot Box!.wav" WAVE INDEX 01 00:00:00 TRACK 11 AUDIO TITLE "Powdered Milk Man!" PERFORMER "The Aquabats!" INDEX 00 02:00:43FILE "11 - Powdered Milk Man!.wav" WAVE INDEX 01 00:00:00 TRACK 12 AUDIO TITLE "My Skateboard!" PERFORMER "The Aquabats!" INDEX 00 03:03:27FILE "12 - My Skateboard!.wav" WAVE INDEX 01 00:00:00 TRACK 13 AUDIO TITLE "Phantasma Del Mar!" PERFORMER "The Aquabats!" INDEX 00 02:43:01FILE "13 - Phantasma Del Mar!.wav" WAVE INDEX 01 00:00:00 TRACK 14 AUDIO TITLE "Lobster Bucket!" PERFORMER "The Aquabats!" INDEX 00 03:12:43FILE "14 - Lobster Bucket!.wav" WAVE INDEX 01 00:00:00 TRACK 15 AUDIO TITLE "Theme Song!" PERFORMER "The Aquabats!" INDEX 00 02:41:65FILE "15 - Theme Song!.wav" WAVE INDEX 01 00:00:00 TRACK 16 AUDIO TITLE "Playdough!" PERFORMER "The Aquabats!" INDEX 00 01:48:11FILE "16 - Playdough!.wav" WAVE INDEX 01 00:00:00
01 - Sequence Erase (03:11)
02 - Giant Robot-Birdhead (03:37)
03 - Anti-Matter (02:48)
04 - Lotto Fever (03:30)
05 - Lovers of Loving Love (02:43)
06 - Chemical Bomb (03:09)
07 - The Man with Glooey Hands (02:26)
08 - Monsters Wedding (04:18)
09 - The Ballad of Mr. Bonkers (03:44)
10 - Canis Lupus (03:03)
11 - Tiny Pants (03:11)
12 - The Thing on the Bass Amp (04:15)
13 - Amino Man (02:52)
14 - Hello, Good Night (03:37)
 
Exact Audio Copy V0.99 prebeta 4 from 23. January 2008

EAC extraction logfile from 25. December 2008, 9:39

The Aquabats / vs. The Floating Eye of Death! and Other Amazing Adventures Vol. 1

Used drive : TSSTcorpCD/DVDW SH-S162L Adapter: 0 ID: 0

Read mode : SecureUtilize accurate stream : YesDefeat audio cache : YesMake use of C2 pointers : No

Read offset correction : 6Overread into Lead-In and Lead-Out : NoFill up missing offset samples with silence : YesDelete leading and trailing silent blocks : NoNull samples used in CRC calculations : YesUsed interface : Native Win32 interface for Win NT & 2000Gap handling : Appended to previous track

Used output format : User Defined EncoderSelected bitrate : 768 kBit/sQuality : HighAdd ID3 tag : NoCommand line compressor : C:\Program Files\Exact Audio Copy\FLAC\FLAC.EXEAdditional command line options : -V -8 -T "artist=%a" -T "title=%t" -T "album=%g" -T "date=%y" -T "tracknumber=%n" -T "genre=%m" %s

TOC of the extracted CD

Track | Start | Length | Start sector | End sector --------------------------------------------------------- 1 | 0:00.00 | 3:10.22 | 0 | 14271 2 | 3:10.22 | 3:36.43 | 14272 | 30514 3 | 6:46.65 | 2:48.10 | 30515 | 43124 4 | 9:35.00 | 3:30.15 | 43125 | 58889 5 | 13:05.15 | 2:42.50 | 58890 | 71089 6 | 15:47.65 | 3:08.65 | 71090 | 85254 7 | 18:56.55 | 2:25.40 | 85255 | 96169 8 | 21:22.20 | 4:17.72 | 96170 | 115516 9 | 25:40.17 | 3:43.30 | 115517 | 132271 10 | 29:23.47 | 3:02.35 | 132272 | 145956 11 | 32:26.07 | 3:10.60 | 145957 | 160266 12 | 35:36.67 | 4:14.43 | 160267 | 179359 13 | 39:51.35 | 2:51.37 | 179360 | 192221 14 | 42:42.72 | 3:36.73 | 192222 | 208494

Track 1

Filename D:\Waffle Irons\The Aquabats - 1999 - vs. The Floating Eye of Death! and Other Amazing Adventures Vol. 1\01 - Sequence Erase.wav

Pre-gap length 0:00:02.00

Peak level 96.6 % Track quality 100.0 % Test CRC DF1390AD Copy CRC DF1390AD Cannot be verified as accurate (confidence 3) [CA2D26AD], AccurateRip returned [36DC4B31] Copy OK

Track 2

Filename D:\Waffle Irons\The Aquabats - 1999 - vs. The Floating Eye of Death! and Other Amazing Adventures Vol. 1\02 - Giant Robot-Birdhead.wav

Peak level 96.6 % Track quality 100.0 % Test CRC 6A130955 Copy CRC 6A130955 Cannot be verified as accurate (confidence 3) [E868D508], AccurateRip returned [2121703E] Copy OK

Track 3

Filename D:\Waffle Irons\The Aquabats - 1999 - vs. The Floating Eye of Death! and Other Amazing Adventures Vol. 1\03 - Anti-Matter.wav

Pre-gap length 0:00:02.13

Peak level 91.2 % Track quality 100.0 % Test CRC 9BEB1410 Copy CRC 9BEB1410 Cannot be verified as accurate (confidence 3) [ABD2670A], AccurateRip returned [1DA3B925] Copy OK

Track 4

Filename D:\Waffle Irons\The Aquabats - 1999 - vs. The Floating Eye of Death! and Other Amazing Adventures Vol. 1\04 - Lotto Fever.wav

Pre-gap length 0:00:00.20

Peak level 96.6 % Track quality 99.9 % Test CRC 2FE2D561 Copy CRC 2FE2D561 Cannot be verified as accurate (confidence 3) [7B83209A], AccurateRip returned [7FE24C8D] Copy OK

Track 5

Filename D:\Waffle Irons\The Aquabats - 1999 - vs. The Floating Eye of Death! and Other Amazing Adventures Vol. 1\05 - Lovers of Loving Love.wav

Pre-gap length 0:00:01.10

Peak level 91.2 % Track quality 100.0 % Test CRC DFFB8BF5 Copy CRC DFFB8BF5 Cannot be verified as accurate (confidence 3) [A7699FCF], AccurateRip returned [CB7E8E32] Copy OK

Track 6

Filename D:\Waffle Irons\The Aquabats - 1999 - vs. The Floating Eye of Death! and Other Amazing Adventures Vol. 1\06 - Chemical Bomb.wav

Pre-gap length 0:00:00.60

Peak level 96.6 % Track quality 100.0 % Test CRC 04C55F4D Copy CRC 04C55F4D Cannot be verified as accurate (confidence 3) [9B267856], AccurateRip returned [F5CFC28C] Copy OK

Track 7

Filename D:\Waffle Irons\The Aquabats - 1999 - vs. The Floating Eye of Death! and Other Amazing Adventures Vol. 1\07 - The Man with Glooey Hands.wav

Pre-gap length 0:00:00.46

Peak level 96.6 % Track quality 100.0 % Test CRC 3BC21A70 Copy CRC 3BC21A70 Cannot be verified as accurate (confidence 3) [33E1455C], AccurateRip returned [2C263367] Copy OK

Track 8

Filename D:\Waffle Irons\The Aquabats - 1999 - vs. The Floating Eye of Death! and Other Amazing Adventures Vol. 1\08 - Monsters Wedding.wav

Pre-gap length 0:00:01.80

Peak level 96.6 % Track quality 100.0 % Test CRC A8268C2D Copy CRC A8268C2D Cannot be verified as accurate (confidence 3) [06B1EDC0], AccurateRip returned [D5025BA5] Copy OK

Track 9

Filename D:\Waffle Irons\The Aquabats - 1999 - vs. The Floating Eye of Death! and Other Amazing Adventures Vol. 1\09 - The Ballad of Mr. Bonkers.wav

Pre-gap length 0:00:01.42

Peak level 96.6 % Track quality 100.0 % Test CRC 122B59AC Copy CRC 122B59AC Cannot be verified as accurate (confidence 3) [89D2D32D], AccurateRip returned [51793255] Copy OK

Track 10

Filename D:\Waffle Irons\The Aquabats - 1999 - vs. The Floating Eye of Death! and Other Amazing Adventures Vol. 1\10 - Canis Lupus.wav

Pre-gap length 0:00:01.00

Peak level 96.6 % Track quality 100.0 % Test CRC 408D5B52 Copy CRC 408D5B52 Cannot be verified as accurate (confidence 3) [09470197], AccurateRip returned [52557195] Copy OK

Track 11

Filename D:\Waffle Irons\The Aquabats - 1999 - vs. The Floating Eye of Death! and Other Amazing Adventures Vol. 1\11 - Tiny Pants.wav

Pre-gap length 0:00:01.40

Peak level 96.6 % Track quality 100.0 % Test CRC 3A36CA19 Copy CRC 3A36CA19 Cannot be verified as accurate (confidence 3) [54565D4D], AccurateRip returned [70F4C337] Copy OK

Track 12

Filename D:\Waffle Irons\The Aquabats - 1999 - vs. The Floating Eye of Death! and Other Amazing Adventures Vol. 1\12 - The Thing on the Bass Amp.wav

Pre-gap length 0:00:00.46

Peak level 96.6 % Track quality 100.0 % Test CRC 6830D9D7 Copy CRC 6830D9D7 Cannot be verified as accurate (confidence 3) [9C96448E], AccurateRip returned [43D66ABE] Copy OK

Track 13

Filename D:\Waffle Irons\The Aquabats - 1999 - vs. The Floating Eye of Death! and Other Amazing Adventures Vol. 1\13 - Amino Man.wav

Pre-gap length 0:00:00.40

Peak level 88.1 % Track quality 100.0 % Test CRC 32B3D46B Copy CRC 32B3D46B Cannot be verified as accurate (confidence 3) [B06541CC], AccurateRip returned [9BC6CEA7] Copy OK

Track 14

Filename D:\Waffle Irons\The Aquabats - 1999 - vs. The Floating Eye of Death! and Other Amazing Adventures Vol. 1\14 - Hello, Good Night.wav

Pre-gap length 0:00:00.89

Peak level 96.6 % Track quality 100.0 % Test CRC C9FC7BE9 Copy CRC C9FC7BE9 Cannot be verified as accurate (confidence 3) [D1631CF7], AccurateRip returned [FE460054] Copy OK

No tracks could be verified as accurateYou may have a different pressing from the one(s) in the database

No errors occurred

End of status report
 
REM GENRE SkaREM DATE 1999REM DISCID DA0ADB0EREM COMMENT "ExactAudioCopy v0.99pb4"PERFORMER "The Aquabats!"TITLE "The Aquabats vs. the Floating Eye of Death!"FILE "01 - Sequence Erase.wav" WAVE TRACK 01 AUDIO TITLE "Sequence Erase" PERFORMER "The Aquabats!" INDEX 01 00:00:00FILE "02 - Giant Robot-Birdhead.wav" WAVE TRACK 02 AUDIO TITLE "Giant Robot-Birdhead" PERFORMER "The Aquabats!" INDEX 01 00:00:00 TRACK 03 AUDIO TITLE Anti-Matter PERFORMER "The Aquabats!" INDEX 00 03:34:33FILE "03 - Anti-Matter.wav" WAVE INDEX 01 00:00:00 TRACK 04 AUDIO TITLE "Lotto Fever" PERFORMER "The Aquabats!" INDEX 00 02:47:70FILE "04 - Lotto Fever.wav" WAVE INDEX 01 00:00:00 TRACK 05 AUDIO TITLE "Lovers of Loving Love" PERFORMER "The Aquabats!" INDEX 00 03:29:07FILE "05 - Lovers of Loving Love.wav" WAVE INDEX 01 00:00:00 TRACK 06 AUDIO TITLE "Chemical Bomb" PERFORMER "The Aquabats!" INDEX 00 02:42:05FILE "06 - Chemical Bomb.wav" WAVE INDEX 01 00:00:00 TRACK 07 AUDIO TITLE "The Man with Glooey Hands" PERFORMER "The Aquabats!" INDEX 00 03:08:30FILE "07 - The Man with Glooey Hands.wav" WAVE INDEX 01 00:00:00 TRACK 08 AUDIO TITLE "Monsters Wedding" PERFORMER "The Aquabats!" INDEX 00 02:23:55FILE "08 - Monsters Wedding.wav" WAVE INDEX 01 00:00:00 TRACK 09 AUDIO TITLE "The Ballad of Mr. Bonkers" PERFORMER "The Aquabats!" INDEX 00 04:16:40FILE "09 - The Ballad of Mr. Bonkers.wav" WAVE INDEX 01 00:00:00 TRACK 10 AUDIO TITLE "Canis Lupus" PERFORMER "The Aquabats!" INDEX 00 03:42:30FILE "10 - Canis Lupus.wav" WAVE INDEX 01 00:00:00 TRACK 11 AUDIO TITLE "Tiny Pants" PERFORMER "The Aquabats!" INDEX 00 03:01:05FILE "11 - Tiny Pants.wav" WAVE INDEX 01 00:00:00 TRACK 12 AUDIO TITLE "The Thing on the Bass Amp" PERFORMER "The Aquabats!" INDEX 00 03:10:25FILE "12 - The Thing on the Bass Amp.wav" WAVE INDEX 01 00:00:00 TRACK 13 AUDIO TITLE "Amino Man" PERFORMER "The Aquabats!" INDEX 00 04:14:13FILE "13 - Amino Man.wav" WAVE INDEX 01 00:00:00 TRACK 14 AUDIO TITLE "Hello, Good Night" PERFORMER "The Aquabats!" INDEX 00 02:50:45FILE "14 - Hello, Good Night.wav" WAVE INDEX 01 00:00:00
01 - Robot Theme Song (01:06)
02 - Hey Luno (02:49)
03 - Pool Party (04:16)
04 - Pizza Day (04:05)
05 - Dear Spike (04:05)
06 - I Fell Asleep on My Arm (04:03)
07 - Radiation Song (03:24)
08 - Adventure Today (02:55)
09 - The Baker (03:47)
10 - Danger Woman (03:44)
11 - Worms Make Dirt (02:50)
12 - Sandy Face (02:59)
13 - The Wild Sea (05:46)
 
Exact Audio Copy V0.99 prebeta 5 from 4. May 2009

EAC extraction logfile from 21. October 2010, 0:21

The Aquabats / Myths, Legends, and Other Amazing Adventures Vol. 2

Used drive : TSSTcorpCDDVDW TS-L632H Adapter: 0 ID: 0

Read mode : SecureUtilize accurate stream : YesDefeat audio cache : YesMake use of C2 pointers : No

Read offset correction : 6Overread into Lead-In and Lead-Out : NoFill up missing offset samples with silence : YesDelete leading and trailing silent blocks : NoNull samples used in CRC calculations : YesUsed interface : Native Win32 interface for Win NT & 2000Gap handling : Appended to previous track

Used output format : User Defined EncoderSelected bitrate : 128 kBit/sQuality : HighAdd ID3 tag : NoCommand line compressor : C:\Program Files (x86)\Exact Audio Copy\Flac\flac.exeAdditional command line options : -V -8 -T "artist=%a" -T "title=%t" -T "album=%g" -T "date=%y" -T "tracknumber=%n" -T "genre=%m" %s

TOC of the extracted CD

Track | Start | Length | Start sector | End sector --------------------------------------------------------- 1 | 0:00.00 | 1:05.33 | 0 | 4907 2 | 1:05.33 | 2:48.70 | 4908 | 17577 3 | 3:54.28 | 4:15.45 | 17578 | 36747 4 | 8:09.73 | 4:04.72 | 36748 | 55119 5 | 12:14.70 | 4:04.33 | 55120 | 73452 6 | 16:19.28 | 4:02.50 | 73453 | 91652 7 | 20:22.03 | 3:23.70 | 91653 | 106947 8 | 23:45.73 | 2:55.02 | 106948 | 120074 9 | 26:41.00 | 3:47.08 | 120075 | 137107 10 | 30:28.08 | 3:43.45 | 137108 | 153877 11 | 34:11.53 | 2:50.10 | 153878 | 166637 12 | 37:01.63 | 2:58.40 | 166638 | 180027 13 | 40:00.28 | 5:45.70 | 180028 | 205972

Track 1

Filename F:\EACrips\The Aquabats - 2000 - Myths, Legends, and Other Amazing Adventures Vol. 2\01 - Robot Theme Song.wav

Pre-gap length 0:00:02.00

Peak level 88.1 % Track quality 100.0 % Test CRC 607F2C45 Copy CRC 607F2C45 Cannot be verified as accurate (confidence 7) [D0746D73], AccurateRip returned [5304B8C7] Copy OK

Track 2

Filename F:\EACrips\The Aquabats - 2000 - Myths, Legends, and Other Amazing Adventures Vol. 2\02 - Hey Luno.wav

Peak level 99.9 % Track quality 100.0 % Test CRC 19FFCCF3 Copy CRC 19FFCCF3 Cannot be verified as accurate (confidence 7) [F051F405], AccurateRip returned [D329CC79] Copy OK

Track 3

Filename F:\EACrips\The Aquabats - 2000 - Myths, Legends, and Other Amazing Adventures Vol. 2\03 - Pool Party.wav

Peak level 98.8 % Track quality 100.0 % Test CRC 26410BA5 Copy CRC 26410BA5 Cannot be verified as accurate (confidence 7) [1E78CCA7], AccurateRip returned [1B1F1E3B] Copy OK

Track 4

Filename F:\EACrips\The Aquabats - 2000 - Myths, Legends, and Other Amazing Adventures Vol. 2\04 - Pizza Day.wav

Peak level 98.8 % Track quality 100.0 % Test CRC 91B2FBB7 Copy CRC 91B2FBB7 Cannot be verified as accurate (confidence 7) [0D03177E], AccurateRip returned [C2E8DD74] Copy OK

Track 5

Filename F:\EACrips\The Aquabats - 2000 - Myths, Legends, and Other Amazing Adventures Vol. 2\05 - Dear Spike.wav

Peak level 100.0 % Track quality 100.0 % Test CRC 34374CDA Copy CRC 34374CDA Cannot be verified as accurate (confidence 7) [DC00C5D8], AccurateRip returned [6D3A8351] Copy OK

Track 6

Filename F:\EACrips\The Aquabats - 2000 - Myths, Legends, and Other Amazing Adventures Vol. 2\06 - I Fell Asleep On My Arm.wav

Peak level 98.8 % Track quality 100.0 % Test CRC D050267C Copy CRC D050267C Cannot be verified as accurate (confidence 7) [C0AF9136], AccurateRip returned [1F8BC107] Copy OK

Track 7

Filename F:\EACrips\The Aquabats - 2000 - Myths, Legends, and Other Amazing Adventures Vol. 2\07 - Radiation Song.wav

Peak level 98.8 % Track quality 100.0 % Test CRC 43F97F1C Copy CRC 43F97F1C Cannot be verified as accurate (confidence 7) [08800B0B], AccurateRip returned [8977159A] Copy OK

Track 8

Filename F:\EACrips\The Aquabats - 2000 - Myths, Legends, and Other Amazing Adventures Vol. 2\08 - Adventure Today.wav

Peak level 98.8 % Track quality 100.0 % Test CRC 2166D1AE Copy CRC 2166D1AE Cannot be verified as accurate (confidence 7) [7973852A], AccurateRip returned [8EA4A993] Copy OK

Track 9

Filename F:\EACrips\The Aquabats - 2000 - Myths, Legends, and Other Amazing Adventures Vol. 2\09 - The Baker.wav

Peak level 98.8 % Track quality 99.9 % Test CRC 7957354F Copy CRC 7957354F Cannot be verified as accurate (confidence 7) [E32D4532], AccurateRip returned [2C37846A] Copy OK

Track 10

Filename F:\EACrips\The Aquabats - 2000 - Myths, Legends, and Other Amazing Adventures Vol. 2\10 - Danger Woman.wav

Peak level 98.8 % Track quality 100.0 % Test CRC 993EADA0 Copy CRC 993EADA0 Cannot be verified as accurate (confidence 7) [4CAB28D1], AccurateRip returned [B177C581] Copy OK

Track 11

Filename F:\EACrips\The Aquabats - 2000 - Myths, Legends, and Other Amazing Adventures Vol. 2\11 - Worms Make Dirt.wav

Pre-gap length 0:00:01.20

Peak level 93.3 % Track quality 100.0 % Test CRC 52E79FA7 Copy CRC 52E79FA7 Cannot be verified as accurate (confidence 7) [B127DD19], AccurateRip returned [E37DBB51] Copy OK

Track 12

Filename F:\EACrips\The Aquabats - 2000 - Myths, Legends, and Other Amazing Adventures Vol. 2\12 - Sandy Face.wav

Peak level 98.8 % Track quality 100.0 % Test CRC 93FB53CB Copy CRC 93FB53CB Cannot be verified as accurate (confidence 7) [F168EA5A], AccurateRip returned [509BBABA] Copy OK

Track 13

Filename F:\EACrips\The Aquabats - 2000 - Myths, Legends, and Other Amazing Adventures Vol. 2\13 - The Wild Sea.wav

Peak level 98.8 % Track quality 100.0 % Test CRC 5596B665 Copy CRC 5596B665 Cannot be verified as accurate (confidence 7) [B54D5FA0], AccurateRip returned [477E0125] Copy OK

No tracks could be verified as accurateYou may have a different pressing from the one(s) in the database

No errors occurred

End of status report
 
REM GENRE SkaREM DATE 2000REM DISCID 920ABA0DREM COMMENT "ExactAudioCopy v0.99pb5"PERFORMER "The Aquabats!"TITLE "Myths, Legends, and Other Amazing Adventures Vol. 2"FILE "01 - Robot Theme Song.wav" WAVE TRACK 01 AUDIO TITLE "Robot Theme Song" PERFORMER "The Aquabats!" INDEX 01 00:00:00FILE "02 - Hey Luno.wav" WAVE TRACK 02 AUDIO TITLE "Hey Luno" PERFORMER "The Aquabats!" INDEX 01 00:00:00FILE "03 - Pool Party.wav" WAVE TRACK 03 AUDIO TITLE "Pool Party" PERFORMER "The Aquabats!" INDEX 01 00:00:00FILE "04 - Pizza Day.wav" WAVE TRACK 04 AUDIO TITLE "Pizza Day" PERFORMER "The Aquabats!" INDEX 01 00:00:00FILE "05 - Dear Spike.wav" WAVE TRACK 05 AUDIO TITLE "Dear Spike" PERFORMER "The Aquabats!" INDEX 01 00:00:00FILE "06 - I Fell Asleep on My Arm.wav" WAVE TRACK 06 AUDIO TITLE "I Fell Asleep on My Arm" PERFORMER "The Aquabats!" INDEX 01 00:00:00FILE "07 - Radiation Song.wav" WAVE TRACK 07 AUDIO TITLE "Radiation Song" PERFORMER "The Aquabats!" INDEX 01 00:00:00FILE "08 - Adventure Today.wav" WAVE TRACK 08 AUDIO TITLE "Adventure Today" PERFORMER "The Aquabats!" INDEX 01 00:00:00FILE "09 - The Baker.wav" WAVE TRACK 09 AUDIO TITLE "The Baker" PERFORMER "The Aquabats!" INDEX 01 00:00:00FILE "10 - Danger Woman.wav" WAVE TRACK 10 AUDIO TITLE "Danger Woman" PERFORMER "The Aquabats!" INDEX 01 00:00:00 TRACK 11 AUDIO TITLE "Worms Make Dirt" PERFORMER "The Aquabats!" INDEX 00 03:42:30FILE "11 - Worms Make Dirt.wav" WAVE INDEX 01 00:00:00FILE "12 - Sandy Face.wav" WAVE TRACK 12 AUDIO TITLE "Sandy Face" PERFORMER "The Aquabats!" INDEX 01 00:00:00FILE "13 - The Wild Sea.wav" WAVE TRACK 13 AUDIO TITLE "The Wild Sea" PERFORMER "The Aquabats!" INDEX 01 00:00:00
01 - Now, Stand Back For Your Own Safety! (00:07)
02 - Fashion Zombies! (03:16)
03 - Stuck In A Movie! (02:48)
04 - Tiger Rider Vs. The Time Sprinkler! (02:25)
05 - Nerd Alert! (03:15)
06 - Plastic Lips! (02:42)
07 - Look At Me (I'm A Winner)! (03:36)
08 - Hot Summer Nights (Won't Last Forever)! (03:50)
09 - Meltdown! (03:38)
10 - Mechanical Ape! (03:07)
11 - Demolition Rickshaw! (03:15)
12 - Waterslides! (03:49)
13 - Awesome Forces! (02:52)
 
X Lossless Decoder version 20100911 (122.0)

XLD extraction logfile from 2010-09-17 14:52:23 -0400

The Aquabats! / Charge!!

Used drive : MATSHITA DVD-R UJ-867 (revision HA13)

Use cdparanoia mode : YES (CDParanoia III 10.2 engine)Disable audio cache : OK for the drive with cache less than 2750KBMake use of C2 pointers : NORead offset correction : 102Max retry count : 100Gap status : Analyzed, Appended

TOC of the extracted CD Track | Start | Length | Start sector | End sector --------------------------------------------------------- 1 | 00:00:00 | 00:06:36 | 0 | 485 2 | 00:06:36 | 03:16:18 | 486 | 15203 3 | 03:22:54 | 02:48:09 | 15204 | 27812 4 | 06:10:63 | 02:25:00 | 27813 | 38687 5 | 08:35:63 | 03:14:42 | 38688 | 53279 6 | 11:50:30 | 02:42:09 | 53280 | 65438 7 | 14:32:39 | 03:35:22 | 65439 | 81585 8 | 18:07:61 | 03:49:71 | 81586 | 98831 9 | 21:57:57 | 03:38:01 | 98832 | 115182 10 | 25:35:58 | 03:06:58 | 115183 | 129190 11 | 28:42:41 | 03:14:45 | 129191 | 143785 12 | 31:57:11 | 03:48:37 | 143786 | 160922 13 | 35:45:48 | 02:51:24 | 160923 | 173771

All Tracks Album gain : -9.16 dB Peak : 0.999908

Track 01 Filename : /Volumes/mphtmnslt 1/dl/what/up/[2005] The Aquabats! - Charge!! (Lossless)/01 - Now, Stand Back For Your Own Safety!.flac Pre-gap length : 00:02:00

Track gain : -5.39 dB Peak : 0.701202 CRC32 hash (test run) : 1783E480 CRC32 hash : 1783E480 CRC32 hash (skip zero) : 3CE88343 AccurateRip signature : 309C3466 ->Accurately ripped! (confidence 11) Statistics Read error : 0 Skipped (treated as error) : 0 Edge jitter error (maybe fixed) : 0 Atom jitter error (maybe fixed) : 0 Drift error (maybe fixed) : 0 Dropped bytes error (maybe fixed) : 0 Duplicated bytes error (maybe fixed) : 0 Inconsistency in error sectors : 0

Track 02 Filename : /Volumes/mphtmnslt 1/dl/what/up/[2005] The Aquabats! - Charge!! (Lossless)/02 - Fashion Zombies!.flac

Track gain : -9.28 dB Peak : 0.999908 CRC32 hash (test run) : 230B75DE CRC32 hash : 230B75DE CRC32 hash (skip zero) : 7584BEB5 AccurateRip signature : 9E4CDA23 ->Accurately ripped! (confidence 11) Statistics Read error : 0 Skipped (treated as error) : 0 Edge jitter error (maybe fixed) : 0 Atom jitter error (maybe fixed) : 0 Drift error (maybe fixed) : 0 Dropped bytes error (maybe fixed) : 0 Duplicated bytes error (maybe fixed) : 0 Inconsistency in error sectors : 0

Track 03 Filename : /Volumes/mphtmnslt 1/dl/what/up/[2005] The Aquabats! - Charge!! (Lossless)/03 - Stuck In A Movie!.flac

Track gain : -9.40 dB Peak : 0.999908 CRC32 hash (test run) : 8CFA7CAF CRC32 hash : 8CFA7CAF CRC32 hash (skip zero) : 3CD64AA0 AccurateRip signature : FCD7FD71 ->Accurately ripped! (confidence 11) Statistics Read error : 0 Skipped (treated as error) : 0 Edge jitter error (maybe fixed) : 0 Atom jitter error (maybe fixed) : 0 Drift error (maybe fixed) : 0 Dropped bytes error (maybe fixed) : 0 Duplicated bytes error (maybe fixed) : 0 Inconsistency in error sectors : 0

Track 04 Filename : /Volumes/mphtmnslt 1/dl/what/up/[2005] The Aquabats! - Charge!! (Lossless)/04 - Tiger Rider Vs. The Time Sprinkler!.flac

Track gain : -9.28 dB Peak : 0.999908 CRC32 hash (test run) : FA52ADD8 CRC32 hash : FA52ADD8 CRC32 hash (skip zero) : 40662390 AccurateRip signature : 2DDAF36D ->Accurately ripped! (confidence 11) Statistics Read error : 0 Skipped (treated as error) : 0 Edge jitter error (maybe fixed) : 0 Atom jitter error (maybe fixed) : 0 Drift error (maybe fixed) : 0 Dropped bytes error (maybe fixed) : 0 Duplicated bytes error (maybe fixed) : 0 Inconsistency in error sectors : 0

Track 05 Filename : /Volumes/mphtmnslt 1/dl/what/up/[2005] The Aquabats! - Charge!! (Lossless)/05 - Nerd Alert!.flac

Track gain : -9.23 dB Peak : 0.999908 CRC32 hash (test run) : F7CEF716 CRC32 hash : F7CEF716 CRC32 hash (skip zero) : 3DB146EE AccurateRip signature : 51BA4729 ->Accurately ripped! (confidence 11) Statistics Read error : 0 Skipped (treated as error) : 0 Edge jitter error (maybe fixed) : 0 Atom jitter error (maybe fixed) : 0 Drift error (maybe fixed) : 0 Dropped bytes error (maybe fixed) : 0 Duplicated bytes error (maybe fixed) : 0 Inconsistency in error sectors : 0

Track 06 Filename : /Volumes/mphtmnslt 1/dl/what/up/[2005] The Aquabats! - Charge!! (Lossless)/06 - Plastic Lips!.flac

Track gain : -9.43 dB Peak : 0.999908 CRC32 hash (test run) : 54165CF3 CRC32 hash : 54165CF3 CRC32 hash (skip zero) : 24E8009B AccurateRip signature : 4984149D ->Accurately ripped! (confidence 11) Statistics Read error : 0 Skipped (treated as error) : 0 Edge jitter error (maybe fixed) : 0 Atom jitter error (maybe fixed) : 0 Drift error (maybe fixed) : 0 Dropped bytes error (maybe fixed) : 0 Duplicated bytes error (maybe fixed) : 0 Inconsistency in error sectors : 0

Track 07 Filename : /Volumes/mphtmnslt 1/dl/what/up/[2005] The Aquabats! - Charge!! (Lossless)/07 - Look At Me (I'm A Winner)!.flac

Track gain : -8.53 dB Peak : 0.999908 CRC32 hash (test run) : E98EE95B CRC32 hash : E98EE95B CRC32 hash (skip zero) : 6A81E592 AccurateRip signature : 2EF7D7A9 ->Accurately ripped! (confidence 11) Statistics Read error : 0 Skipped (treated as error) : 0 Edge jitter error (maybe fixed) : 0 Atom jitter error (maybe fixed) : 0 Drift error (maybe fixed) : 0 Dropped bytes error (maybe fixed) : 0 Duplicated bytes error (maybe fixed) : 0 Inconsistency in error sectors : 0

Track 08 Filename : /Volumes/mphtmnslt 1/dl/what/up/[2005] The Aquabats! - Charge!! (Lossless)/08 - Hot Summer Nights (Won't Last Forever)!.flac

Track gain : -8.00 dB Peak : 0.999908 CRC32 hash (test run) : 64BEBCF7 CRC32 hash : 64BEBCF7 CRC32 hash (skip zero) : F4D26008 AccurateRip signature : D0916BA6 ->Accurately ripped! (confidence 11) Statistics Read error : 0 Skipped (treated as error) : 0 Edge jitter error (maybe fixed) : 0 Atom jitter error (maybe fixed) : 0 Drift error (maybe fixed) : 0 Dropped bytes error (maybe fixed) : 0 Duplicated bytes error (maybe fixed) : 0 Inconsistency in error sectors : 0

Track 09 Filename : /Volumes/mphtmnslt 1/dl/what/up/[2005] The Aquabats! - Charge!! (Lossless)/09 - Meltdown!.flac

Track gain : -9.46 dB Peak : 0.999908 CRC32 hash (test run) : 5433D7E4 CRC32 hash : 5433D7E4 CRC32 hash (skip zero) : E3AD48B5 AccurateRip signature : C58151E8 ->Accurately ripped! (confidence 11) Statistics Read error : 0 Skipped (treated as error) : 0 Edge jitter error (maybe fixed) : 0 Atom jitter error (maybe fixed) : 0 Drift error (maybe fixed) : 0 Dropped bytes error (maybe fixed) : 0 Duplicated bytes error (maybe fixed) : 0 Inconsistency in error sectors : 0

Track 10 Filename : /Volumes/mphtmnslt 1/dl/what/up/[2005] The Aquabats! - Charge!! (Lossless)/10 - Mechanical Ape!.flac

Track gain : -8.85 dB Peak : 0.999908 CRC32 hash (test run) : C2126503 CRC32 hash : C2126503 CRC32 hash (skip zero) : 8A068B4C AccurateRip signature : B291F64F ->Accurately ripped! (confidence 11) Statistics Read error : 0 Skipped (treated as error) : 0 Edge jitter error (maybe fixed) : 0 Atom jitter error (maybe fixed) : 0 Drift error (maybe fixed) : 0 Dropped bytes error (maybe fixed) : 0 Duplicated bytes error (maybe fixed) : 0 Inconsistency in error sectors : 0

Track 11 Filename : /Volumes/mphtmnslt 1/dl/what/up/[2005] The Aquabats! - Charge!! (Lossless)/11 - Demolition Rickshaw!.flac

Track gain : -9.62 dB Peak : 0.999908 CRC32 hash (test run) : 2287A191 CRC32 hash : 2287A191 CRC32 hash (skip zero) : 6BEDAF1E AccurateRip signature : DF6E96AF ->Accurately ripped! (confidence 11) Statistics Read error : 0 Skipped (treated as error) : 0 Edge jitter error (maybe fixed) : 0 Atom jitter error (maybe fixed) : 0 Drift error (maybe fixed) : 0 Dropped bytes error (maybe fixed) : 0 Duplicated bytes error (maybe fixed) : 0 Inconsistency in error sectors : 0

Track 12 Filename : /Volumes/mphtmnslt 1/dl/what/up/[2005] The Aquabats! - Charge!! (Lossless)/12 - Waterslides!.flac

Track gain : -8.16 dB Peak : 0.999908 CRC32 hash (test run) : AA587FED CRC32 hash : AA587FED CRC32 hash (skip zero) : 6BADAAAB AccurateRip signature : 3FD6F50B ->Accurately ripped! (confidence 11) Statistics Read error : 0 Skipped (treated as error) : 0 Edge jitter error (maybe fixed) : 0 Atom jitter error (maybe fixed) : 0 Drift error (maybe fixed) : 0 Dropped bytes error (maybe fixed) : 0 Duplicated bytes error (maybe fixed) : 0 Inconsistency in error sectors : 0

Track 13 Filename : /Volumes/mphtmnslt 1/dl/what/up/[2005] The Aquabats! - Charge!! (Lossless)/13 - Awesome Forces!.flac

Track gain : -9.27 dB Peak : 0.999908 CRC32 hash (test run) : 7D0F7A82 CRC32 hash : 7D0F7A82 CRC32 hash (skip zero) : DBD4D375 AccurateRip signature : CB88FF2C ->Accurately ripped! (confidence 11) Statistics Read error : 0 Skipped (treated as error) : 0 Edge jitter error (maybe fixed) : 0 Atom jitter error (maybe fixed) : 0 Drift error (maybe fixed) : 0 Dropped bytes error (maybe fixed) : 0 Duplicated bytes error (maybe fixed) : 0 Inconsistency in error sectors : 0

No errors occurred

End of status report
 
TITLE "Charge!!"PERFORMER "The Aquabats!"REM GENRE "Ska"REM DATE 2005REM DISCNUMBER 1REM TOTALDISCS 1REM DISCID A6090C0DFILE "01 - Now, Stand Back For Your Own Safety!.wav" WAVE TRACK 01 AUDIO TITLE "Now, Stand Back For Your Own Safety!" ISRC USNRR0500558 INDEX 01 00:00:00FILE "02 - Fashion Zombies!.wav" WAVE TRACK 02 AUDIO TITLE "Fashion Zombies!" ISRC USNRR0500559 INDEX 01 00:00:00FILE "03 - Stuck In A Movie!.wav" WAVE TRACK 03 AUDIO TITLE "Stuck In A Movie!" ISRC USNRR0500560 INDEX 01 00:00:00FILE "04 - Tiger Rider Vs. The Time Sprinkler!.wav" WAVE TRACK 04 AUDIO TITLE "Tiger Rider Vs. The Time Sprinkler!" ISRC USNRR0500561 INDEX 01 00:00:00FILE "05 - Nerd Alert!.wav" WAVE TRACK 05 AUDIO TITLE "Nerd Alert!" ISRC USNRR0500562 INDEX 01 00:00:00FILE "06 - Plastic Lips!.wav" WAVE TRACK 06 AUDIO TITLE "Plastic Lips!" ISRC USNRR0500563 INDEX 01 00:00:00FILE "07 - Look At Me (I'm A Winner)!.wav" WAVE TRACK 07 AUDIO TITLE "Look At Me (I'm A Winner)!" ISRC USNRR0500564 INDEX 01 00:00:00FILE "08 - Hot Summer Nights (Won't Last Forever)!.wav" WAVE TRACK 08 AUDIO TITLE "Hot Summer Nights (Won't Last Forever)!" ISRC USNRR0500565 INDEX 01 00:00:00FILE "09 - Meltdown!.wav" WAVE TRACK 09 AUDIO TITLE "Meltdown!" ISRC USNRR0500566 INDEX 01 00:00:00FILE "10 - Mechanical Ape!.wav" WAVE TRACK 10 AUDIO TITLE "Mechanical Ape!" ISRC USNRR0500567 INDEX 01 00:00:00FILE "11 - Demolition Rickshaw!.wav" WAVE TRACK 11 AUDIO TITLE "Demolition Rickshaw!" ISRC USNRR0500568 INDEX 01 00:00:00FILE "12 - Waterslides!.wav" WAVE TRACK 12 AUDIO TITLE "Waterslides!" ISRC USNRR0500569 INDEX 01 00:00:00FILE "13 - Awesome Forces!.wav" WAVE TRACK 13 AUDIO TITLE "Awesome Forces!" ISRC USNRR0500570 INDEX 01 00:00:00
01 - The Shark Fighter! (02:57)
02 - B.F.F.! (03:20)
03 - The Legend is True! (03:21)
04 - Radio Down! (feat. Biz Markie) (03:32)
05 - Poppin' a Wheelie! (02:16)
06 - Hey Homies! (03:05)
07 - In My Dreams! (03:05)
08 - Just Can't Lose! (03:40)
09 - All My Money! (02:49)
10 - Pink Pants! (02:31)
11 - Food Fight On the Moon! (02:39)
12 - Luck Dragon Lady! (03:47)
 
Exact Audio Copy V0.99 prebeta 5 from 4. May 2009

EAC extraction logfile from 13. January 2011, 22:14

The Aquabats! / Hi-Five Soup!

Used drive : hp DVD RW AD-7586H Adapter: 1 ID: 0

Read mode : SecureUtilize accurate stream : YesDefeat audio cache : YesMake use of C2 pointers : No

Read offset correction : 6Overread into Lead-In and Lead-Out : NoFill up missing offset samples with silence : YesDelete leading and trailing silent blocks : NoNull samples used in CRC calculations : YesUsed interface : Native Win32 interface for Win NT & 2000Gap handling : Appended to previous track

Used output format : User Defined EncoderSelected bitrate : 320 kBit/sQuality : HighAdd ID3 tag : NoCommand line compressor : C:\Program Files (x86)\Exact Audio Copy\Flac\flac.exeAdditional command line options : -V -8 -T "artist=%a" -T "title=%t" -T "album=%g" -T "date=%y" -T "tracknumber=%n" -T "genre=%m" %s

TOC of the extracted CD

Track | Start | Length | Start sector | End sector --------------------------------------------------------- 1 | 0:00.00 | 2:56.49 | 0 | 13248 2 | 2:56.49 | 3:20.08 | 13249 | 28256 3 | 6:16.57 | 3:21.15 | 28257 | 43346 4 | 9:37.72 | 3:31.63 | 43347 | 59234 5 | 13:09.60 | 2:15.67 | 59235 | 69426 6 | 15:25.52 | 3:04.72 | 69427 | 83298 7 | 18:30.49 | 3:04.38 | 83299 | 97136 8 | 21:35.12 | 3:39.41 | 97137 | 113602 9 | 25:14.53 | 2:48.58 | 113603 | 126260 10 | 28:03.36 | 2:31.14 | 126261 | 137599 11 | 30:34.50 | 2:39.06 | 137600 | 149530 12 | 33:13.56 | 3:46.36 | 149531 | 166516

Track 1

Filename C:\EACrips\The Aquabats! - 2011 - Hi-Five Soup!\01 - Track01.wav

Pre-gap length 0:00:02.00

Peak level 99.1 % Track quality 99.9 % Test CRC 66213B18 Copy CRC 66213B18 Track not present in AccurateRip database Copy OK

Track 2

Filename C:\EACrips\The Aquabats! - 2011 - Hi-Five Soup!\02 - Track02.wav

Peak level 99.1 % Track quality 100.0 % Test CRC A994F34D Copy CRC A994F34D Track not present in AccurateRip database Copy OK

Track 3

Filename C:\EACrips\The Aquabats! - 2011 - Hi-Five Soup!\03 - Track03.wav

Peak level 99.1 % Track quality 100.0 % Test CRC 0FFCDBEC Copy CRC 0FFCDBEC Track not present in AccurateRip database Copy OK

Track 4

Filename C:\EACrips\The Aquabats! - 2011 - Hi-Five Soup!\04 - Track04.wav

Peak level 99.1 % Track quality 99.9 % Test CRC 778283A1 Copy CRC 778283A1 Track not present in AccurateRip database Copy OK

Track 5

Filename C:\EACrips\The Aquabats! - 2011 - Hi-Five Soup!\05 - Track05.wav

Peak level 99.1 % Track quality 100.0 % Test CRC C1995CF0 Copy CRC C1995CF0 Track not present in AccurateRip database Copy OK

Track 6

Filename C:\EACrips\The Aquabats! - 2011 - Hi-Five Soup!\06 - Track06.wav

Peak level 99.1 % Track quality 99.9 % Test CRC 8F60C09F Copy CRC 8F60C09F Track not present in AccurateRip database Copy OK

Track 7

Filename C:\EACrips\The Aquabats! - 2011 - Hi-Five Soup!\07 - Track07.wav

Peak level 99.1 % Track quality 100.0 % Test CRC B801295B Copy CRC B801295B Track not present in AccurateRip database Copy OK

Track 8

Filename C:\EACrips\The Aquabats! - 2011 - Hi-Five Soup!\08 - Track08.wav

Peak level 99.1 % Track quality 100.0 % Test CRC 61A2FD43 Copy CRC 61A2FD43 Track not present in AccurateRip database Copy OK

Track 9

Filename C:\EACrips\The Aquabats! - 2011 - Hi-Five Soup!\09 - Track09.wav

Peak level 99.1 % Track quality 100.0 % Test CRC C768CE69 Copy CRC C768CE69 Track not present in AccurateRip database Copy OK

Track 10

Filename C:\EACrips\The Aquabats! - 2011 - Hi-Five Soup!\10 - Track10.wav

Peak level 99.1 % Track quality 100.0 % Test CRC BAD9D78E Copy CRC BAD9D78E Track not present in AccurateRip database Copy OK

Track 11

Filename C:\EACrips\The Aquabats! - 2011 - Hi-Five Soup!\11 - Track11.wav

Peak level 99.1 % Track quality 99.9 % Test CRC 6F633CC6 Copy CRC 6F633CC6 Track not present in AccurateRip database Copy OK

Track 12

Filename C:\EACrips\The Aquabats! - 2011 - Hi-Five Soup!\12 - Track12.wav

Peak level 99.1 % Track quality 99.9 % Test CRC FF947128 Copy CRC FF947128 Track not present in AccurateRip database Copy OK

None of the tracks are present in the AccurateRip database

No errors occurred

End of status report
 
REM GENRE SkaREM DATE 2011REM DISCID BF08AC0CREM COMMENT "ExactAudioCopy v0.99pb5"PERFORMER "The Aquabats!"TITLE "Hi-Five Soup!"FILE "01 - The Shark Fighter!.wav" WAVE TRACK 01 AUDIO TITLE "The Shark Fighter!" PERFORMER "The Aquabats!" INDEX 01 00:00:00FILE "02 - B.F.F.!.wav" WAVE TRACK 02 AUDIO TITLE B.F.F.! PERFORMER "The Aquabats!" INDEX 01 00:00:00FILE "03 - The Legend is True!.wav" WAVE TRACK 03 AUDIO TITLE "The Legend is True!" PERFORMER "The Aquabats!" INDEX 01 00:00:00FILE "04 - Radio Down! (feat. Biz Markie).wav" WAVE TRACK 04 AUDIO TITLE "Radio Down! (feat. Biz Markie)" PERFORMER "The Aquabats!" INDEX 01 00:00:00FILE "05 - Poppin' a Wheelie!.wav" WAVE TRACK 05 AUDIO TITLE "Poppin' a Wheelie!" PERFORMER "The Aquabats!" INDEX 01 00:00:00FILE "06 - Hey Homies!.wav" WAVE TRACK 06 AUDIO TITLE "Hey Homies!" PERFORMER "The Aquabats!" INDEX 01 00:00:00FILE "07 - In My Dreams!.wav" WAVE TRACK 07 AUDIO TITLE "In My Dreams!" PERFORMER "The Aquabats!" INDEX 01 00:00:00FILE "08 - Just Can't Lose!.wav" WAVE TRACK 08 AUDIO TITLE "Just Can't Lose!" PERFORMER "The Aquabats!" INDEX 01 00:00:00FILE "09 - All My Money!.wav" WAVE TRACK 09 AUDIO TITLE "All My Money!" PERFORMER "The Aquabats!" INDEX 01 00:00:00FILE "10 - Pink Pants!.wav" WAVE TRACK 10 AUDIO TITLE "Pink Pants!" PERFORMER "The Aquabats!" INDEX 01 00:00:00FILE "11 - Food Fight On the Moon!.wav" WAVE TRACK 11 AUDIO TITLE "Food Fight On the Moon!" PERFORMER "The Aquabats!" INDEX 01 00:00:00FILE "12 - Luck Dragon Lady!.wav" WAVE TRACK 12 AUDIO TITLE "Luck Dragon Lady!" PERFORMER "The Aquabats!" INDEX 01 00:00:00
EPs:
01 - Yo, Check Out This Ride! (03:32)
02 - Todd-1 In Space Mountain Land! (01:32)
03 - Zero Hour! (02:07)
04 - Big Sky! (03:04)
05 - Throw Away The Trash! (03:19)
 
Exact Audio Copy V0.99 prebeta 4 from 23. January 2008

EAC extraction logfile from 21. November 2008, 9:43

The Aquabats / Yo, Check Out This Ride EP

Used drive : TSSTcorpCD/DVDW SH-S162L Adapter: 0 ID: 0

Read mode : SecureUtilize accurate stream : YesDefeat audio cache : YesMake use of C2 pointers : No

Read offset correction : 6Overread into Lead-In and Lead-Out : NoFill up missing offset samples with silence : YesDelete leading and trailing silent blocks : NoNull samples used in CRC calculations : YesUsed interface : Native Win32 interface for Win NT & 2000Gap handling : Appended to previous track

Used output format : User Defined EncoderSelected bitrate : 768 kBit/sQuality : HighAdd ID3 tag : NoCommand line compressor : C:\Program Files\Exact Audio Copy\FLAC\FLAC.EXEAdditional command line options : -V -8 -T "artist=%a" -T "title=%t" -T "album=%g" -T "date=%y" -T "tracknumber=%n" -T "genre=%m" %s

TOC of the extracted CD

Track | Start | Length | Start sector | End sector --------------------------------------------------------- 1 | 0:00.00 | 3:32.13 | 0 | 15912 2 | 3:32.13 | 1:31.60 | 15913 | 22797 3 | 5:03.73 | 2:07.17 | 22798 | 32339 4 | 7:11.15 | 3:03.29 | 32340 | 46093 5 | 10:14.44 | 3:19.06 | 46094 | 61024

Track 1

Filename D:\Waffle Irons\The Aquabats YCOTR FLAC Log\01 Yo, Check Out This Ride!.wav

Pre-gap length 0:00:02.00

Peak level 100.0 % Track quality 99.9 % Test CRC 0828B77A Copy CRC 0828B77A Track not present in AccurateRip database Copy OK

Track 2

Filename D:\Waffle Irons\The Aquabats YCOTR FLAC Log\02 Todd-1 In Space Mountain Land!.wav

Peak level 100.0 % Track quality 100.0 % Test CRC CE0B7F04 Copy CRC CE0B7F04 Track not present in AccurateRip database Copy OK

Track 3

Filename D:\Waffle Irons\The Aquabats YCOTR FLAC Log\03 Zero Hour!.wav

Peak level 100.0 % Track quality 100.0 % Test CRC 7E47262D Copy CRC 7E47262D Track not present in AccurateRip database Copy OK

Track 4

Filename D:\Waffle Irons\The Aquabats YCOTR FLAC Log\04 Big Sky!.wav

Peak level 100.0 % Track quality 100.0 % Test CRC B3050905 Copy CRC B3050905 Track not present in AccurateRip database Copy OK

Track 5

Filename D:\Waffle Irons\The Aquabats YCOTR FLAC Log\05 Throw Away The Trash!.wav

Peak level 100.0 % Track quality 100.0 % Test CRC 8590CAD0 Copy CRC 8590CAD0 Track not present in AccurateRip database Copy OK

None of the tracks are present in the AccurateRip database

No errors occurred

End of status report
 
REM GENRE SkaREM DATE 2004REM DISCID 28032D05REM COMMENT "ExactAudioCopy v0.99pb4"PERFORMER "The Aquabats!"TITLE "Yo, Check Out This Ride"FILE "01 - Yo, Check Out This Ride!.wav" WAVE TRACK 01 AUDIO TITLE "Yo, Check Out This Ride!" PERFORMER "The Aquabats!" INDEX 01 00:00:00FILE "02 - Todd-1 In Space Mountain Land!.wav" WAVE TRACK 02 AUDIO TITLE "Todd-1 In Space Mountain Land!" PERFORMER "The Aquabats!" INDEX 01 00:00:00FILE "03 - Zero Hour!.wav" WAVE TRACK 03 AUDIO TITLE "Zero Hour!" PERFORMER "The Aquabats!" INDEX 01 00:00:00FILE "04 - Big Sky!.wav" WAVE TRACK 04 AUDIO TITLE "Big Sky!" PERFORMER "The Aquabats!" INDEX 01 00:00:00FILE "05 - Throw Away The Trash!.wav" WAVE TRACK 05 AUDIO TITLE "Throw Away The Trash!" PERFORMER "The Aquabats!" INDEX 01 00:00:00
01 - Radio Down! (03:32)
02 - Best Day Of My Life (03:14)
03 - Playin' It Cool! (03:36)
 
Exact Audio Copy V0.99 prebeta 5 from 4. May 2009

EAC extraction logfile from 12. November 2010, 20:57

The Aquabats / Radio Down EP

Used drive : TSSTcorpCD/DVDW SH-S162L Adapter: 0 ID: 0

Read mode : SecureUtilize accurate stream : YesDefeat audio cache : YesMake use of C2 pointers : No

Read offset correction : 6Overread into Lead-In and Lead-Out : NoFill up missing offset samples with silence : YesDelete leading and trailing silent blocks : NoNull samples used in CRC calculations : YesUsed interface : Native Win32 interface for Win NT & 2000Gap handling : Appended to previous track

Used output format : User Defined EncoderSelected bitrate : 128 kBit/sQuality : HighAdd ID3 tag : NoCommand line compressor : D:\Program Files\Exact Audio Copy\Flac\flac.exeAdditional command line options : -V -8 -T "artist=%a" -T "title=%t" -T "album=%g" -T "date=%y" -T "tracknumber=%n" -T "genre=%m" %s

TOC of the extracted CD

Track | Start | Length | Start sector | End sector --------------------------------------------------------- 1 | 0:00.00 | 3:31.54 | 0 | 15878 2 | 3:31.54 | 3:14.13 | 15879 | 30441 3 | 6:45.67 | 3:36.12 | 30442 | 46653

Track 1

Filename C:\EACRips\01 Radio Down! The Aquabats.wav

Pre-gap length 0:00:02.00

Peak level 99.8 % Track quality 100.0 % Test CRC 06F70ECC Copy CRC 06F70ECC Track not present in AccurateRip database Copy OK

Track 2

Filename C:\EACRips\02 Best Day Of My Life The Aquabats.wav

Pre-gap length 0:00:00.40

Peak level 99.8 % Track quality 100.0 % Test CRC A62AC72D Copy CRC A62AC72D Track not present in AccurateRip database Copy OK

Track 3

Filename C:\EACRips\03 Playin' It Cool! The Aquabats.wav

Pre-gap length 0:00:00.40

Peak level 99.8 % Track quality 100.0 % Test CRC 48666A6E Copy CRC 48666A6E Track not present in AccurateRip database Copy OK

None of the tracks are present in the AccurateRip database

No errors occurred

End of status report
 
REM GENRE SkaREM DATE 2010REM DISCID 13026E03REM COMMENT "ExactAudioCopy v0.99pb5"PERFORMER "The Aquabats!"TITLE "Radio Down"FILE "01 - Radio Down!.wav" WAVE TRACK 01 AUDIO TITLE "Radio Down!" PERFORMER "The Aquabats!" INDEX 01 00:00:00 TRACK 02 AUDIO TITLE "Best Day Of My Life" PERFORMER "The Aquabats!" INDEX 00 03:31:24FILE "02 - Best Day Of My Life.wav" WAVE INDEX 01 00:00:00 TRACK 03 AUDIO TITLE "Playin' It Cool!" PERFORMER "The Aquabats!" INDEX 00 03:13:58FILE "03 - Playin' It Cool!.wav" WAVE INDEX 01 00:00:00


Трекер:  [ 16-Дек-2011 22:04 ]

  

Скачать .torrent

Размер .torrent файла 30 KB


Размер: 1.86 GB
Хэш (hash) релиза: 1f26cd535ac7d1be3713706796cf50ce3670545c

Торренты, похожие на The Aquabats - Discography скачать торрент

Форум Название Автор Размер S L Добавлен
Reggae, Ska, Dub (mp3) ·· (SkaPunk) The Aquabats - Discography (1996-2011) [MP3 (tracks) 320 kbps] _N_ 667821713637 MB 0 0 1327243988

17:53

22-Янв-12

bot

Топик был перенесен в форум Зарубежный Reggae, Ska, Dub (lossless)

Перенес Ronaldo C

Хотите добавить комментарий к записи скачать торрент The Aquabats - Discography

!Обратная связь