Футбол. Марсель. Порт. 20 человек бьют площадь британцев (2016) WEBRip 720р | Special Interest | Jay-n Changes Mp3

Скачать через торрент музыку Graduate бесплатно без регистрации torrent

Статистика раздачи
Размер:  301 MB   |    Зарегистрирован:  6 лет 5 месяцев   |    .torrent скачан:  34 раза   |   
Раздают:  1  
   
загрузка...
 
Автор Сообщение

Galfimbul

avatar Galfimbul


GRADUATE
Жанр: Pop-Ska-Punk
Год выпуска: 1980
Страна-производитель диска: Germany
Издатель: Castle/Sequel, CLC 5066, (1991)
Страна: UK
Аудио кодек: FLAC (*.flac)
Тип рипа: image+.cue
Битрейт аудио: lossless
Продолжительность: 38:54
Источник (релизер): собственный рип
Наличие сканов в содержимом раздачи: HiRes/LowRes - на выбор
Tracklist:
1. Shut Up 2:56
2. Ever Met a Day 3:31
3. Acting My Age 3:51
4. Sick and Tired 3:41
5. Dancing Nights 4:23
6. Elvis Should Play Ska 3:15
7. Watching Your World 3:28
8. Julie Julie 3:19
9. Love That Is Bad 3:46
10. I See Through You 3:52
11. Shut Up (Instrumental) 2:54
Roland Orzabal (guitar, keyboards, vocals)
Curt Smith (bass, synthesizers, vocals)
John Baker (guitar, vocals)
Steve Buck (keyboards, flute)
Andy Marsden (drums)

Produced by Glenn Tommey and Tony Hatch
 
X Lossless Decoder version 20110703 (135.1)

XLD extraction logfile from 2011-08-18 23:20:25 +0400

Graduate / Graduate (CLC 5066)

Used drive : TEAC DV-W516GDM (revision M4S2)

Ripper mode : XLD Secure RipperDisable audio cache : OK for the drive with a cache less than 1375KiBMake use of C2 pointers : NORead offset correction : 6Max retry count : 88Gap status : Analyzed, Appended

TOC of the extracted CD Track | Start | Length | Start sector | End sector --------------------------------------------------------- 1 | 00:00:00 | 02:56:42 | 0 | 13241 2 | 02:56:42 | 03:30:63 | 13242 | 29054 3 | 06:27:30 | 03:50:70 | 29055 | 46374 4 | 10:18:25 | 03:41:17 | 46375 | 62966 5 | 13:59:42 | 04:23:23 | 62967 | 82714 6 | 18:22:65 | 03:15:05 | 82715 | 97344 7 | 21:37:70 | 03:28:12 | 97345 | 112956 8 | 25:06:07 | 03:19:25 | 112957 | 127906 9 | 28:25:32 | 03:46:03 | 127907 | 144859 10 | 32:11:35 | 03:52:40 | 144860 | 162299 11 | 36:04:00 | 02:54:50 | 162300 | 175399

AccurateRip Summary Track 01 : Not Found Track 02 : OK (confidence 2) Track 03 : OK (confidence 2) Track 04 : NG Track 05 : OK (confidence 2) Track 06 : OK (confidence 2) Track 07 : OK (confidence 2) Track 08 : OK (confidence 2) Track 09 : OK (confidence 2) Track 10 : OK (confidence 2) Track 11 : OK (confidence 2) ->9 track(s) accurately ripped, 1 track(s) not, 1 track(s) not found

All Tracks Filename : /Volumes/TB/Olaf der Weisse/Graduate . 1980 . Graduate (CLC 5066)/Graduate - Graduate (CLC 5066).flac Album gain : -2.51 dB Peak : 1.000000 CRC32 hash (test run) : 47A6C4C1 CRC32 hash : 47A6C4C1 CRC32 hash (skip zero) : 5A1C5548 Statistics Read error : 0 Jitter error (maybe fixed) : 1 Retry sector count : 0 Damaged sector count : 0

Track 01 Pre-gap length : 00:02:00

Track gain : -2.52 dB Peak : 1.000000 CRC32 hash (test run) : 2C8B1A0E CRC32 hash : 2C8B1A0E CRC32 hash (skip zero) : 86C1AA0F AccurateRip signature : 3C066266 ->Track not present in AccurateRip database. Statistics Read error : 0 Jitter error (maybe fixed) : 0 Retry sector count : 0 Damaged sector count : 0

Track 02

Track gain : -2.78 dB Peak : 1.000000 CRC32 hash (test run) : E7EE279D CRC32 hash : E7EE279D CRC32 hash (skip zero) : 8791B83A AccurateRip signature : 030A7F41 ->Accurately ripped! (confidence 2) Statistics Read error : 0 Jitter error (maybe fixed) : 0 Retry sector count : 0 Damaged sector count : 0

Track 03

Track gain : -2.78 dB Peak : 0.977234 CRC32 hash (test run) : F9AE54A4 CRC32 hash : F9AE54A4 CRC32 hash (skip zero) : B1822E30 AccurateRip signature : B4D2D294 ->Accurately ripped! (confidence 2) Statistics Read error : 0 Jitter error (maybe fixed) : 0 Retry sector count : 0 Damaged sector count : 0

Track 04

Track gain : -2.55 dB Peak : 1.000000 CRC32 hash (test run) : 8B760216 CRC32 hash : 8B760216 CRC32 hash (skip zero) : 3318B3E2 AccurateRip signature : F4598C93 ->Rip may not be accurate. Statistics Read error : 0 Jitter error (maybe fixed) : 0 Retry sector count : 0 Damaged sector count : 0

Track 05

Track gain : -0.97 dB Peak : 0.991913 CRC32 hash (test run) : AF032406 CRC32 hash : AF032406 CRC32 hash (skip zero) : 13ABD443 AccurateRip signature : 6A40BABA ->Accurately ripped! (confidence 2) Statistics Read error : 0 Jitter error (maybe fixed) : 0 Retry sector count : 0 Damaged sector count : 0

Track 06

Track gain : -2.49 dB Peak : 1.000000 CRC32 hash (test run) : E71BFDA5 CRC32 hash : E71BFDA5 CRC32 hash (skip zero) : EBC0CFF6 AccurateRip signature : 3004AB5B ->Accurately ripped! (confidence 2) Statistics Read error : 0 Jitter error (maybe fixed) : 1 Retry sector count : 0 Damaged sector count : 0

Track 07

Track gain : -2.38 dB Peak : 1.000000 CRC32 hash (test run) : E3AE044D CRC32 hash : E3AE044D CRC32 hash (skip zero) : 7E7DCE74 AccurateRip signature : E5A61D6D ->Accurately ripped! (confidence 2) Statistics Read error : 0 Jitter error (maybe fixed) : 0 Retry sector count : 0 Damaged sector count : 0

Track 08

Track gain : -3.34 dB Peak : 0.981750 CRC32 hash (test run) : 1125F67C CRC32 hash : 1125F67C CRC32 hash (skip zero) : D00394A7 AccurateRip signature : A3977774 ->Accurately ripped! (confidence 2) Statistics Read error : 0 Jitter error (maybe fixed) : 0 Retry sector count : 0 Damaged sector count : 0

Track 09

Track gain : -2.89 dB Peak : 0.999969 CRC32 hash (test run) : E4C62237 CRC32 hash : E4C62237 CRC32 hash (skip zero) : D0874A29 AccurateRip signature : CA0CD481 ->Accurately ripped! (confidence 2) Statistics Read error : 0 Jitter error (maybe fixed) : 0 Retry sector count : 0 Damaged sector count : 0

Track 10

Track gain : -0.23 dB Peak : 1.000000 CRC32 hash (test run) : 72799031 CRC32 hash : 72799031 CRC32 hash (skip zero) : 25C3603C AccurateRip signature : 80BF2E51 ->Accurately ripped! (confidence 2) Statistics Read error : 0 Jitter error (maybe fixed) : 0 Retry sector count : 0 Damaged sector count : 0

Track 11

Track gain : -1.78 dB Peak : 1.000000 CRC32 hash (test run) : 860C245D CRC32 hash : 860C245D CRC32 hash (skip zero) : 5EA0C38D AccurateRip signature : A847980E ->Accurately ripped! (confidence 2) Statistics Read error : 0 Jitter error (maybe fixed) : 0 Retry sector count : 0 Damaged sector count : 0

Some inconsistencies found

End of status report
 
TITLE "Graduate (CLC 5066)"PERFORMER "Graduate"REM GENRE "Ska"REM DATE "1980"REM DISCNUMBER 1REM TOTALDISCS 1REM DISCID 9209220BREM REPLAYGAIN_ALBUM_GAIN -2.51 dBREM REPLAYGAIN_ALBUM_PEAK 1.000000FILE "Graduate - Graduate (CLC 5066).flac" WAVE TRACK 01 AUDIO TITLE "Shut Up" REM REPLAYGAIN_TRACK_GAIN -2.52 dB REM REPLAYGAIN_TRACK_PEAK 1.000000 INDEX 01 00:00:00 TRACK 02 AUDIO TITLE "Ever Met A Day" REM REPLAYGAIN_TRACK_GAIN -2.78 dB REM REPLAYGAIN_TRACK_PEAK 1.000000 INDEX 01 02:56:42 TRACK 03 AUDIO TITLE "Acting My Age" REM REPLAYGAIN_TRACK_GAIN -2.78 dB REM REPLAYGAIN_TRACK_PEAK 0.977234 INDEX 01 06:27:30 TRACK 04 AUDIO TITLE "Sick And Tired" REM REPLAYGAIN_TRACK_GAIN -2.55 dB REM REPLAYGAIN_TRACK_PEAK 1.000000 INDEX 01 10:18:25 TRACK 05 AUDIO TITLE "Dancing Nights" REM REPLAYGAIN_TRACK_GAIN -0.97 dB REM REPLAYGAIN_TRACK_PEAK 0.991913 INDEX 01 13:59:42 TRACK 06 AUDIO TITLE "Elvis Should Play Ska" REM REPLAYGAIN_TRACK_GAIN -2.49 dB REM REPLAYGAIN_TRACK_PEAK 1.000000 INDEX 01 18:22:65 TRACK 07 AUDIO TITLE "Watching The World" REM REPLAYGAIN_TRACK_GAIN -2.38 dB REM REPLAYGAIN_TRACK_PEAK 1.000000 INDEX 01 21:37:70 TRACK 08 AUDIO TITLE "Julie Julie" REM REPLAYGAIN_TRACK_GAIN -3.34 dB REM REPLAYGAIN_TRACK_PEAK 0.981750 INDEX 01 25:06:07 TRACK 09 AUDIO TITLE "Love That Is Bad" REM REPLAYGAIN_TRACK_GAIN -2.89 dB REM REPLAYGAIN_TRACK_PEAK 0.999969 INDEX 01 28:25:32 TRACK 10 AUDIO TITLE "I See Through You" REM REPLAYGAIN_TRACK_GAIN -0.23 dB REM REPLAYGAIN_TRACK_PEAK 1.000000 INDEX 01 32:11:35 TRACK 11 AUDIO TITLE "Shut Up (Instrumental)" REM REPLAYGAIN_TRACK_GAIN -1.78 dB REM REPLAYGAIN_TRACK_PEAK 1.000000 INDEX 01 36:04:00
 
[CUETools log; Date: 26.08.2011 0:59:24; Version: 2.1.2a][AccurateRip ID: 00101993-008c27b9-9209220b] found.Track [ CRC ] Status 01 [3c066266] (0/0) No match but offset 02 [030a7f41] (2/2) Accurately ripped 03 [b4d2d294] (2/2) Accurately ripped 04 [f4598c93] (0/2) No match but offset 05 [6a40baba] (2/2) Accurately ripped 06 [3004ab5b] (2/2) Accurately ripped 07 [e5a61d6d] (2/2) Accurately ripped 08 [a3977774] (2/2) Accurately ripped 09 [ca0cd481] (2/2) Accurately ripped 10 [80bf2e51] (2/2) Accurately ripped 11 [a847980e] (2/2) Accurately ripped

Track Peak [ CRC32 ] [W/O NULL] -- 100,0 [47A6C4C1] [5A1C5548] 01 100,0 [2C8B1A0E] [86C1AA0F] 02 100,0 [E7EE279D] [8791B83A] 03 97,7 [F9AE54A4] [B1822E30] 04 100,0 [8B760216] [3318B3E2] 05 99,1 [AF032406] [13ABD443] 06 100,0 [E71BFDA5] [EBC0CFF6] 07 100,0 [E3AE044D] [7E7DCE74] 08 98,1 [1125F67C] [D00394A7] 09 100,0 [E4C62237] [D0874A29] 10 100,0 [72799031] [25C3603C] 11 100,0 [860C245D] [5EA0C38D]


Трекер:  [ 03-Фев-2012 01:13 ]

  

Скачать .torrent

Размер .torrent файла 48 KB


Размер: 301 MB
Хэш (hash) релиза: 12eb6013abb4c57509ad41856509c45184767958

Торренты, похожие на Graduate скачать торрент

Форум Название Автор Размер S L Добавлен
Электронная музыка (mp3) ·· (80's/retro-pop/synthpop/synthwave) Sunglasses Kid - Graduation - 2017, MP3, 320 kbps Galfimbul 151803180145 MB 0 0 1488647391

20:09

4-Мар-17

Электронная музыка (mp3) ·· (80's/dreamwave/synthwave) Sunglasses Kid - Graduation - 2017, MP3, 128 kbps Galfimbul 5664718354 MB 0 0 1488146818

01:06

27-Фев-17

Электронная музыка (mp3) ·· (80's/dreamwave/synthwave) Sunglasses Kid - Graduation - 2017, MP3, 128 kbps Galfimbul 5664718354 MB 0 0 1488143461

00:11

27-Фев-17

Rосk | Mеtаl | Аltеrnаtivе, Рunk, Indереndеnt (mр3) ·· (Punk77/Street Punk/Garage Rock/Psychobilly) Stinx - Graduating Speed - 2010, MP3, 256 kbps Galfimbul 5610581954 MB 0 0 1456662255

15:24

28-Фев-16

Rосk | Mеtаl | Аltеrnаtivе, Рunk, Indереndеnt (losslеss) ·· (Power Metal, Hard Rock) Sturm und Drang - Graduation Day - 2012, FLAC (image+.cue), lossless Galfimbul 390934889373 MB 0 0 1370465042

23:44

5-Июн-13

Саундтреки ·· (Soundtrack) Лузеры / Хор / Glee: The Music, The Graduation Album - 2012, MP3, 320 kbps Umakiro 120581105115 MB 0 0 1337006100

17:35

14-Май-12

Саундтреки к фильмам и мультфильмам (lossless) ·· (Soundtrack) The Graduate by Simon & Garfunkel/ Выпускник - 1968, WAVPack (image + .cue), lossless Galfimbul 192225340183 MB 0 0 1292268851

22:34

13-Дек-10

Саундтреки к фильмам и мультфильмам (mp3) ·· (Soundtrack) Выпускник / The Graduate by Simon & Garfunkel - - 1968, MP3, 320 kbps Galfimbul 9017786086 MB 0 0 1292265887

21:44

13-Дек-10

Еще никто не оставлял запись к записи скачать торрент Graduate . Будь первым!

!Обратная связь