Сара Уэйн Кэллис | Download mp3 | Oasis - Wonderwall

Скачать через торрент музыку The King Blues - Студийные Альбомы - 2008-2011, FLAC бесплатно без регистрации torrent

Статистика раздачи
Размер:  785 MB   |    Зарегистрирован:  6 лет 5 месяцев   |    .torrent скачан:  32 раза   |   
Раздают:  1  
   
загрузка...
 
Автор Сообщение

Galfimbul

avatar Galfimbul


The King Blues / Студийные Альбомы

Жанр: Punky-Reggae/SkaPunk/Punk
Страна-производитель диска: U.K.
Год издания диска: 2008-2011
Издатель (лейбл): Field Recordings/Island, Transmission Recordings
Страна: U.K.
Аудиокодек: FLAC (*.flac)
Тип рипа: tracks+.cue
Битрейт аудио: lossless
Продолжительность: 01:54:35
Источник (релизер): waffles.fm
Наличие сканов в содержимом раздачи: нет
Треклист:
 
01. Intro (02:42)02. Blood On My Hands (03:19)03. We Ain't Never Done (03:39)04. Mr Music Man (02:30)05. Come Fi Di Youth (04:32)06. The Sound Of Revolt (02:46)07. If I Had A Coin... (02:55)08. Chimp In A 3 Piece Suit (02:20)09. Duck And Cover (01:18)10. Taking Over (02:42)11. Getting Out Of Here (09:50)
 
01. My Boulder (03:22)02. I Got Love (03:10)03. The Schemers, The Scroungers, And The Rats (03:40)04. Underneath This Lamppost Light (04:54)05. Save The World, Get The Girl (03:06)06. For You My Darling (05:11)07. The Streets Are Ours (03:35)08. Let's Hang The Landlord (05:13)09. Out Of Luck (03:20)10. Hold On Tight (03:38)11. What If Punk Never Happened (06:40)
 
01. Last Of The Dreamers (00:59)02. We Are Fucking Angry (03:04)03. Set The World On Fire (02:43)04. Dancehall (00:52)05. The Future's Not What It Used To Be (03:56)06. I Want You (02:24)07. Five Bottles Of Shampoo (02:02)08. Sex Education (02:39)09. Shooting Fascists (00:48)10. Headbutt (03:20)11. Does Anybody Care About Us? (03:36)12. Everything Happens For A Reason (03:50)
 
Exact Audio Copy V1.0 beta 2 from 29. April 2011 

EAC extraction logfile from 25. August 2011, 15:24

The King Blues / Under The Fog

Used drive : TSSTcorpCD/DVDW SH-S183A Adapter: 4 ID: 0

Read mode : Secure
Utilize accurate stream : Yes
Defeat audio cache : Yes
Make use of C2 pointers : No

Read offset correction : 6
Overread into Lead-In and Lead-Out : No
Fill up missing offset samples with silence : Yes
Delete leading and trailing silent blocks : No
Null samples used in CRC calculations : Yes
Used interface : Native Win32 interface for Win NT & 2000
Gap handling : Appended to previous track

Used output format : User Defined Encoder
Selected bitrate : 1024 kBit/s
Quality : High
Add ID3 tag : No
Command line compressor : C:\Program Files (x86)\Exact Audio Copy\Flac\flac.exe
Additional command line options : -8 -V -T "ARTIST=%artist%" -T "TITLE=%title%" -T "ALBUM=%albumtitle%" -T "DATE=%year%" -T "TRACKNUMBER=%tracknr%" -T "GENRE=%genre%" -T "PERFORMER=%albuminterpret%" -T "COMPOSER=%composer%" %haslyrics%--tag-from-file=LYRICS

TOC of the extracted CD

Track | Start | Length | Start sector | End sector
---------------------------------------------------------
1 | 0:00.00 | 2:42.20 | 0 | 12169
2 | 2:42.20 | 3:18.47 | 12170 | 27066
3 | 6:00.67 | 3:38.43 | 27067 | 43459
4 | 9:39.35 | 2:30.31 | 43460 | 54740
5 | 12:09.66 | 4:32.04 | 54741 | 75144
6 | 16:41.70 | 2:45.47 | 75145 | 87566
7 | 19:27.42 | 2:55.36 | 87567 | 100727
8 | 22:23.03 | 2:20.22 | 100728 | 111249
9 | 24:43.25 | 1:17.46 | 111250 | 117070
10 | 26:00.71 | 2:41.72 | 117071 | 129217
11 | 28:42.68 | 9:50.33 | 129218 | 173500

Track 1

Filename C:\Ripped Music\FLAC\The King Blues\[2007] Under The Fog\01 - Intro.wav

Pre-gap length 0:00:02.00

Peak level 100.0 %
Extraction speed 3.9 X
Track quality 100.0 %
Test CRC 5A46EB35
Copy CRC 5A46EB35
Accurately ripped (confidence 2) [48F01307] (AR v1)
Copy OK

Track 2

Filename C:\Ripped Music\FLAC\The King Blues\[2007] Under The Fog\02 - Blood On My Hands.wav

Peak level 100.0 %
Extraction speed 4.4 X
Track quality 100.0 %
Test CRC E9128B5F
Copy CRC E9128B5F
Accurately ripped (confidence 2) [959E0306] (AR v1)
Copy OK

Track 3

Filename C:\Ripped Music\FLAC\The King Blues\[2007] Under The Fog\03 - We Ain't Never Done.wav

Peak level 100.0 %
Extraction speed 4.8 X
Track quality 100.0 %
Test CRC 074BD105
Copy CRC 074BD105
Accurately ripped (confidence 2) [41D64621] (AR v1)
Copy OK

Track 4

Filename C:\Ripped Music\FLAC\The King Blues\[2007] Under The Fog\04 - Mr Music Man.wav

Peak level 99.2 %
Extraction speed 4.0 X
Track quality 99.9 %
Test CRC D24735C3
Copy CRC D24735C3
Accurately ripped (confidence 2) [2CDDBCCC] (AR v1)
Copy OK

Track 5

Filename C:\Ripped Music\FLAC\The King Blues\[2007] Under The Fog\05 - Come Fi Di Youth.wav

Pre-gap length 0:00:00.65

Peak level 99.9 %
Extraction speed 5.6 X
Track quality 100.0 %
Test CRC 54F21432
Copy CRC 54F21432
Accurately ripped (confidence 2) [1B610DD3] (AR v1)
Copy OK

Track 6

Filename C:\Ripped Music\FLAC\The King Blues\[2007] Under The Fog\06 - The Sound Of Revolt.wav

Pre-gap length 0:00:00.70

Peak level 100.0 %
Extraction speed 5.4 X
Track quality 100.0 %
Test CRC F092D9C7
Copy CRC F092D9C7
Accurately ripped (confidence 2) [A984908A] (AR v1)
Copy OK

Track 7

Filename C:\Ripped Music\FLAC\The King Blues\[2007] Under The Fog\07 - If I Had A Coin....wav

Pre-gap length 0:00:00.06

Peak level 100.0 %
Extraction speed 5.7 X
Track quality 100.0 %
Test CRC E4ED7856
Copy CRC E4ED7856
Accurately ripped (confidence 2) [F297386D] (AR v1)
Copy OK

Track 8

Filename C:\Ripped Music\FLAC\The King Blues\[2007] Under The Fog\08 - Chimp In A 3 Piece Suit.wav

Pre-gap length 0:00:01.21

Peak level 100.0 %
Extraction speed 5.6 X
Track quality 100.0 %
Test CRC 1B9DEA03
Copy CRC 1B9DEA03
Accurately ripped (confidence 2) [817856CC] (AR v1)
Copy OK

Track 9

Filename C:\Ripped Music\FLAC\The King Blues\[2007] Under The Fog\09 - Duck And Cover.wav

Pre-gap length 0:00:00.56

Peak level 100.0 %
Extraction speed 4.8 X
Track quality 100.0 %
Test CRC 8061642A
Copy CRC 8061642A
Accurately ripped (confidence 2) [7846DFB8] (AR v1)
Copy OK

Track 10

Filename C:\Ripped Music\FLAC\The King Blues\[2007] Under The Fog\10 - Taking Over.wav

Pre-gap length 0:00:00.56

Peak level 100.0 %
Extraction speed 6.0 X
Track quality 100.0 %
Test CRC 76529DFF
Copy CRC 76529DFF
Accurately ripped (confidence 2) [D685471D] (AR v1)
Copy OK

Track 11

Filename C:\Ripped Music\FLAC\The King Blues\[2007] Under The Fog\11 - Getting Out Of Here.wav

Pre-gap length 0:00:00.26

Peak level 100.0 %
Extraction speed 7.4 X
Track quality 100.0 %
Test CRC 10A2D55A
Copy CRC 10A2D55A
Accurately ripped (confidence 2) [54ACEBA2] (AR v1)
Copy OK

All tracks accurately ripped

No errors occurred

End of status report

---- CUETools DB Plugin V2.1.2

[CTDB TOCID: ifu47WfoaBkg9VxzH2Y0779lq_k-] disk not present in database, Submit result: ifu47WfoaBkg9VxzH2Y0779lq_k- has been uploaded

==== Log checksum A925420AB5999E458B55432D6DFFC4E8DAB44E959B89EC185F1D25E6572CA9E7 ====
[pre]
Exact Audio Copy V1.0 beta 2 from 29. April 2011

EAC extraction logfile from 25. August 2011, 15:51

The King Blues / Save The World · Get The Girl

Used drive : TSSTcorpCD/DVDW SH-S183A Adapter: 4 ID: 0

Read mode : SecureUtilize accurate stream : YesDefeat audio cache : YesMake use of C2 pointers : No

Read offset correction : 6Overread into Lead-In and Lead-Out : NoFill up missing offset samples with silence : YesDelete leading and trailing silent blocks : NoNull samples used in CRC calculations : YesUsed interface : Native Win32 interface for Win NT & 2000Gap handling : Appended to previous track

Used output format : User Defined EncoderSelected bitrate : 1024 kBit/sQuality : HighAdd ID3 tag : NoCommand line compressor : C:\Program Files (x86)\Exact Audio Copy\Flac\flac.exeAdditional command line options : -8 -V -T "ARTIST=%artist%" -T "TITLE=%title%" -T "ALBUM=%albumtitle%" -T "DATE=%year%" -T "TRACKNUMBER=%tracknr%" -T "GENRE=%genre%" -T "PERFORMER=%albuminterpret%" -T "COMPOSER=%composer%" %haslyrics%--tag-from-file=LYRICS

TOC of the extracted CD

Track | Start | Length | Start sector | End sector --------------------------------------------------------- 1 | 0:00.00 | 3:22.22 | 0 | 15171 2 | 3:22.22 | 3:10.37 | 15172 | 29458 3 | 6:32.59 | 3:40.24 | 29459 | 45982 4 | 10:13.08 | 4:53.74 | 45983 | 68031 5 | 15:07.07 | 3:06.07 | 68032 | 81988 6 | 18:13.14 | 5:10.66 | 81989 | 105304 7 | 23:24.05 | 3:34.45 | 105305 | 121399 8 | 26:58.50 | 5:12.61 | 121400 | 144860 9 | 32:11.36 | 3:20.30 | 144861 | 159890 10 | 35:31.66 | 3:37.69 | 159891 | 176234 11 | 39:09.60 | 6:39.41 | 176235 | 206200 12 | 48:21.26 | 29:16.38 | 217601 | 349338

Track 1

Filename C:\Ripped Music\FLAC\The King Blues\[2008] Save The World · Get The Girl\01 - My Boulder.wav

Pre-gap length 0:00:02.00

Peak level 100.0 % Extraction speed 4.5 X Track quality 100.0 % Test CRC 5B314973 Copy CRC 5B314973 Accurately ripped (confidence 2) [483E8214] (AR v2) Copy OK

Track 2

Filename C:\Ripped Music\FLAC\The King Blues\[2008] Save The World · Get The Girl\02 - I Got Love.wav

Pre-gap length 0:00:00.93

Peak level 100.0 % Extraction speed 4.8 X Track quality 100.0 % Test CRC D275AD7E Copy CRC D275AD7E Accurately ripped (confidence 2) [3AA612D0] (AR v2) Copy OK

Track 3

Filename C:\Ripped Music\FLAC\The King Blues\[2008] Save The World · Get The Girl\03 - The Schemers, The Scroungers, And The Rats.wav

Peak level 100.0 % Extraction speed 5.3 X Track quality 100.0 % Test CRC C09BED43 Copy CRC C09BED43 Accurately ripped (confidence 2) [CEB14D0E] (AR v2) Copy OK

Track 4

Filename C:\Ripped Music\FLAC\The King Blues\[2008] Save The World · Get The Girl\04 - Underneath This Lamppost Light.wav

Pre-gap length 0:00:00.26

Peak level 99.9 % Extraction speed 5.8 X Track quality 100.0 % Test CRC 08F14F2C Copy CRC 08F14F2C Accurately ripped (confidence 2) [4E684417] (AR v2) Copy OK

Track 5

Filename C:\Ripped Music\FLAC\The King Blues\[2008] Save The World · Get The Girl\05 - Save The World, Get The Girl.wav

Pre-gap length 0:00:00.66

Peak level 100.0 % Extraction speed 5.9 X Track quality 100.0 % Test CRC 5AAD225A Copy CRC 5AAD225A Accurately ripped (confidence 2) [693BDF81] (AR v2) Copy OK

Track 6

Filename C:\Ripped Music\FLAC\The King Blues\[2008] Save The World · Get The Girl\06 - For You My Darling.wav

Pre-gap length 0:00:00.50

Peak level 98.8 % Extraction speed 6.5 X Track quality 100.0 % Test CRC 0E72A123 Copy CRC 0E72A123 Accurately ripped (confidence 2) [0652BF01] (AR v2) Copy OK

Track 7

Filename C:\Ripped Music\FLAC\The King Blues\[2008] Save The World · Get The Girl\07 - The Streets Are Ours.wav

Pre-gap length 0:00:00.26

Peak level 100.0 % Extraction speed 6.6 X Track quality 100.0 % Test CRC 262EC57A Copy CRC 262EC57A Accurately ripped (confidence 2) [15EC09F7] (AR v2) Copy OK

Track 8

Filename C:\Ripped Music\FLAC\The King Blues\[2008] Save The World · Get The Girl\08 - Let's Hang The Landlord.wav

Peak level 100.0 % Extraction speed 7.2 X Track quality 100.0 % Test CRC 31EC312D Copy CRC 31EC312D Accurately ripped (confidence 2) [44B70269] (AR v2) Copy OK

Track 9

Filename C:\Ripped Music\FLAC\The King Blues\[2008] Save The World · Get The Girl\09 - Out Of Luck.wav

Pre-gap length 0:00:01.02

Peak level 100.0 % Extraction speed 7.0 X Track quality 100.0 % Test CRC 2A38ACB5 Copy CRC 2A38ACB5 Accurately ripped (confidence 2) [B3B2AEDF] (AR v2) Copy OK

Track 10

Filename C:\Ripped Music\FLAC\The King Blues\[2008] Save The World · Get The Girl\10 - Hold On Tight.wav

Pre-gap length 0:00:00.30

Peak level 100.0 % Extraction speed 7.4 X Track quality 100.0 % Test CRC EFD6C20D Copy CRC EFD6C20D Accurately ripped (confidence 2) [D10DBF7A] (AR v2) Copy OK

Track 11

Filename C:\Ripped Music\FLAC\The King Blues\[2008] Save The World · Get The Girl\11 - What If Punk Never Happened.wav

Pre-gap length 0:00:03.45

Peak level 100.0 % Extraction speed 8.2 X Track quality 100.0 % Test CRC E6DEB829 Copy CRC E6DEB829 Accurately ripped (confidence 2) [54EA99C7] (AR v2) Copy OK

All tracks accurately ripped

No errors occurred

End of status report

---- CUETools DB Plugin V2.1.2

[CTDB TOCID: qbyV2Cbmx6D1TLRcOyoj.ZdobVI-] found, Submit result: qbyV2Cbmx6D1TLRcOyoj.ZdobVI- has been confirmed[46f3c6df] (7/7) Accurately ripped

==== Log checksum 4DC01E01B8828D07C27CE13E9DAE27B82C85A9CED5DA23F6E72E31D092348232 ====
 
Exact Audio Copy V1.0 beta 1 from 15. November 2010

EAC extraction logfile from 20. April 2011, 16:07

The King Blues / Punk & Poetry

Used drive : TSSTcorpCD/DVDW SH-S183A Adapter: 4 ID: 0

Read mode : SecureUtilize accurate stream : YesDefeat audio cache : YesMake use of C2 pointers : No

Read offset correction : 6Overread into Lead-In and Lead-Out : NoFill up missing offset samples with silence : YesDelete leading and trailing silent blocks : NoNull samples used in CRC calculations : YesUsed interface : Native Win32 interface for Win NT & 2000Gap handling : Appended to previous track

Used output format : User Defined EncoderSelected bitrate : 128 kBit/sQuality : HighAdd ID3 tag : NoCommand line compressor : C:\Program Files (x86)\Exact Audio Copy\Flac\flac64.exeAdditional command line options : -V -8 -T "artist=%a" -T "title=%t" -T "album=%g" -T "date=%y" -T "tracknumber=%n" -T "genre=%m" %s

TOC of the extracted CD

Track | Start | Length | Start sector | End sector --------------------------------------------------------- 1 | 0:00.00 | 0:58.54 | 0 | 4403 2 | 0:58.54 | 3:04.16 | 4404 | 18219 3 | 4:02.70 | 2:43.03 | 18220 | 30447 4 | 6:45.73 | 0:51.70 | 30448 | 34342 5 | 7:37.68 | 3:56.25 | 34343 | 52067 6 | 11:34.18 | 2:23.42 | 52068 | 62834 7 | 13:57.60 | 2:01.67 | 62835 | 71976 8 | 15:59.52 | 2:39.31 | 71977 | 83932 9 | 18:39.08 | 0:47.62 | 83933 | 87519 10 | 19:26.70 | 3:19.69 | 87520 | 102513 11 | 22:46.64 | 3:35.47 | 102514 | 118685 12 | 26:22.36 | 3:50.26 | 118686 | 135961

Track 1

Filename C:\Music Uploads\The King Blues - 2011 - Punk & Poetry [FLAC]\01 - Last Of The Dreamers.wav

Pre-gap length 0:00:02.00

Peak level 99.7 % Extraction speed 1.6 X Track quality 100.0 % Test CRC 52A1E8F4 Copy CRC 52A1E8F4 Track not present in AccurateRip database Copy OK

Track 2

Filename C:\Music Uploads\The King Blues - 2011 - Punk & Poetry [FLAC]\02 - We Are Fucking Angry.wav

Peak level 91.5 % Extraction speed 2.5 X Track quality 100.0 % Test CRC 8964427E Copy CRC 8964427E Track not present in AccurateRip database Copy OK

Track 3

Filename C:\Music Uploads\The King Blues - 2011 - Punk & Poetry [FLAC]\03 - Set The World On Fire.wav

Peak level 100.0 % Extraction speed 2.2 X Track quality 99.9 % Test CRC 90A402E9 Copy CRC 90A402E9 Track not present in AccurateRip database Copy OK

Track 4

Filename C:\Music Uploads\The King Blues - 2011 - Punk & Poetry [FLAC]\04 - Dancehall.wav

Peak level 99.7 % Extraction speed 1.9 X Track quality 100.0 % Test CRC 3E83AD67 Copy CRC 3E83AD67 Track not present in AccurateRip database Copy OK

Track 5

Filename C:\Music Uploads\The King Blues - 2011 - Punk & Poetry [FLAC]\05 - The Future's Not What It Used To Be.wav

Peak level 100.0 % Extraction speed 3.0 X Track quality 100.0 % Test CRC E8F49265 Copy CRC E8F49265 Track not present in AccurateRip database Copy OK

Track 6

Filename C:\Music Uploads\The King Blues - 2011 - Punk & Poetry [FLAC]\06 - I Want You.wav

Peak level 100.0 % Extraction speed 2.9 X Track quality 100.0 % Test CRC C3853CE0 Copy CRC C3853CE0 Track not present in AccurateRip database Copy OK

Track 7

Filename C:\Music Uploads\The King Blues - 2011 - Punk & Poetry [FLAC]\07 - Five Bottles Of Shampoo.wav

Peak level 100.0 % Extraction speed 2.9 X Track quality 100.0 % Test CRC 031D47BF Copy CRC 031D47BF Track not present in AccurateRip database Copy OK

Track 8

Filename C:\Music Uploads\The King Blues - 2011 - Punk & Poetry [FLAC]\08 - Sex Education.wav

Peak level 100.0 % Extraction speed 2.7 X Track quality 99.9 % Test CRC 6B1EB319 Copy CRC 6B1EB319 Track not present in AccurateRip database Copy OK

Track 9

Filename C:\Music Uploads\The King Blues - 2011 - Punk & Poetry [FLAC]\09 - Shooting Fascists.wav

Peak level 46.6 % Extraction speed 1.5 X Track quality 99.7 % Test CRC 49488BF8 Copy CRC 49488BF8 Track not present in AccurateRip database Copy OK

Track 10

Filename C:\Music Uploads\The King Blues - 2011 - Punk & Poetry [FLAC]\10 - Headbutt.wav

Peak level 99.7 % Extraction speed 3.1 X Track quality 99.9 % Test CRC 4A582767 Copy CRC 4A582767 Track not present in AccurateRip database Copy OK

Track 11

Filename C:\Music Uploads\The King Blues - 2011 - Punk & Poetry [FLAC]\11 - Does Anybody Care About Us.wav

Peak level 88.8 % Extraction speed 3.8 X Track quality 100.0 % Test CRC 99DAB9CA Copy CRC 99DAB9CA Track not present in AccurateRip database Copy OK

Track 12

Filename C:\Music Uploads\The King Blues - 2011 - Punk & Poetry [FLAC]\12 - Everything Happens For A Reason.wav

Peak level 99.7 % Extraction speed 4.0 X Track quality 100.0 % Test CRC 4B891FC8 Copy CRC 4B891FC8 Track not present in AccurateRip database Copy OK

None of the tracks are present in the AccurateRip database

No errors occurred

End of status report

==== Log checksum 1B78115C7876D1364A3E3291E1564FB96B33D0E2959F920D33FEFA07A479E89D ====
 
REM GENRE "Folk Punk" 
REM DATE 2007
REM DISCID 8109090B
REM COMMENT "ExactAudioCopy v1.0b2"
CATALOG 0602517478954
PERFORMER "The King Blues"
TITLE "Under The Fog"
FILE "01 - Intro.wav" WAVE
TRACK 01 AUDIO
TITLE "Intro"
PERFORMER "The King Blues"
ISRC GAeM70706500
INDEX 01 00:00:00
FILE "02 - Blood On My Hands.wav" WAVE
TRACK 02 AUDIO
TITLE "Blood On My Hands"
PERFORMER "The King Blues"
ISRC GAeM70706496
INDEX 01 00:00:00
FILE "03 - We Ain't Never Done.wav" WAVE
TRACK 03 AUDIO
TITLE "We Ain't Never Done"
PERFORMER "The King Blues"
ISRC GAeM70706099
INDEX 01 00:00:00
FILE "04 - Mr Music Man.wav" WAVE
TRACK 04 AUDIO
TITLE "Mr Music Man"
PERFORMER "The King Blues"
ISRC GAeM70706093
INDEX 01 00:00:00
TRACK 05 AUDIO
TITLE "Come Fi Di Youth"
PERFORMER "The King Blues"
ISRC GAeM70705014
INDEX 00 02:29:57
FILE "05 - Come Fi Di Youth.wav" WAVE
INDEX 01 00:00:00
TRACK 06 AUDIO
TITLE "The Sound Of Revolt"
PERFORMER "The King Blues"
ISRC GAeM70706497
INDEX 00 04:31:26
FILE "06 - The Sound Of Revolt.wav" WAVE
INDEX 01 00:00:00
TRACK 07 AUDIO
TITLE "If I Had A Coin..."
PERFORMER "The King Blues"
ISRC GAeM70706501
INDEX 00 02:45:42
FILE "07 - If I Had A Coin....wav" WAVE
INDEX 01 00:00:00
TRACK 08 AUDIO
TITLE "Chimp In A 3 Piece Suit"
PERFORMER "The King Blues"
ISRC GAeM70706504
INDEX 00 02:54:20
FILE "08 - Chimp In A 3 Piece Suit.wav" WAVE
INDEX 01 00:00:00
TRACK 09 AUDIO
TITLE "Duck And Cover"
PERFORMER "The King Blues"
ISRC GAeM70706503
INDEX 00 02:19:55
FILE "09 - Duck And Cover.wav" WAVE
INDEX 01 00:00:00
TRACK 10 AUDIO
TITLE "Taking Over"
PERFORMER "The King Blues"
ISRC GAeM70706498
INDEX 00 01:17:04
FILE "10 - Taking Over.wav" WAVE
INDEX 01 00:00:00
TRACK 11 AUDIO
TITLE "Getting Out Of Here"
PERFORMER "The King Blues"
ISRC GAeM70706502
INDEX 00 02:41:52
FILE "11 - Getting Out Of Here.wav" WAVE
INDEX 01 00:00:00
[pre]
REM GENRE "Punk Rock"REM DATE 2008REM DISCID 8B12310CREM COMMENT "ExactAudioCopy v1.0b2"CATALOG 0602517827394PERFORMER "The King Blues"TITLE "Save The World · Get The Girl"FILE "01 - My Boulder.wav" WAVE TRACK 01 AUDIO TITLE "My Boulder" PERFORMER "The King Blues" ISRC GAeM70812050 INDEX 01 00:00:00 TRACK 02 AUDIO TITLE "I Got Love" PERFORMER "The King Blues" ISRC GAeM70812049 INDEX 00 03:21:27FILE "02 - I Got Love.wav" WAVE INDEX 01 00:00:00FILE "03 - The Schemers, The Scroungers, And The Rats.wav" WAVE TRACK 03 AUDIO TITLE "The Schemers, The Scroungers, And The Rats" PERFORMER "The King Blues" ISRC GAeM70812932 INDEX 01 00:00:00 TRACK 04 AUDIO TITLE "Underneath This Lamppost Light" PERFORMER "The King Blues" ISRC GAeM70812054 INDEX 00 03:40:04FILE "04 - Underneath This Lamppost Light.wav" WAVE INDEX 01 00:00:00 TRACK 05 AUDIO TITLE "Save The World, Get The Girl" PERFORMER "The King Blues" ISRC GAeM70812052 INDEX 00 04:53:24FILE "05 - Save The World, Get The Girl.wav" WAVE INDEX 01 00:00:00 TRACK 06 AUDIO TITLE "For You My Darling" PERFORMER "The King Blues" ISRC GAeM70812048 INDEX 00 03:05:44FILE "06 - For You My Darling.wav" WAVE INDEX 01 00:00:00 TRACK 07 AUDIO TITLE "The Streets Are Ours" PERFORMER "The King Blues" ISRC GAeM70812053 INDEX 00 05:10:46FILE "07 - The Streets Are Ours.wav" WAVE INDEX 01 00:00:00FILE "08 - Let's Hang The Landlord.wav" WAVE TRACK 08 AUDIO TITLE "Let's Hang The Landlord" PERFORMER "The King Blues" ISRC GAeM70809442 INDEX 01 00:00:00 TRACK 09 AUDIO TITLE "Out Of Luck" PERFORMER "The King Blues" ISRC GAeM70812056 INDEX 00 05:11:59FILE "09 - Out Of Luck.wav" WAVE INDEX 01 00:00:00 TRACK 10 AUDIO TITLE "Hold On Tight" PERFORMER "The King Blues" ISRC GAeM70812055 INDEX 00 03:20:07FILE "10 - Hold On Tight.wav" WAVE INDEX 01 00:00:00 TRACK 11 AUDIO TITLE "What If Punk Never Happened" PERFORMER "The King Blues" ISRC GAeM70812057 INDEX 00 03:34:35FILE "11 - What If Punk Never Happened.wav" WAVE INDEX 01 00:00:00 TRACK 12 MODEx/2xxx TITLE "Enhanced CD" PERFORMER "The King Blues" INDEX 00 06:39:41
 
REM GENRE PunkREM DATE 2011REM DISCID A107140CREM COMMENT "ExactAudioCopy v1.0b1"PERFORMER "The King Blues"TITLE "Punk & Poetry"FILE "01 - Last Of The Dreamers.wav" WAVE TRACK 01 AUDIO TITLE "Last Of The Dreamers" PERFORMER "The King Blues" INDEX 01 00:00:00FILE "02 - We Are Fucking Angry.wav" WAVE TRACK 02 AUDIO TITLE "We Are Fucking Angry" PERFORMER "The King Blues" INDEX 01 00:00:00FILE "03 - Set The World On Fire.wav" WAVE TRACK 03 AUDIO TITLE "Set The World On Fire" PERFORMER "The King Blues" INDEX 01 00:00:00FILE "04 - Dancehall.wav" WAVE TRACK 04 AUDIO TITLE "Dancehall" PERFORMER "The King Blues" INDEX 01 00:00:00FILE "05 - The Future's Not What It Used To Be.wav" WAVE TRACK 05 AUDIO TITLE "The Future's Not What It Used To Be" PERFORMER "The King Blues" INDEX 01 00:00:00FILE "06 - I Want You.wav" WAVE TRACK 06 AUDIO TITLE "I Want You" PERFORMER "The King Blues" INDEX 01 00:00:00FILE "07 - Five Bottles Of Shampoo.wav" WAVE TRACK 07 AUDIO TITLE "Five Bottles Of Shampoo" PERFORMER "The King Blues" INDEX 01 00:00:00FILE "08 - Sex Education.wav" WAVE TRACK 08 AUDIO TITLE "Sex Education" PERFORMER "The King Blues" INDEX 01 00:00:00FILE "09 - Shooting Fascists.wav" WAVE TRACK 09 AUDIO TITLE "Shooting Fascists" PERFORMER "The King Blues" INDEX 01 00:00:00FILE "10 - Headbutt.wav" WAVE TRACK 10 AUDIO TITLE "Headbutt" PERFORMER "The King Blues" INDEX 01 00:00:00FILE "11 - Does Anybody Care About Us.wav" WAVE TRACK 11 AUDIO TITLE "Does Anybody Care About Us?" PERFORMER "The King Blues" INDEX 01 00:00:00FILE "12 - Everything Happens For A Reason.wav" WAVE TRACK 12 AUDIO TITLE "Everything Happens For A Reason" PERFORMER "The King Blues" INDEX 01 00:00:00
Доп. информация: Лично меня творчество этой банды порвало наглухо. Уже второй день хожу с сорванной от их крутости крышей. Я бы назвал их лучшей панк-группой из всех, что мне доводилось слышать, если бы они играли панк. Они творят с этим жанром что хотят, отчего он трещит по швам, вмещая в себя кучу ништяков: реггей, ска, фолк - и всё это приправлено щепотками хардкора и рэпкора.
Jonny 'Itch' Fox: Vocals, Ukulele, Melodica
Jamie Jazz: Guitar, Vocals
Dean Ashton: Guitar, Backing Vocals
Kat Marsh - Bass, Backing Vocals
Josie Dobson - Keys, Backing Vocals
Jack Usher: Drums


Трекер:  [ 03-Фев-2012 01:13 ]

  

Скачать .torrent

Размер .torrent файла 20 KB


Размер: 785 MB
Хэш (hash) релиза: 6c87d6884e4a9756ce31aa9a6c89cfd752c36653

Еще никто не оставлял запись к записи скачать торрент The King Blues - Студийные Альбомы - 2008-2011, FLAC . Будь первым!

!Обратная связь