Permalink | Robocop Prime Directives | AIMP 4.51 build 2080 Final (2017) PC | + RePack Portable by D!akov

Скачать через торрент музыку Madness. Live at the Astoria, 3.12.07 бесплатно без регистрации torrent

Статистика раздачи
Размер:  618 MB   |    Зарегистрирован:  6 лет 5 месяцев   |    .torrent скачан:  33 раза   |   
Раздают:  1  
   
загрузка...
 
Автор Сообщение

Galfimbul

avatar Galfimbul


Madness. Live at the Astoria, 3.12.07 (2CD Strictly Limited Edition)

Жанр: Ska Revival
Страна-производитель диска: United Kindom
Год издания диска: 2008
Издатель (лейбл): Lucky Seven Records
Страна: United Kindom
Аудиокодек: FLAC (*.flac)
Тип рипа: tracks+.cue
Битрейт аудио: lossless
Продолжительность: 01:35:48
Источник (релизер): CD
Наличие сканов в содержимом раздачи: да
Треклист:
01. One Step Beyond
02. Embarrassment
03. The Prince
04. Nw5
05. My Girl
06. Tomorrow's Just Another Day
07. Bingo
08. The Sun and The Rain
09. Return Of The Los Palmas 7
10. Let's Go
11. Shut Up
12. Iron Shirt
13. Bed and Breakfast Man
14. Sugar and Spice

Total time: 00:49:46
 
Exact Audio Copy V0.99 prebeta 5 from 4. May 2009

Отчёт EAC об извлечении, выполненном 16. октября 2011, 18:25

Madness / Live at the London Astoria 2007 - CD 1

Дисковод: Optiarc DVD RW AD-5240S Adapter: 3 ID: 1

Режим чтения : ДостоверностьИспользование точного потока : ДаОтключение кэша аудио : ДаИспользование указателей C2 : Нет

Коррекция смещения при чтении : 48Способность читать области Lead-in и Lead-out : НетЗаполнение пропущенных сэмплов тишиной : ДаУдаление блоков с тишиной в начале и конце : НетПри вычислениях CRC использовались нулевые сэмплы : ДаИнтерфейс : Встроенный Win32-интерфейс для Win NT/2000Обработка зазоров : Добавлено к предыдущему треку

Выходной формат : Пользовательский кодировщикВыбранный битрейт : 768 kBit/sКачество : ВысокийДобавление ID3-тэга : НетУтилита сжатия : L:\программы\Exact Audio Copy\FLAC\FLAC.EXEДополнительные параметры : -6 -V -T "ARTIST=%a" -T "TITLE=%t" -T "ALBUM=%g" -T "DATE=%y" -T "TRACKNUMBER=%n" -T "GENRE=%m" -T "COMMENT=%e" %s -o %d

TOC извлечённого CD

Трек | Старт | Длительность | Начальный сектор | Конечный сектор --------------------------------------------------------------------- 1 | 0:00.00 | 4:20.50 | 0 | 19549 2 | 4:20.50 | 3:12.57 | 19550 | 34006 3 | 7:33.32 | 3:11.12 | 34007 | 48343 4 | 10:44.44 | 3:49.66 | 48344 | 65584 5 | 14:34.35 | 2:43.67 | 65585 | 77876 6 | 17:18.27 | 3:21.62 | 77877 | 93013 7 | 20:40.14 | 4:15.09 | 93014 | 112147 8 | 24:55.23 | 4:19.16 | 112148 | 131588 9 | 29:14.39 | 3:48.20 | 131589 | 148708 10 | 33:02.59 | 3:27.11 | 148709 | 164244 11 | 36:29.70 | 3:46.06 | 164245 | 181200 12 | 40:16.01 | 3:56.46 | 181201 | 198946 13 | 44:12.47 | 2:40.29 | 198947 | 210975 14 | 46:53.01 | 2:49.50 | 210976 | 223700

Трек 1

Имя файла L:\Новая папка\01. Madness - One Step Beyond.wav

Длина предзазора 0:00:02.00

Пиковый уровень 97.3 % Качество трека 99.9 % CRC теста 350EFAFD CRC копии 350EFAFD Точность не определена (достоверность 1) [F8F45A8F], AccurateRip вернул [26BE2168] Копирование... OK

Трек 2

Имя файла L:\Новая папка\02. Madness - Embarrassment.wav

Пиковый уровень 96.9 % Качество трека 100.0 % CRC теста 4B71EF80 CRC копии 4B71EF80 Точность не определена (достоверность 1) [6A96D0A4], AccurateRip вернул [ACD11AEB] Копирование... OK

Трек 3

Имя файла L:\Новая папка\03. Madness - The Prince.wav

Пиковый уровень 96.9 % Качество трека 100.0 % CRC теста 049ADCEC CRC копии 049ADCEC Точность не определена (достоверность 1) [257C0D62], AccurateRip вернул [05A4645C] Копирование... OK

Трек 4

Имя файла L:\Новая папка\04. Madness - Nw5.wav

Пиковый уровень 96.9 % Качество трека 100.0 % CRC теста 2CE127CF CRC копии 2CE127CF Точность не определена (достоверность 1) [A468838C], AccurateRip вернул [660EF6CC] Копирование... OK

Трек 5

Имя файла L:\Новая папка\05. Madness - My Girl.wav

Пиковый уровень 96.9 % Качество трека 100.0 % CRC теста 4F8ECE14 CRC копии 4F8ECE14 Точность не определена (достоверность 1) [0C75B1E5], AccurateRip вернул [3FD42586] Копирование... OK

Трек 6

Имя файла L:\Новая папка\06. Madness - Tomorrow's Just Another Day.wav

Пиковый уровень 97.4 % Качество трека 100.0 % CRC теста 281C7F17 CRC копии 281C7F17 Точность не определена (достоверность 1) [9B7E57AC], AccurateRip вернул [9EE6367E] Копирование... OK

Трек 7

Имя файла L:\Новая папка\07. Madness - Bingo.wav

Пиковый уровень 97.8 % Качество трека 100.0 % CRC теста 28776702 CRC копии 28776702 Точность не определена (достоверность 1) [A9CFC69E], AccurateRip вернул [96370539] Копирование... OK

Трек 8

Имя файла L:\Новая папка\08. Madness - The Sun and The Rain.wav

Пиковый уровень 98.6 % Качество трека 100.0 % CRC теста ECD7C251 CRC копии ECD7C251 Точность не определена (достоверность 1) [41FCFF5A], AccurateRip вернул [6621CE97] Копирование... OK

Трек 9

Имя файла L:\Новая папка\09. Madness - Return Of The Los Palmas 7.wav

Пиковый уровень 99.9 % Качество трека 100.0 % CRC теста B7D72729 CRC копии B7D72729 Точность не определена (достоверность 1) [8818B75B], AccurateRip вернул [44FFB5C4] Копирование... OK

Трек 10

Имя файла L:\Новая папка\10. Madness - Let's Go.wav

Пиковый уровень 98.6 % Качество трека 100.0 % CRC теста 38D6CE54 CRC копии 38D6CE54 Точность не определена (достоверность 1) [9D3B8696], AccurateRip вернул [E72C919C] Копирование... OK

Трек 11

Имя файла L:\Новая папка\11. Madness - Shut Up.wav

Пиковый уровень 99.8 % Качество трека 100.0 % CRC теста B74B5FA1 CRC копии B74B5FA1 Точность не определена (достоверность 1) [183FB33A], AccurateRip вернул [B25A35E6] Копирование... OK

Трек 12

Имя файла L:\Новая папка\12. Madness - Iron Shirt.wav

Пиковый уровень 97.9 % Качество трека 100.0 % CRC теста 8B5136AD CRC копии 8B5136AD Точность не определена (достоверность 1) [E5062521], AccurateRip вернул [54882526] Копирование... OK

Трек 13

Имя файла L:\Новая папка\13. Madness - Bed and Breakfast Man.wav

Пиковый уровень 97.6 % Качество трека 99.9 % CRC теста 85A0C9DE CRC копии 85A0C9DE Точность не определена (достоверность 1) [CCD83BC5], AccurateRip вернул [C74980CB] Копирование... OK

Трек 14

Имя файла L:\Новая папка\14. Madness - Sugar and Spice.wav

Пиковый уровень 97.9 % Качество трека 99.9 % CRC теста A6099289 CRC копии A6099289 Точность не определена (достоверность 1) [A7565821], AccurateRip вернул [3A542F1E] Копирование... OK

Ни один трек не прошёл проверки на точностьВ вашей базе может быть иной вариант штамповки диска

Ошибок не произошло

Конец отчёта
 
REM DISCID C80BA60EREM COMMENT "ExactAudioCopy v0.99pb5"PERFORMER "Madness"TITLE "Live at the London Astoria 2007 - CD 1"FILE "01. Madness - One Step Beyond.wav" WAVE TRACK 01 AUDIO TITLE "One Step Beyond" PERFORMER "Madness" FLAGS DCP INDEX 01 00:00:00FILE "02. Madness - Embarrassment.wav" WAVE TRACK 02 AUDIO TITLE "Embarrassment" PERFORMER "Madness" FLAGS DCP INDEX 01 00:00:00FILE "03. Madness - The Prince.wav" WAVE TRACK 03 AUDIO TITLE "The Prince" PERFORMER "Madness" FLAGS DCP INDEX 01 00:00:00FILE "04. Madness - Nw5.wav" WAVE TRACK 04 AUDIO TITLE "Nw5" PERFORMER "Madness" FLAGS DCP INDEX 01 00:00:00FILE "05. Madness - My Girl.wav" WAVE TRACK 05 AUDIO TITLE "My Girl" PERFORMER "Madness" FLAGS DCP INDEX 01 00:00:00FILE "06. Madness - Tomorrow's Just Another Day.wav" WAVE TRACK 06 AUDIO TITLE "Tomorrow's Just Another Day" PERFORMER "Madness" FLAGS DCP INDEX 01 00:00:00FILE "07. Madness - Bingo.wav" WAVE TRACK 07 AUDIO TITLE "Bingo" PERFORMER "Madness" FLAGS DCP INDEX 01 00:00:00FILE "08. Madness - The Sun and The Rain.wav" WAVE TRACK 08 AUDIO TITLE "The Sun and The Rain" PERFORMER "Madness" FLAGS DCP INDEX 01 00:00:00FILE "09. Madness - Return Of The Los Palmas 7.wav" WAVE TRACK 09 AUDIO TITLE "Return Of The Los Palmas 7" PERFORMER "Madness" FLAGS DCP INDEX 01 00:00:00FILE "10. Madness - Let's Go.wav" WAVE TRACK 10 AUDIO TITLE "Let's Go" PERFORMER "Madness" FLAGS DCP INDEX 01 00:00:00FILE "11. Madness - Shut Up.wav" WAVE TRACK 11 AUDIO TITLE "Shut Up" PERFORMER "Madness" FLAGS DCP INDEX 01 00:00:00FILE "12. Madness - Iron Shirt.wav" WAVE TRACK 12 AUDIO TITLE "Iron Shirt" PERFORMER "Madness" FLAGS DCP INDEX 01 00:00:00FILE "13. Madness - Bed and Breakfast Man.wav" WAVE TRACK 13 AUDIO TITLE "Bed and Breakfast Man" PERFORMER "Madness" FLAGS DCP INDEX 01 00:00:00FILE "14. Madness - Sugar and Spice.wav" WAVE TRACK 14 AUDIO TITLE "Sugar and Spice" PERFORMER "Madness" FLAGS DCP INDEX 01 00:00:00
01. Grey Day
02. Lovestruck
03. Forever Young
04. House Of Fun
05. Wings of a Dove
06. Baggy Trousers
07. Our House
08. It Must Be Love
09. Madness (feat. Prince Buster)
10. Night Boat To Cairo
11. Pigbag

Total time: 00:46:02
 
Exact Audio Copy V0.99 prebeta 5 from 4. May 2009

Отчёт EAC об извлечении, выполненном 16. октября 2011, 19:04

Madness / Live at the London Astoria 2007 - CD 2

Дисковод: Optiarc DVD RW AD-5240S Adapter: 3 ID: 1

Режим чтения : ДостоверностьИспользование точного потока : ДаОтключение кэша аудио : ДаИспользование указателей C2 : Нет

Коррекция смещения при чтении : 48Способность читать области Lead-in и Lead-out : НетЗаполнение пропущенных сэмплов тишиной : ДаУдаление блоков с тишиной в начале и конце : НетПри вычислениях CRC использовались нулевые сэмплы : ДаИнтерфейс : Встроенный Win32-интерфейс для Win NT/2000Обработка зазоров : Добавлено к предыдущему треку

Выходной формат : Пользовательский кодировщикВыбранный битрейт : 768 kBit/sКачество : ВысокийДобавление ID3-тэга : НетУтилита сжатия : L:\программы\Exact Audio Copy\FLAC\FLAC.EXEДополнительные параметры : -6 -V -T "ARTIST=%a" -T "TITLE=%t" -T "ALBUM=%g" -T "DATE=%y" -T "TRACKNUMBER=%n" -T "GENRE=%m" -T "COMMENT=%e" %s -o %d

TOC извлечённого CD

Трек | Старт | Длительность | Начальный сектор | Конечный сектор --------------------------------------------------------------------- 1 | 0:00.00 | 4:46.18 | 0 | 21467 2 | 4:46.18 | 4:14.02 | 21468 | 40519 3 | 9:00.20 | 3:51.56 | 40520 | 57900 4 | 12:52.01 | 3:08.27 | 57901 | 72027 5 | 16:00.28 | 3:46.45 | 72028 | 89022 6 | 19:46.73 | 2:38.11 | 89023 | 100883 7 | 22:25.09 | 3:56.36 | 100884 | 118619 8 | 26:21.45 | 5:27.31 | 118620 | 143175 9 | 31:49.01 | 3:01.08 | 143176 | 156758 10 | 34:50.09 | 7:18.53 | 156759 | 189661 11 | 42:08.62 | 3:49.46 | 189662 | 206882

Трек 1

Имя файла L:\Новая папка\01. Madness - Grey Day.wav

Длина предзазора 0:00:02.00

Пиковый уровень 100.0 % Качество трека 99.9 % CRC теста 3177EABA CRC копии 3177EABA Точность не определена (достоверность 1) [05425A60], AccurateRip вернул [A8CCCA4D] Копирование... OK

Трек 2

Имя файла L:\Новая папка\02. Madness - Lovestruck.wav

Пиковый уровень 100.0 % Качество трека 99.9 % CRC теста 48E768CE CRC копии 48E768CE Точность не определена (достоверность 1) [04201B38], AccurateRip вернул [200DD504] Копирование... OK

Трек 3

Имя файла L:\Новая папка\03. Madness - Forever Young.wav

Пиковый уровень 97.6 % Качество трека 99.9 % CRC теста 7EC537E9 CRC копии 7EC537E9 Точность не определена (достоверность 1) [F861C299], AccurateRip вернул [E5359738] Копирование... OK

Трек 4

Имя файла L:\Новая папка\04. Madness - House Of Fun.wav

Пиковый уровень 97.4 % Качество трека 100.0 % CRC теста 5C279161 CRC копии 5C279161 Точность не определена (достоверность 1) [EC4F5A8D], AccurateRip вернул [ADB42E52] Копирование... OK

Трек 5

Имя файла L:\Новая папка\05. Madness - Wings of a Dove.wav

Пиковый уровень 97.5 % Качество трека 100.0 % CRC теста 440121EC CRC копии 440121EC Точность не определена (достоверность 1) [895B21C7], AccurateRip вернул [873C8E91] Копирование... OK

Трек 6

Имя файла L:\Новая папка\06. Madness - Baggy Trousers.wav

Пиковый уровень 97.4 % Качество трека 100.0 % CRC теста CEF6B31F CRC копии CEF6B31F Точность не определена (достоверность 1) [3C284BC9], AccurateRip вернул [B3E2255F] Копирование... OK

Трек 7

Имя файла L:\Новая папка\07. Madness - Our House.wav

Пиковый уровень 97.2 % Качество трека 100.0 % CRC теста 3EC7DAB8 CRC копии 3EC7DAB8 Точность не определена (достоверность 1) [A61C2690], AccurateRip вернул [9FEE3C61] Копирование... OK

Трек 8

Имя файла L:\Новая папка\08. Madness - It Must Be Love.wav

Пиковый уровень 97.5 % Качество трека 99.9 % CRC теста D668610F CRC копии D668610F Точность не определена (достоверность 1) [80D4D541], AccurateRip вернул [63C0F497] Копирование... OK

Трек 9

Имя файла L:\Новая папка\09. Madness - Madness (feat. Prince Buster).wav

Пиковый уровень 100.0 % Качество трека 100.0 % CRC теста EF18DDA9 CRC копии EF18DDA9 Точность не определена (достоверность 1) [02612A09], AccurateRip вернул [FBA1E46B] Копирование... OK

Трек 10

Имя файла L:\Новая папка\10. Madness - Night Boat To Cairo.wav

Пиковый уровень 100.0 % Качество трека 100.0 % CRC теста 5F227B3C CRC копии 5F227B3C Точность не определена (достоверность 1) [AC870865], AccurateRip вернул [D3766FE2] Копирование... OK

Трек 11

Имя файла L:\Новая папка\11. Madness - Pigbag.wav

Пиковый уровень 100.0 % Качество трека 100.0 % CRC теста A72A9857 CRC копии A72A9857 Точность не определена (достоверность 1) [1D864A4C], AccurateRip вернул [244833CA] Копирование... OK

Ни один трек не прошёл проверки на точностьВ вашей базе может быть иной вариант штамповки диска

Ошибок не произошло

Конец отчёта
 
REM DISCID 970AC60BREM COMMENT "ExactAudioCopy v0.99pb5"PERFORMER "Madness"TITLE "Live at the London Astoria 2007 - CD 2"FILE "01. Madness - Grey Day.wav" WAVE TRACK 01 AUDIO TITLE "Grey Day" PERFORMER "Madness" FLAGS DCP INDEX 01 00:00:00FILE "02. Madness - Lovestruck.wav" WAVE TRACK 02 AUDIO TITLE "Lovestruck" PERFORMER "Madness" FLAGS DCP INDEX 01 00:00:00FILE "03. Madness - Forever Young.wav" WAVE TRACK 03 AUDIO TITLE "Forever Young" PERFORMER "Madness" FLAGS DCP INDEX 01 00:00:00FILE "04. Madness - House Of Fun.wav" WAVE TRACK 04 AUDIO TITLE "House Of Fun" PERFORMER "Madness" FLAGS DCP INDEX 01 00:00:00FILE "05. Madness - Wings of a Dove.wav" WAVE TRACK 05 AUDIO TITLE "Wings of a Dove" PERFORMER "Madness" FLAGS DCP INDEX 01 00:00:00FILE "06. Madness - Baggy Trousers.wav" WAVE TRACK 06 AUDIO TITLE "Baggy Trousers" PERFORMER "Madness" FLAGS DCP INDEX 01 00:00:00FILE "07. Madness - Our House.wav" WAVE TRACK 07 AUDIO TITLE "Our House" PERFORMER "Madness" FLAGS DCP INDEX 01 00:00:00FILE "08. Madness - It Must Be Love.wav" WAVE TRACK 08 AUDIO TITLE "It Must Be Love" PERFORMER "Madness" FLAGS DCP INDEX 01 00:00:00FILE "09. Madness - Madness (feat. Prince Buster).wav" WAVE TRACK 09 AUDIO TITLE "Madness (feat. Prince Buster)" PERFORMER "Madness" FLAGS DCP INDEX 01 00:00:00FILE "10. Madness - Night Boat To Cairo.wav" WAVE TRACK 10 AUDIO TITLE "Night Boat To Cairo" PERFORMER "Madness" FLAGS DCP INDEX 01 00:00:00FILE "11. Madness - Pigbag.wav" WAVE TRACK 11 AUDIO TITLE "Pigbag" PERFORMER "Madness" FLAGS DCP INDEX 01 00:00:00
Limited edition to 1500 copies.
Mixed By – Andrew Tulloch
Producer – Concert Live
Recorded By – Andrew Tulloch


Трекер:  [ 03-Фев-2012 01:12 ]

  

Скачать .torrent

Размер .torrent файла 31 KB


Размер: 618 MB
Хэш (hash) релиза: a59cca15a4f9edd692ab779bac8255be7a738099

Еще никто не оставлял запись к записи скачать торрент Madness. Live at the Astoria, 3.12.07 . Будь первым!

!Обратная связь