Halo Wars 2: Complete Edition [RePack] [RUS + ENG + 11 / ENG] (2017, UWP) (build-653398) | Hey! Febrero...Vol.2: El Crapajaro Loco !!! | Watch Movie 1080HD

Скачать через торрент музыку 10 Ft. Ganja Plant {Ten Foot} - Дискография бесплатно без регистрации torrent

Статистика раздачи
Размер:  1.79 GB   |    Зарегистрирован:  6 лет 7 месяцев   |    .torrent скачан:  47 раз   |   
Раздают:  1  
   
загрузка...
 
Автор Сообщение

Galfimbul

avatar Galfimbul


10 Ft. Ganja Plant / Дискография
Жанр: Dub, Reggae, Roots
Страна: United States
Годы изданий: 2001-2011
Аудиокодек: FLAC (*.flac)
Тип рипа: tracks+.cue
Битрейт аудио: lossless
Продолжительность: 05:48:44
Источник (релизер): What.CD
Наличие сканов в содержимом раздачи: нет
Дискография:

Студийные альбомы:

Страна-производитель диска: US
Год издания диска: 2001
Издатель (лейбл): ROIR
Номер по каталогу: RUSCD 8270
Продолжительность: 52:52
Источник (релизер): What.CD (outdubbed)
Треклист:
<ul type="1">
Long Time Ago (5:12)
Pure Sugar (6:35)
Jah Will Go On (3:46)
Time I Know (5:02)
Soul Love (4:41)
Two Bulls (3:12)
Walkey Walk Tall (4:08)
Hillside Airstrip (3:42)
Born Free (4:10)
New Day (12:24)
</ul>
Доп. ссылки: Amazon, MusicBrainz, Discogs
 
Exact Audio Copy V0.99 prebeta 3 from 28. July 2007

EAC extraction logfile from 28. April 2008, 22:02

10 Ft. Ganja Plant / Hillside Airstrip

Used drive : TSSTcorpCD/DVDW TS-H653L Adapter: 0 ID: 1

Read mode : SecureUtilize accurate stream : YesDefeat audio cache : YesMake use of C2 pointers : No

Read offset correction : 6Overread into Lead-In and Lead-Out : NoFill up missing offset samples with silence : YesDelete leading and trailing silent blocks : NoNull samples used in CRC calculations : YesUsed interface : Native Win32 interface for Win NT & 2000Gap handling : Appended to previous track

Used output format : User Defined EncoderSelected bitrate : 768 kBit/sQuality : HighAdd ID3 tag : YesCommand line compressor : C:\Program Files\Exact Audio Copy\Flac\flac.exeAdditional command line options : -8 -A tukey(0.25) -A gauss(0.1875) -b 4096 -V -T "artist=%a" -T "title=%t" -T "album=%g" -T "date=%y" -T "tracknumber=%n" -T "genre=%m" %s --sector-align

TOC of the extracted CD

Track | Start | Length | Start sector | End sector --------------------------------------------------------- 1 | 0:00.00 | 5:11.59 | 0 | 23383 2 | 5:11.59 | 6:34.65 | 23384 | 52998 3 | 11:46.49 | 3:45.54 | 52999 | 69927 4 | 15:32.28 | 5:01.17 | 69928 | 92519 5 | 20:33.45 | 4:41.06 | 92520 | 113600 6 | 25:14.51 | 3:12.18 | 113601 | 128018 7 | 28:26.69 | 4:07.56 | 128019 | 146599 8 | 32:34.50 | 3:41.32 | 146600 | 163206 9 | 36:16.07 | 4:10.01 | 163207 | 181957 10 | 40:26.08 | 12:23.51 | 181958 | 237733

Track 1

Filename C:\Users\Derek\Music\WHAT.CD\10 Ft. Ganja Plant- Hillside Airstrip (FLAC)\01.Long Time Ago.wav

Pre-gap length 0:00:02.00

Peak level 100.0 % Track quality 99.9 % Test CRC A2955480 Copy CRC A2955480 Accurately ripped (confidence 2) [49595C00] Copy OK

Track 2

Filename C:\Users\Derek\Music\WHAT.CD\10 Ft. Ganja Plant- Hillside Airstrip (FLAC)\02.Pure Sugar.wav

Peak level 98.9 % Track quality 100.0 % Test CRC 89C7C717 Copy CRC 89C7C717 Accurately ripped (confidence 2) [F449B9F2] Copy OK

Track 3

Filename C:\Users\Derek\Music\WHAT.CD\10 Ft. Ganja Plant- Hillside Airstrip (FLAC)\03.Jah Will Go On.wav

Peak level 100.0 % Track quality 100.0 % Test CRC 46B1F0FA Copy CRC 46B1F0FA Accurately ripped (confidence 2) [05656294] Copy OK

Track 4

Filename C:\Users\Derek\Music\WHAT.CD\10 Ft. Ganja Plant- Hillside Airstrip (FLAC)\04.Time I know.wav

Peak level 98.9 % Track quality 100.0 % Test CRC 7E886ACA Copy CRC 7E886ACA Accurately ripped (confidence 2) [6A3D8FD9] Copy OK

Track 5

Filename C:\Users\Derek\Music\WHAT.CD\10 Ft. Ganja Plant- Hillside Airstrip (FLAC)\05.Soul Love.wav

Peak level 99.3 % Track quality 100.0 % Test CRC ACA33870 Copy CRC ACA33870 Accurately ripped (confidence 2) [9D4F2CB2] Copy OK

Track 6

Filename C:\Users\Derek\Music\WHAT.CD\10 Ft. Ganja Plant- Hillside Airstrip (FLAC)\06.Two Bulls.wav

Peak level 99.3 % Track quality 99.9 % Test CRC 2AED5337 Copy CRC 2AED5337 Accurately ripped (confidence 2) [C2C0D660] Copy OK

Track 7

Filename C:\Users\Derek\Music\WHAT.CD\10 Ft. Ganja Plant- Hillside Airstrip (FLAC)\07.Walkey Walk Tall.wav

Peak level 96.5 % Track quality 100.0 % Test CRC D61DD7DE Copy CRC D61DD7DE Accurately ripped (confidence 2) [0524AD9F] Copy OK

Track 8

Filename C:\Users\Derek\Music\WHAT.CD\10 Ft. Ganja Plant- Hillside Airstrip (FLAC)\08.Hillside Airstrip.wav

Peak level 99.2 % Track quality 100.0 % Test CRC 69636A1B Copy CRC 69636A1B Accurately ripped (confidence 2) [61FC5A10] Copy OK

Track 9

Filename C:\Users\Derek\Music\WHAT.CD\10 Ft. Ganja Plant- Hillside Airstrip (FLAC)\09.Born Free.wav

Peak level 98.7 % Track quality 100.0 % Test CRC 96C1CCEF Copy CRC 96C1CCEF Accurately ripped (confidence 2) [026FCE4F] Copy OK

Track 10

Filename C:\Users\Derek\Music\WHAT.CD\10 Ft. Ganja Plant- Hillside Airstrip (FLAC)\10.New Day.wav

Peak level 99.4 % Track quality 100.0 % Test CRC 627CAC11 Copy CRC 627CAC11 Accurately ripped (confidence 2) [24D59977] Copy OK

All tracks accurately ripped

No errors occurred

End of status report
 
REM GENRE ReggaeREM DATE 2001REM DISCID 870C610AREM COMMENT "ExactAudioCopy v0.99pb3"PERFORMER "10 Ft. Ganja Plant"TITLE "Hillside Airstrip"FILE "01.Long Time Ago.wav" WAVE TRACK 01 AUDIO TITLE "Long Time Ago" PERFORMER "10 Ft. Ganja Plant" INDEX 01 00:00:00FILE "02.Pure Sugar.wav" WAVE TRACK 02 AUDIO TITLE "Pure Sugar" PERFORMER "10 Ft. Ganja Plant" INDEX 01 00:00:00FILE "03.Jah Will Go On.wav" WAVE TRACK 03 AUDIO TITLE "Jah Will Go On" PERFORMER "10 Ft. Ganja Plant" INDEX 01 00:00:00FILE "04.Time I know.wav" WAVE TRACK 04 AUDIO TITLE "Time I know" PERFORMER "10 Ft. Ganja Plant" INDEX 01 00:00:00FILE "05.Soul Love.wav" WAVE TRACK 05 AUDIO TITLE "Soul Love" PERFORMER "10 Ft. Ganja Plant" INDEX 01 00:00:00FILE "06.Two Bulls.wav" WAVE TRACK 06 AUDIO TITLE "Two Bulls" PERFORMER "10 Ft. Ganja Plant" INDEX 01 00:00:00FILE "07.Walkey Walk Tall.wav" WAVE TRACK 07 AUDIO TITLE "Walkey Walk Tall" PERFORMER "10 Ft. Ganja Plant" INDEX 01 00:00:00FILE "08.Hillside Airstrip.wav" WAVE TRACK 08 AUDIO TITLE "Hillside Airstrip" PERFORMER "10 Ft. Ganja Plant" INDEX 01 00:00:00FILE "09.Born Free.wav" WAVE TRACK 09 AUDIO TITLE "Born Free" PERFORMER "10 Ft. Ganja Plant" INDEX 01 00:00:00FILE "10.New Day.wav" WAVE TRACK 10 AUDIO TITLE "New Day" PERFORMER "10 Ft. Ganja Plant" INDEX 01 00:00:00

Страна-производитель диска: US
Год издания диска: 2003
Издатель (лейбл): ROIR
Номер по каталогу: RUSCD 8282
Продолжительность: 40:51
Источник (релизер): What.CD (menmabassguitar)
Треклист:
<ul type="1">
100 Lb. Weight (3:25)
Ganja Plane Rider (4:06)
Kneel at the Feet (4:47)
Let the Music Hit (2:59)
Shine Dub (3:32)
Midnight Landing (3:50)
Chanting Nyabinghi (3:55)
Mercy (3:32)
Wide Open (2:57)
Sweet Country (2:56)
Righteous Dub (4:52)
</ul>
Доп. ссылки: Amazon, MusicBrainz, Discogs
 
X Lossless Decoder version 20110924 (136.3)

XLD extraction logfile from 2011-09-30 12:57:52 -0600

10 Ft. Ganja Plant & John Brown's Body / Midnight Landing

Used drive : MATSHITA DVD-R UJ-846 (revision FB2U)

Ripper mode : XLD Secure RipperDisable audio cache : OK for the drive with a cache less than 1375KiBMake use of C2 pointers : NORead offset correction : 102Max retry count : 20Gap status : Analyzed, Appended (except HTOA)

TOC of the extracted CD Track | Start | Length | Start sector | End sector --------------------------------------------------------- 1 | 00:00:00 | 03:25:00 | 0 | 15374 2 | 03:25:00 | 04:05:43 | 15375 | 33792 3 | 07:30:43 | 04:47:10 | 33793 | 55327 4 | 12:17:53 | 02:58:36 | 55328 | 68713 5 | 15:16:14 | 03:31:45 | 68714 | 84583 6 | 18:47:59 | 03:49:37 | 84584 | 101795 7 | 22:37:21 | 03:55:13 | 101796 | 119433 8 | 26:32:34 | 03:31:69 | 119434 | 135327 9 | 30:04:28 | 02:56:29 | 135328 | 148556 10 | 33:00:57 | 02:56:22 | 148557 | 161778 11 | 35:57:04 | 04:52:10 | 161779 | 183688

AccurateRip Summary Track 01 : OK (confidence 1) Track 02 : OK (confidence 1) Track 03 : OK (confidence 1) Track 04 : OK (confidence 1) Track 05 : OK (confidence 1) Track 06 : OK (confidence 1) Track 07 : OK (confidence 1) Track 08 : OK (confidence 1) Track 09 : OK (confidence 1) Track 10 : OK (confidence 1) Track 11 : OK (confidence 1) ->All tracks accurately ripped.

All Tracks Album gain : -7.48 dB Peak : 1.000000 Statistics Read error : 0 Jitter error (maybe fixed) : 0 Retry sector count : 0 Damaged sector count : 0

Track 01 Filename : /Volumes/bob/XLD ripps /10 Ft. Ganja Plant & John Brown's Body - Midnight Landing (2003) FLAC/01 100 LB. Weight .flac Pre-gap length : 00:02:00

Track gain : -5.99 dB Peak : 0.969208 CRC32 hash (test run) : 98D4DE6B CRC32 hash : 98D4DE6B CRC32 hash (skip zero) : 6199DADC AccurateRip signature : 0BB76C68 ->Accurately ripped! (confidence 1) Statistics Read error : 0 Jitter error (maybe fixed) : 0 Retry sector count : 0 Damaged sector count : 0

Track 02 Filename : /Volumes/bob/XLD ripps /10 Ft. Ganja Plant & John Brown's Body - Midnight Landing (2003) FLAC/02 Ganja Plane Rider .flac

Track gain : -6.33 dB Peak : 0.943695 CRC32 hash (test run) : 41DF76A3 CRC32 hash : 41DF76A3 CRC32 hash (skip zero) : 95481627 AccurateRip signature : CF9FD8D3 ->Accurately ripped! (confidence 1) Statistics Read error : 0 Jitter error (maybe fixed) : 0 Retry sector count : 0 Damaged sector count : 0

Track 03 Filename : /Volumes/bob/XLD ripps /10 Ft. Ganja Plant & John Brown's Body - Midnight Landing (2003) FLAC/03 Kneel At The Feet .flac Pre-gap length : 00:01:45

Track gain : -7.70 dB Peak : 0.981049 CRC32 hash (test run) : BB437FB9 CRC32 hash : BB437FB9 CRC32 hash (skip zero) : 07E9815C AccurateRip signature : E7493F89 ->Accurately ripped! (confidence 1) Statistics Read error : 0 Jitter error (maybe fixed) : 0 Retry sector count : 0 Damaged sector count : 0

Track 04 Filename : /Volumes/bob/XLD ripps /10 Ft. Ganja Plant & John Brown's Body - Midnight Landing (2003) FLAC/04 Let The Music Hit .flac

Track gain : -9.38 dB Peak : 0.976654 CRC32 hash (test run) : 07C8F13C CRC32 hash : 07C8F13C CRC32 hash (skip zero) : 7CCDFEC8 AccurateRip signature : D01D88EE ->Accurately ripped! (confidence 1) Statistics Read error : 0 Jitter error (maybe fixed) : 0 Retry sector count : 0 Damaged sector count : 0

Track 05 Filename : /Volumes/bob/XLD ripps /10 Ft. Ganja Plant & John Brown's Body - Midnight Landing (2003) FLAC/05 Shine Dub .flac

Track gain : -6.93 dB Peak : 0.962311 CRC32 hash (test run) : C3B1F014 CRC32 hash : C3B1F014 CRC32 hash (skip zero) : CDE6454C AccurateRip signature : C505E2C2 ->Accurately ripped! (confidence 1) Statistics Read error : 0 Jitter error (maybe fixed) : 0 Retry sector count : 0 Damaged sector count : 0

Track 06 Filename : /Volumes/bob/XLD ripps /10 Ft. Ganja Plant & John Brown's Body - Midnight Landing (2003) FLAC/06 Midnight Landing .flac

Track gain : -7.19 dB Peak : 0.966858 CRC32 hash (test run) : C409E245 CRC32 hash : C409E245 CRC32 hash (skip zero) : D7892232 AccurateRip signature : C80B1698 ->Accurately ripped! (confidence 1) Statistics Read error : 0 Jitter error (maybe fixed) : 0 Retry sector count : 0 Damaged sector count : 0

Track 07 Filename : /Volumes/bob/XLD ripps /10 Ft. Ganja Plant & John Brown's Body - Midnight Landing (2003) FLAC/07 Chanting Nyabinghi .flac Pre-gap length : 00:00:45

Track gain : -6.41 dB Peak : 0.959290 CRC32 hash (test run) : 3410E5BE CRC32 hash : 3410E5BE CRC32 hash (skip zero) : 8A18B837 AccurateRip signature : 262740A0 ->Accurately ripped! (confidence 1) Statistics Read error : 0 Jitter error (maybe fixed) : 0 Retry sector count : 0 Damaged sector count : 0

Track 08 Filename : /Volumes/bob/XLD ripps /10 Ft. Ganja Plant & John Brown's Body - Midnight Landing (2003) FLAC/08 Mercy .flac

Track gain : -7.88 dB Peak : 0.972015 CRC32 hash (test run) : 70330DB0 CRC32 hash : 70330DB0 CRC32 hash (skip zero) : FFFE89FD AccurateRip signature : 60E3E731 ->Accurately ripped! (confidence 1) Statistics Read error : 0 Jitter error (maybe fixed) : 0 Retry sector count : 0 Damaged sector count : 0

Track 09 Filename : /Volumes/bob/XLD ripps /10 Ft. Ganja Plant & John Brown's Body - Midnight Landing (2003) FLAC/09 Wide Open .flac Pre-gap length : 00:00:45

Track gain : -6.35 dB Peak : 0.975525 CRC32 hash (test run) : 56B4EA34 CRC32 hash : 56B4EA34 CRC32 hash (skip zero) : 38106449 AccurateRip signature : 9A09786A ->Accurately ripped! (confidence 1) Statistics Read error : 0 Jitter error (maybe fixed) : 0 Retry sector count : 0 Damaged sector count : 0

Track 10 Filename : /Volumes/bob/XLD ripps /10 Ft. Ganja Plant & John Brown's Body - Midnight Landing (2003) FLAC/10 Sweet Country .flac

Track gain : -7.82 dB Peak : 1.000000 CRC32 hash (test run) : FD1B7841 CRC32 hash : FD1B7841 CRC32 hash (skip zero) : 19AC6425 AccurateRip signature : 995A0CF8 ->Accurately ripped! (confidence 1) Statistics Read error : 0 Jitter error (maybe fixed) : 0 Retry sector count : 0 Damaged sector count : 0

Track 11 Filename : /Volumes/bob/XLD ripps /10 Ft. Ganja Plant & John Brown's Body - Midnight Landing (2003) FLAC/11 Righteous Dub .flac

Track gain : -7.32 dB Peak : 0.981262 CRC32 hash (test run) : 7F52E059 CRC32 hash : 7F52E059 CRC32 hash (skip zero) : F722E213 AccurateRip signature : F2D14B35 ->Accurately ripped! (confidence 1) Statistics Read error : 0 Jitter error (maybe fixed) : 0 Retry sector count : 0 Damaged sector count : 0

No errors occurred

End of status report
 
TITLE "Midnight Landing"PERFORMER "10 Ft. Ganja Plant & John Brown's Body"REM GENRE "Reggae"REM DATE "2003"REM DISCID A109910BREM REPLAYGAIN_ALBUM_GAIN -7.48 dBREM REPLAYGAIN_ALBUM_PEAK 1.000000FILE "01 100 LB. Weight .flac" WAVE TRACK 01 AUDIO TITLE "100 LB. Weight" REM REPLAYGAIN_TRACK_GAIN -5.99 dB REM REPLAYGAIN_TRACK_PEAK 0.969208 INDEX 01 00:00:00FILE "02 Ganja Plane Rider .flac" WAVE TRACK 02 AUDIO TITLE "Ganja Plane Rider" REM REPLAYGAIN_TRACK_GAIN -6.33 dB REM REPLAYGAIN_TRACK_PEAK 0.943695 INDEX 01 00:00:00 TRACK 03 AUDIO TITLE "Kneel At The Feet" REM REPLAYGAIN_TRACK_GAIN -7.70 dB REM REPLAYGAIN_TRACK_PEAK 0.981049 INDEX 00 04:03:73FILE "03 Kneel At The Feet .flac" WAVE INDEX 01 00:00:00FILE "04 Let The Music Hit .flac" WAVE TRACK 04 AUDIO TITLE "Let The Music Hit" REM REPLAYGAIN_TRACK_GAIN -9.38 dB REM REPLAYGAIN_TRACK_PEAK 0.976654 INDEX 01 00:00:00FILE "05 Shine Dub .flac" WAVE TRACK 05 AUDIO TITLE "Shine Dub" REM REPLAYGAIN_TRACK_GAIN -6.93 dB REM REPLAYGAIN_TRACK_PEAK 0.962311 INDEX 01 00:00:00FILE "06 Midnight Landing .flac" WAVE TRACK 06 AUDIO TITLE "Midnight Landing" REM REPLAYGAIN_TRACK_GAIN -7.19 dB REM REPLAYGAIN_TRACK_PEAK 0.966858 INDEX 01 00:00:00 TRACK 07 AUDIO TITLE "Chanting Nyabinghi" REM REPLAYGAIN_TRACK_GAIN -6.41 dB REM REPLAYGAIN_TRACK_PEAK 0.959290 INDEX 00 03:48:67FILE "07 Chanting Nyabinghi .flac" WAVE INDEX 01 00:00:00FILE "08 Mercy .flac" WAVE TRACK 08 AUDIO TITLE "Mercy" REM REPLAYGAIN_TRACK_GAIN -7.88 dB REM REPLAYGAIN_TRACK_PEAK 0.972015 INDEX 01 00:00:00 TRACK 09 AUDIO TITLE "Wide Open" REM REPLAYGAIN_TRACK_GAIN -6.35 dB REM REPLAYGAIN_TRACK_PEAK 0.975525 INDEX 00 03:31:24FILE "09 Wide Open .flac" WAVE INDEX 01 00:00:00FILE "10 Sweet Country .flac" WAVE TRACK 10 AUDIO TITLE "Sweet Country" REM REPLAYGAIN_TRACK_GAIN -7.82 dB REM REPLAYGAIN_TRACK_PEAK 1.000000 INDEX 01 00:00:00FILE "11 Righteous Dub .flac" WAVE TRACK 11 AUDIO TITLE "Righteous Dub" REM REPLAYGAIN_TRACK_GAIN -7.32 dB REM REPLAYGAIN_TRACK_PEAK 0.981262 INDEX 01 00:00:00

Страна-производитель диска: US
Год издания диска: 2005
Издатель (лейбл): ROIR
Номер по каталогу: RUSCD 8294
Продолжительность: 40:04
Источник (релизер): What.CD (outdubbed)
Треклист:
<ul type="1">
Blood Money (3:57)
Engine Trouble (3:51)
Last Dance (3:36)
Suits and Ski Masks (3:29)
To Teach (4:27)
Burning James (3:12)
Your Voice (4:12)
Swedish Prison (4:06)
Deliver Us Jah (4:42)
Bass Chalice (4:32)
</ul>
Доп. ссылки: Amazon, MusicBrainz, Discogs
 
Exact Audio Copy V0.99 prebeta 3 from 28. July 2007

EAC extraction logfile from 28. April 2008, 21:09

10 Ft. Ganja Plant / Bass Chalice

Used drive : TSSTcorpCD/DVDW TS-H653L Adapter: 0 ID: 1

Read mode : SecureUtilize accurate stream : YesDefeat audio cache : YesMake use of C2 pointers : No

Read offset correction : 6Overread into Lead-In and Lead-Out : NoFill up missing offset samples with silence : YesDelete leading and trailing silent blocks : NoNull samples used in CRC calculations : YesUsed interface : Native Win32 interface for Win NT & 2000Gap handling : Appended to previous track

Used output format : User Defined EncoderSelected bitrate : 768 kBit/sQuality : HighAdd ID3 tag : YesCommand line compressor : C:\Program Files\Exact Audio Copy\Flac\flac.exeAdditional command line options : -8 -A tukey(0.25) -A gauss(0.1875) -b 4096 -V -T "artist=%a" -T "title=%t" -T "album=%g" -T "date=%y" -T "tracknumber=%n" -T "genre=%m" %s --sector-align

TOC of the extracted CD

Track | Start | Length | Start sector | End sector --------------------------------------------------------- 1 | 0:00.00 | 3:56.20 | 0 | 17719 2 | 3:56.20 | 3:50.34 | 17720 | 35003 3 | 7:46.54 | 3:35.61 | 35004 | 51189 4 | 11:22.40 | 3:29.16 | 51190 | 66880 5 | 14:51.56 | 4:26.41 | 66881 | 86871 6 | 19:18.22 | 3:11.47 | 86872 | 101243 7 | 22:29.69 | 4:11.48 | 101244 | 120116 8 | 26:41.42 | 4:05.20 | 120117 | 138511 9 | 30:46.62 | 4:42.11 | 138512 | 159672 10 | 35:28.73 | 4:32.08 | 159673 | 180080

Track 1

Filename C:\Users\Derek\Music\WHAT.CD\10 Ft. Ganja Plant- Bass Chalice (FLAC)\01.Blood Money.wav

Pre-gap length 0:00:02.00

Peak level 99.3 % Track quality 100.0 % Test CRC C15A8A71 Copy CRC C15A8A71 Track not present in AccurateRip database Copy OK

Track 2

Filename C:\Users\Derek\Music\WHAT.CD\10 Ft. Ganja Plant- Bass Chalice (FLAC)\02.Engine Trouble.wav

Pre-gap length 0:00:00.02

Peak level 98.8 % Track quality 99.9 % Test CRC ABDCD18F Copy CRC ABDCD18F Track not present in AccurateRip database Copy OK

Track 3

Filename C:\Users\Derek\Music\WHAT.CD\10 Ft. Ganja Plant- Bass Chalice (FLAC)\03.Last Dance.wav

Pre-gap length 0:00:00.02

Peak level 97.5 % Track quality 100.0 % Test CRC 57354FE0 Copy CRC 57354FE0 Track not present in AccurateRip database Copy OK

Track 4

Filename C:\Users\Derek\Music\WHAT.CD\10 Ft. Ganja Plant- Bass Chalice (FLAC)\04.Suits and Ski Masks.wav

Pre-gap length 0:00:00.02

Peak level 98.1 % Track quality 99.9 % Test CRC C8DBAF67 Copy CRC C8DBAF67 Track not present in AccurateRip database Copy OK

Track 5

Filename C:\Users\Derek\Music\WHAT.CD\10 Ft. Ganja Plant- Bass Chalice (FLAC)\05.To Teach.wav

Pre-gap length 0:00:00.02

Peak level 97.6 % Track quality 100.0 % Test CRC B3AD1E87 Copy CRC B3AD1E87 Track not present in AccurateRip database Copy OK

Track 6

Filename C:\Users\Derek\Music\WHAT.CD\10 Ft. Ganja Plant- Bass Chalice (FLAC)\06.Burning James.wav

Pre-gap length 0:00:00.02

Peak level 98.5 % Track quality 100.0 % Test CRC 79BF53AD Copy CRC 79BF53AD Track not present in AccurateRip database Copy OK

Track 7

Filename C:\Users\Derek\Music\WHAT.CD\10 Ft. Ganja Plant- Bass Chalice (FLAC)\07.Your Voice.wav

Pre-gap length 0:00:00.02

Peak level 97.6 % Track quality 100.0 % Test CRC 7CA02ECC Copy CRC 7CA02ECC Track not present in AccurateRip database Copy OK

Track 8

Filename C:\Users\Derek\Music\WHAT.CD\10 Ft. Ganja Plant- Bass Chalice (FLAC)\08.Swedish Prison.wav

Pre-gap length 0:00:00.02

Peak level 97.5 % Track quality 100.0 % Test CRC 17CF87A2 Copy CRC 17CF87A2 Track not present in AccurateRip database Copy OK

Track 9

Filename C:\Users\Derek\Music\WHAT.CD\10 Ft. Ganja Plant- Bass Chalice (FLAC)\09.Deliver Us Jah.wav

Pre-gap length 0:00:00.02

Peak level 98.4 % Track quality 100.0 % Test CRC 23A5A76D Copy CRC 23A5A76D Track not present in AccurateRip database Copy OK

Track 10

Filename C:\Users\Derek\Music\WHAT.CD\10 Ft. Ganja Plant- Bass Chalice (FLAC)\10.Bass Chalice.wav

Pre-gap length 0:00:00.01

Peak level 98.5 % Track quality 100.0 % Test CRC EFF9B529 Copy CRC EFF9B529 Track not present in AccurateRip database Copy OK

None of the tracks are present in the AccurateRip database

No errors occurred

End of status report
 
REM GENRE ReggaeREM DATE 2005REM DISCID 7E09610AREM COMMENT "ExactAudioCopy v0.99pb3"PERFORMER "10 Ft. Ganja Plant"TITLE "Bass Chalice"FILE "01.Blood Money.wav" WAVE TRACK 01 AUDIO TITLE "Blood Money" PERFORMER "10 Ft. Ganja Plant" INDEX 01 00:00:00 TRACK 02 AUDIO TITLE "Engine Trouble" PERFORMER "10 Ft. Ganja Plant" INDEX 00 03:56:18FILE "02.Engine Trouble.wav" WAVE INDEX 01 00:00:00 TRACK 03 AUDIO TITLE "Last Dance" PERFORMER "10 Ft. Ganja Plant" INDEX 00 03:50:32FILE "03.Last Dance.wav" WAVE INDEX 01 00:00:00 TRACK 04 AUDIO TITLE "Suits and Ski Masks" PERFORMER "10 Ft. Ganja Plant" INDEX 00 03:35:59FILE "04.Suits and Ski Masks.wav" WAVE INDEX 01 00:00:00 TRACK 05 AUDIO TITLE "To Teach" PERFORMER "10 Ft. Ganja Plant" INDEX 00 03:29:14FILE "05.To Teach.wav" WAVE INDEX 01 00:00:00 TRACK 06 AUDIO TITLE "Burning James" PERFORMER "10 Ft. Ganja Plant" INDEX 00 04:26:39FILE "06.Burning James.wav" WAVE INDEX 01 00:00:00 TRACK 07 AUDIO TITLE "Your Voice" PERFORMER "10 Ft. Ganja Plant" INDEX 00 03:11:45FILE "07.Your Voice.wav" WAVE INDEX 01 00:00:00 TRACK 08 AUDIO TITLE "Swedish Prison" PERFORMER "10 Ft. Ganja Plant" INDEX 00 04:11:46FILE "08.Swedish Prison.wav" WAVE INDEX 01 00:00:00 TRACK 09 AUDIO TITLE "Deliver Us Jah" PERFORMER "10 Ft. Ganja Plant" INDEX 00 04:05:18FILE "09.Deliver Us Jah.wav" WAVE INDEX 01 00:00:00 TRACK 10 AUDIO TITLE "Bass Chalice" PERFORMER "10 Ft. Ganja Plant" INDEX 00 04:42:10FILE "10.Bass Chalice.wav" WAVE INDEX 01 00:00:00

Страна-производитель диска: US
Год издания диска: 2007
Издатель (лейбл): ROIR
Номер по каталогу: RUSCD 8302
Продолжительность: 51:49
Источник (релизер): What.CD (slowjam3)
Треклист:
<ul type="1">
Chalwa (4:39)
Rebel in the Hills (4:05)
Blues Dance (3:16)
Good Time Girl (3:39)
Sunny Foundation (3:27)
Why Can't They Tell Us the Good News? (5:35)
Jah Teach I a Lesson (3:46)
Off Road Version (6:40)
Jah Will Go On (3:46)
Walkey Walk Tall (4:09)
Top Down (5:33)
Politricking Man (3:14)
</ul>
Доп. ссылки: Amazon, MusicBrainz, Discogs
 
Exact Audio Copy V0.99 prebeta 5 from 4. May 2009

EAC extraction logfile from 21. March 2011, 15:45

10 Ft. Ganja Plant / Presents

Used drive : TSSTcorpCDDVDW SE-S084F Adapter: 5 ID: 0

Read mode : SecureUtilize accurate stream : YesDefeat audio cache : YesMake use of C2 pointers : No

Read offset correction : 6Overread into Lead-In and Lead-Out : NoFill up missing offset samples with silence : YesDelete leading and trailing silent blocks : NoNull samples used in CRC calculations : YesUsed interface : Installed external ASPI interfaceGap handling : Appended to previous track

Used output format : User Defined EncoderSelected bitrate : 128 kBit/sQuality : HighAdd ID3 tag : NoCommand line compressor : C:\Program Files\Exact Audio Copy\Flac\flac.exeAdditional command line options : -8 -V -T "ARTIST=%a" -T "TITLE=%t" -T "ALBUM=%g" -T "DATE=%y" -T "TRACKNUMBER=%n" -T "TOTALTRACKS=%x" -T "GENRE=%m" -T "ALBUM ARTIST=%v" -T "ALBUMARTIST=%v" -T "COMMENT=EAC V0.99 prebeta 5, Secure Mode, Test & Copy, Accurat

TOC of the extracted CD

Track | Start | Length | Start sector | End sector --------------------------------------------------------- 1 | 0:00.00 | 4:38.24 | 0 | 20873 2 | 4:38.24 | 4:05.04 | 20874 | 39252 3 | 8:43.28 | 3:15.61 | 39253 | 53938 4 | 11:59.14 | 3:38.27 | 53939 | 70315 5 | 15:37.41 | 3:27.03 | 70316 | 85843 6 | 19:04.44 | 5:34.24 | 85844 | 110917 7 | 24:38.68 | 3:45.34 | 110918 | 127826 8 | 28:24.27 | 6:40.01 | 127827 | 157827 9 | 35:04.28 | 3:45.55 | 157828 | 174757 10 | 38:50.08 | 4:08.48 | 174758 | 193405 11 | 42:58.56 | 5:32.54 | 193406 | 218359 12 | 48:31.35 | 3:14.15 | 218360 | 232924

Track 1

Filename C:\EAC\LTS\10 Ft. Ganja Plant - Presents (2007) [FLAC] {ROIR RUSCD 8302}\01 - Chalwa.wav

Pre-gap length 0:00:02.00

Peak level 63.1 % Track quality 100.0 % Test CRC 3DBAF47A Copy CRC 3DBAF47A Track not present in AccurateRip database Copy OK

Track 2

Filename C:\EAC\LTS\10 Ft. Ganja Plant - Presents (2007) [FLAC] {ROIR RUSCD 8302}\02 - Rebel In The Hills.wav

Pre-gap length 0:00:01.00

Peak level 70.1 % Track quality 99.9 % Test CRC BE353133 Copy CRC BE353133 Track not present in AccurateRip database Copy OK

Track 3

Filename C:\EAC\LTS\10 Ft. Ganja Plant - Presents (2007) [FLAC] {ROIR RUSCD 8302}\03 - Blues Dance.wav

Peak level 56.2 % Track quality 100.0 % Test CRC CEA46974 Copy CRC CEA46974 Track not present in AccurateRip database Copy OK

Track 4

Filename C:\EAC\LTS\10 Ft. Ganja Plant - Presents (2007) [FLAC] {ROIR RUSCD 8302}\04 - Good Time Girl.wav

Peak level 70.8 % Track quality 100.0 % Test CRC E2FBDDC2 Copy CRC E2FBDDC2 Track not present in AccurateRip database Copy OK

Track 5

Filename C:\EAC\LTS\10 Ft. Ganja Plant - Presents (2007) [FLAC] {ROIR RUSCD 8302}\05 - Sunny Foundation.wav

Peak level 63.1 % Track quality 100.0 % Test CRC F779A8D5 Copy CRC F779A8D5 Track not present in AccurateRip database Copy OK

Track 6

Filename C:\EAC\LTS\10 Ft. Ganja Plant - Presents (2007) [FLAC] {ROIR RUSCD 8302}\06 - Why Can't They Tell Us The Good News.wav

Pre-gap length 0:00:01.00

Peak level 100.0 % Track quality 100.0 % Test CRC 630A002A Copy CRC 630A002A Track not present in AccurateRip database Copy OK

Track 7

Filename C:\EAC\LTS\10 Ft. Ganja Plant - Presents (2007) [FLAC] {ROIR RUSCD 8302}\07 - Jah Teach I A Lesson.wav

Pre-gap length 0:00:01.00

Peak level 60.9 % Track quality 99.9 % Test CRC 4FDBC759 Copy CRC 4FDBC759 Track not present in AccurateRip database Copy OK

Track 8

Filename C:\EAC\LTS\10 Ft. Ganja Plant - Presents (2007) [FLAC] {ROIR RUSCD 8302}\08 - Off Road Version.wav

Peak level 68.3 % Track quality 100.0 % Test CRC 244ED38A Copy CRC 244ED38A Track not present in AccurateRip database Copy OK

Track 9

Filename C:\EAC\LTS\10 Ft. Ganja Plant - Presents (2007) [FLAC] {ROIR RUSCD 8302}\09 - Jah Will Go On.wav

Peak level 70.8 % Track quality 100.0 % Test CRC 09E76070 Copy CRC 09E76070 Track not present in AccurateRip database Copy OK

Track 10

Filename C:\EAC\LTS\10 Ft. Ganja Plant - Presents (2007) [FLAC] {ROIR RUSCD 8302}\10 - Walkey Walk Tall.wav

Peak level 68.3 % Track quality 100.0 % Test CRC B361315C Copy CRC B361315C Track not present in AccurateRip database Copy OK

Track 11

Filename C:\EAC\LTS\10 Ft. Ganja Plant - Presents (2007) [FLAC] {ROIR RUSCD 8302}\11 - Top Down (bonus track).wav

Peak level 70.2 % Track quality 99.9 % Test CRC B01C37E7 Copy CRC B01C37E7 Track not present in AccurateRip database Copy OK

Track 12

Filename C:\EAC\LTS\10 Ft. Ganja Plant - Presents (2007) [FLAC] {ROIR RUSCD 8302}\12 - Politricking Man (bonus track).wav

Peak level 100.0 % Track quality 100.0 % Test CRC B5690995 Copy CRC B5690995 Track not present in AccurateRip database Copy OK

None of the tracks are present in the AccurateRip database

No errors occurred

End of status report
 
REM GENRE ReggaeREM DATE 2007REM DISCID 8F0C210CREM COMMENT "ExactAudioCopy v0.99pb5"PERFORMER "10 Ft. Ganja Plant"TITLE "Presents"FILE "01 - Chalwa.wav" WAVE TRACK 01 AUDIO TITLE "Chalwa" PERFORMER "10 Ft. Ganja Plant" INDEX 01 00:00:00 TRACK 02 AUDIO TITLE "Rebel In The Hills" PERFORMER "10 Ft. Ganja Plant" INDEX 00 04:37:24FILE "02 - Rebel In The Hills.wav" WAVE INDEX 01 00:00:00FILE "03 - Blues Dance.wav" WAVE TRACK 03 AUDIO TITLE "Blues Dance" PERFORMER "10 Ft. Ganja Plant" INDEX 01 00:00:00FILE "04 - Good Time Girl.wav" WAVE TRACK 04 AUDIO TITLE "Good Time Girl" PERFORMER "10 Ft. Ganja Plant" INDEX 01 00:00:00FILE "05 - Sunny Foundation.wav" WAVE TRACK 05 AUDIO TITLE "Sunny Foundation" PERFORMER "10 Ft. Ganja Plant" INDEX 01 00:00:00 TRACK 06 AUDIO TITLE "Why Can't They Tell Us The Good News" PERFORMER "10 Ft. Ganja Plant" INDEX 00 03:26:03FILE "06 - Why Can't They Tell Us The Good News.wav" WAVE INDEX 01 00:00:00 TRACK 07 AUDIO TITLE "Jah Teach I A Lesson" PERFORMER "10 Ft. Ganja Plant" INDEX 00 05:33:24FILE "07 - Jah Teach I A Lesson.wav" WAVE INDEX 01 00:00:00FILE "08 - Off Road Version.wav" WAVE TRACK 08 AUDIO TITLE "Off Road Version" PERFORMER "10 Ft. Ganja Plant" INDEX 01 00:00:00FILE "09 - Jah Will Go On.wav" WAVE TRACK 09 AUDIO TITLE "Jah Will Go On" PERFORMER "10 Ft. Ganja Plant" INDEX 01 00:00:00FILE "10 - Walkey Walk Tall.wav" WAVE TRACK 10 AUDIO TITLE "Walkey Walk Tall" PERFORMER "10 Ft. Ganja Plant" INDEX 01 00:00:00FILE "11 - Top Down (bonus track).wav" WAVE TRACK 11 AUDIO TITLE "Top Down (bonus track)" PERFORMER "10 Ft. Ganja Plant" INDEX 01 00:00:00FILE "12 - Politricking Man (bonus track).wav" WAVE TRACK 12 AUDIO TITLE "Politricking Man (bonus track)" PERFORMER "10 Ft. Ganja Plant" INDEX 01 00:00:00

Страна-производитель диска: US
Год издания диска: 2009
Издатель (лейбл): ROIR
Номер по каталогу: RUSCD 8308
Продолжительность: 39:31
Источник (релизер): What.CD (slowjam3)
Треклист:
<ul type="1">
Machete Strike (3:58)
Soon Come (2:54)
Too Much Gun a Bust (3:23)
Cool and Collect (3:35)
10 ft. Ganja Plant and Weed (3:35)
Bush Rock (3:49)
Head Shrinker (3:17)
Wailin' (3:40)
Set Me Free (3:52)
Got to Be a Soldier (2:45)
The Cyclops (4:43)
</ul>
Доп. ссылки: Amazon, MusicBrainz, Discogs
 
Exact Audio Copy V0.99 prebeta 5 from 4. May 2009

EAC extraction logfile from 20. February 2011, 15:31

10ft. Ganja Plant / Bush Rock

Used drive : TSSTcorpCDDVDW SE-S084F Adapter: 5 ID: 0

Read mode : SecureUtilize accurate stream : YesDefeat audio cache : YesMake use of C2 pointers : No

Read offset correction : 6Overread into Lead-In and Lead-Out : NoFill up missing offset samples with silence : YesDelete leading and trailing silent blocks : NoNull samples used in CRC calculations : YesUsed interface : Native Win32 interface for Win NT & 2000Gap handling : Appended to previous track

Used output format : User Defined EncoderSelected bitrate : 128 kBit/sQuality : HighAdd ID3 tag : NoCommand line compressor : C:\Program Files\Exact Audio Copy\Flac\flac.exeAdditional command line options : -8 -V -T "ARTIST=%a" -T "TITLE=%t" -T "ALBUM=%g" -T "DATE=%y" -T "TRACKNUMBER=%n" -T "TOTALTRACKS=%x" -T "GENRE=%m" -T "ALBUM ARTIST=%v" -T "ALBUMARTIST=%v" -T "COMMENT=EAC V0.99 prebeta 5, Secure Mode, Test & Copy, Accurat

TOC of the extracted CD

Track | Start | Length | Start sector | End sector --------------------------------------------------------- 1 | 0:00.00 | 3:58.05 | 0 | 17854 2 | 3:58.05 | 2:53.59 | 17855 | 30888 3 | 6:51.64 | 3:22.58 | 30889 | 46096 4 | 10:14.47 | 3:35.05 | 46097 | 62226 5 | 13:49.52 | 3:34.59 | 62227 | 78335 6 | 17:24.36 | 3:48.73 | 78336 | 95508 7 | 21:13.34 | 3:16.31 | 95509 | 110239 8 | 24:29.65 | 3:39.46 | 110240 | 126710 9 | 28:09.36 | 3:51.45 | 126711 | 144080 10 | 32:01.06 | 2:44.65 | 144081 | 156445 11 | 34:45.71 | 4:42.43 | 156446 | 177638

Track 1

Filename C:\EAC\LTT\10 ft. Ganja Plant - Bush Rock (2009) [FLAC] {ROIR RUSCD 8308}\01 - Machete Strike.wav

Pre-gap length 0:00:02.00

Peak level 98.8 % Track quality 99.9 % Test CRC 3A12952C Copy CRC 3A12952C Track not present in AccurateRip database Copy OK

Track 2

Filename C:\EAC\LTT\10 ft. Ganja Plant - Bush Rock (2009) [FLAC] {ROIR RUSCD 8308}\02 - Soon Come.wav

Peak level 98.8 % Track quality 100.0 % Test CRC 21A1ED3D Copy CRC 21A1ED3D Track not present in AccurateRip database Copy OK

Track 3

Filename C:\EAC\LTT\10 ft. Ganja Plant - Bush Rock (2009) [FLAC] {ROIR RUSCD 8308}\03 - Too Much Gun A Burst.wav

Peak level 98.8 % Track quality 100.0 % Test CRC 3AAA6F1B Copy CRC 3AAA6F1B Track not present in AccurateRip database Copy OK

Track 4

Filename C:\EAC\LTT\10 ft. Ganja Plant - Bush Rock (2009) [FLAC] {ROIR RUSCD 8308}\04 - Cool And Collect.wav

Peak level 98.8 % Track quality 100.0 % Test CRC 8737363F Copy CRC 8737363F Track not present in AccurateRip database Copy OK

Track 5

Filename C:\EAC\LTT\10 ft. Ganja Plant - Bush Rock (2009) [FLAC] {ROIR RUSCD 8308}\05 - 10ft. Ganja Plant And Weed.wav

Peak level 98.8 % Track quality 100.0 % Test CRC 3DB59AF1 Copy CRC 3DB59AF1 Track not present in AccurateRip database Copy OK

Track 6

Filename C:\EAC\LTT\10 ft. Ganja Plant - Bush Rock (2009) [FLAC] {ROIR RUSCD 8308}\06 - Bush Rock.wav

Peak level 98.8 % Track quality 100.0 % Test CRC 090DBF6A Copy CRC 090DBF6A Track not present in AccurateRip database Copy OK

Track 7

Filename C:\EAC\LTT\10 ft. Ganja Plant - Bush Rock (2009) [FLAC] {ROIR RUSCD 8308}\07 - Head Shrinker.wav

Peak level 98.8 % Track quality 100.0 % Test CRC 97BD9036 Copy CRC 97BD9036 Track not present in AccurateRip database Copy OK

Track 8

Filename C:\EAC\LTT\10 ft. Ganja Plant - Bush Rock (2009) [FLAC] {ROIR RUSCD 8308}\08 - Wailin'.wav

Peak level 98.8 % Track quality 100.0 % Test CRC CDE0D24B Copy CRC CDE0D24B Track not present in AccurateRip database Copy OK

Track 9

Filename C:\EAC\LTT\10 ft. Ganja Plant - Bush Rock (2009) [FLAC] {ROIR RUSCD 8308}\09 - Set Me Free.wav

Peak level 98.8 % Track quality 100.0 % Test CRC 5D1ADE6C Copy CRC 5D1ADE6C Track not present in AccurateRip database Copy OK

Track 10

Filename C:\EAC\LTT\10 ft. Ganja Plant - Bush Rock (2009) [FLAC] {ROIR RUSCD 8308}\10 - Got To Be A Soldier.wav

Peak level 98.8 % Track quality 100.0 % Test CRC 4C4117BF Copy CRC 4C4117BF Track not present in AccurateRip database Copy OK

Track 11

Filename C:\EAC\LTT\10 ft. Ganja Plant - Bush Rock (2009) [FLAC] {ROIR RUSCD 8308}\11 - The Cyclops.wav

Peak level 98.8 % Track quality 99.9 % Test CRC 56780567 Copy CRC 56780567 Track not present in AccurateRip database Copy OK

None of the tracks are present in the AccurateRip database

No errors occurred

End of status report
 
REM GENRE ReggaeREM DATE 2009REM DISCID 8109400BREM COMMENT "ExactAudioCopy v0.99pb5"PERFORMER "10ft. Ganja Plant"TITLE "Bush Rock"FILE "01 - Machete Strike.wav" WAVE TRACK 01 AUDIO TITLE "Machete Strike" PERFORMER "10ft. Ganja Plant" INDEX 01 00:00:00FILE "02 - Soon Come.wav" WAVE TRACK 02 AUDIO TITLE "Soon Come" PERFORMER "10ft. Ganja Plant" INDEX 01 00:00:00FILE "03 - Too Much Gun A Burst.wav" WAVE TRACK 03 AUDIO TITLE "Too Much Gun A Burst" PERFORMER "10ft. Ganja Plant" INDEX 01 00:00:00FILE "04 - Cool And Collect.wav" WAVE TRACK 04 AUDIO TITLE "Cool And Collect" PERFORMER "10ft. Ganja Plant" INDEX 01 00:00:00FILE "05 - 10ft. Ganja Plant And Weed.wav" WAVE TRACK 05 AUDIO TITLE "10ft. Ganja Plant And Weed" PERFORMER "10ft. Ganja Plant" INDEX 01 00:00:00FILE "06 - Bush Rock.wav" WAVE TRACK 06 AUDIO TITLE "Bush Rock" PERFORMER "10ft. Ganja Plant" INDEX 01 00:00:00FILE "07 - Head Shrinker.wav" WAVE TRACK 07 AUDIO TITLE "Head Shrinker" PERFORMER "10ft. Ganja Plant" INDEX 01 00:00:00FILE "08 - Wailin'.wav" WAVE TRACK 08 AUDIO TITLE "Wailin'" PERFORMER "10ft. Ganja Plant" INDEX 01 00:00:00FILE "09 - Set Me Free.wav" WAVE TRACK 09 AUDIO TITLE "Set Me Free" PERFORMER "10ft. Ganja Plant" INDEX 01 00:00:00FILE "10 - Got To Be A Soldier.wav" WAVE TRACK 10 AUDIO TITLE "Got To Be A Soldier" PERFORMER "10ft. Ganja Plant" INDEX 01 00:00:00FILE "11 - The Cyclops.wav" WAVE TRACK 11 AUDIO TITLE "The Cyclops" PERFORMER "10ft. Ganja Plant" INDEX 01 00:00:00

Страна-производитель диска: US
Год издания диска: 2010
Издатель (лейбл): ROIR
Номер по каталогу: RUSCD 8316
Продолжительность: 34:09
Источник (релизер): What.CD (slowjam3)
Треклист:
<ul type="1">
Bonny & Clyde (2:54)
Apache Kid (3:41)
Dillinger (2:45)
Jesse James (3:50)
Belle Starr (3:30)
Machine Gun (3:58)
Kid Curry (3:24)
Billy the Kid (3:08)
Black Bart (3:33)
The Sundance Kid (3:26)
</ul>
Доп. ссылки: Amazon, MusicBrainz, Discogs
 
Exact Audio Copy V0.99 prebeta 5 from 4. May 2009

EAC extraction logfile from 20. February 2011, 18:47

10 Ft. Ganja Plant / 10 Deadly Shots Vol. 1

Used drive : TSSTcorpCDDVDW SE-S084F Adapter: 5 ID: 0

Read mode : SecureUtilize accurate stream : YesDefeat audio cache : YesMake use of C2 pointers : No

Read offset correction : 6Overread into Lead-In and Lead-Out : NoFill up missing offset samples with silence : YesDelete leading and trailing silent blocks : NoNull samples used in CRC calculations : YesUsed interface : Native Win32 interface for Win NT & 2000Gap handling : Appended to previous track

Used output format : User Defined EncoderSelected bitrate : 128 kBit/sQuality : HighAdd ID3 tag : NoCommand line compressor : C:\Program Files\Exact Audio Copy\Flac\flac.exeAdditional command line options : -8 -V -T "ARTIST=%a" -T "TITLE=%t" -T "ALBUM=%g" -T "DATE=%y" -T "TRACKNUMBER=%n" -T "TOTALTRACKS=%x" -T "GENRE=%m" -T "ALBUM ARTIST=%v" -T "ALBUMARTIST=%v" -T "COMMENT=EAC V0.99 prebeta 5, Secure Mode, Test & Copy, Accurat

TOC of the extracted CD

Track | Start | Length | Start sector | End sector --------------------------------------------------------- 1 | 0:00.00 | 2:54.14 | 0 | 13063 2 | 2:54.14 | 3:40.51 | 13064 | 29614 3 | 6:34.65 | 2:44.52 | 29615 | 41966 4 | 9:19.42 | 3:50.09 | 41967 | 59225 5 | 13:09.51 | 3:29.67 | 59226 | 74967 6 | 16:39.43 | 3:57.45 | 74968 | 92787 7 | 20:37.13 | 3:23.73 | 92788 | 108085 8 | 24:01.11 | 3:07.41 | 108086 | 122151 9 | 27:08.52 | 3:32.40 | 122152 | 138091 10 | 30:41.17 | 3:25.48 | 138092 | 153514

Track 1

Filename C:\EAC\LTS\10 ft. Ganja Plant - 10 Deadly Shots Vol. 1 (2010) [FLAC] {ROIR RUSCD 8316}\01 - Bonny & Clyde.wav

Pre-gap length 0:00:02.00

Peak level 98.9 % Track quality 100.0 % Test CRC 8585F65B Copy CRC 8585F65B Track not present in AccurateRip database Copy OK

Track 2

Filename C:\EAC\LTS\10 ft. Ganja Plant - 10 Deadly Shots Vol. 1 (2010) [FLAC] {ROIR RUSCD 8316}\02 - Apache Kid.wav

Peak level 98.8 % Track quality 100.0 % Test CRC 319D1DFD Copy CRC 319D1DFD Track not present in AccurateRip database Copy OK

Track 3

Filename C:\EAC\LTS\10 ft. Ganja Plant - 10 Deadly Shots Vol. 1 (2010) [FLAC] {ROIR RUSCD 8316}\03 - Dillinger.wav

Peak level 98.8 % Track quality 99.9 % Test CRC 3EFE2D58 Copy CRC 3EFE2D58 Track not present in AccurateRip database Copy OK

Track 4

Filename C:\EAC\LTS\10 ft. Ganja Plant - 10 Deadly Shots Vol. 1 (2010) [FLAC] {ROIR RUSCD 8316}\04 - Jesse James.wav

Peak level 98.8 % Track quality 99.9 % Test CRC 8D6B1F31 Copy CRC 8D6B1F31 Track not present in AccurateRip database Copy OK

Track 5

Filename C:\EAC\LTS\10 ft. Ganja Plant - 10 Deadly Shots Vol. 1 (2010) [FLAC] {ROIR RUSCD 8316}\05 - Belle Starr.wav

Peak level 99.1 % Track quality 100.0 % Test CRC 2C59829C Copy CRC 2C59829C Track not present in AccurateRip database Copy OK

Track 6

Filename C:\EAC\LTS\10 ft. Ganja Plant - 10 Deadly Shots Vol. 1 (2010) [FLAC] {ROIR RUSCD 8316}\06 - Machine Gun.wav

Peak level 98.8 % Track quality 100.0 % Test CRC 260397A7 Copy CRC 260397A7 Track not present in AccurateRip database Copy OK

Track 7

Filename C:\EAC\LTS\10 ft. Ganja Plant - 10 Deadly Shots Vol. 1 (2010) [FLAC] {ROIR RUSCD 8316}\07 - Kid Curry.wav

Peak level 98.8 % Track quality 100.0 % Test CRC 0EC7B1A9 Copy CRC 0EC7B1A9 Track not present in AccurateRip database Copy OK

Track 8

Filename C:\EAC\LTS\10 ft. Ganja Plant - 10 Deadly Shots Vol. 1 (2010) [FLAC] {ROIR RUSCD 8316}\08 - Billy The Kid.wav

Peak level 98.8 % Track quality 100.0 % Test CRC E2F115F8 Copy CRC E2F115F8 Track not present in AccurateRip database Copy OK

Track 9

Filename C:\EAC\LTS\10 ft. Ganja Plant - 10 Deadly Shots Vol. 1 (2010) [FLAC] {ROIR RUSCD 8316}\09 - Black Bart.wav

Peak level 98.8 % Track quality 99.9 % Test CRC 7EC466C1 Copy CRC 7EC466C1 Track not present in AccurateRip database Copy OK

Track 10

Filename C:\EAC\LTS\10 ft. Ganja Plant - 10 Deadly Shots Vol. 1 (2010) [FLAC] {ROIR RUSCD 8316}\10 - The Sundance Kid.wav

Peak level 98.8 % Track quality 100.0 % Test CRC 5974ACC5 Copy CRC 5974ACC5 Track not present in AccurateRip database Copy OK

None of the tracks are present in the AccurateRip database

No errors occurred

End of status report
 
REM GENRE ReggaeREM DATE 2010REM DISCID 7607FE0AREM COMMENT "ExactAudioCopy v0.99pb5"PERFORMER "10 Ft. Ganja Plant"TITLE "10 Deadly Shots Vol. 1"FILE "01 - Bonny & Clyde.wav" WAVE TRACK 01 AUDIO TITLE "Bonny & Clyde" PERFORMER "10 Ft. Ganja Plant" INDEX 01 00:00:00FILE "02 - Apache Kid.wav" WAVE TRACK 02 AUDIO TITLE "Apache Kid" PERFORMER "10 Ft. Ganja Plant" INDEX 01 00:00:00FILE "03 - Dillinger.wav" WAVE TRACK 03 AUDIO TITLE "Dillinger" PERFORMER "10 Ft. Ganja Plant" INDEX 01 00:00:00FILE "04 - Jesse James.wav" WAVE TRACK 04 AUDIO TITLE "Jesse James" PERFORMER "10 Ft. Ganja Plant" INDEX 01 00:00:00FILE "05 - Belle Starr.wav" WAVE TRACK 05 AUDIO TITLE "Belle Starr" PERFORMER "10 Ft. Ganja Plant" INDEX 01 00:00:00FILE "06 - Machine Gun.wav" WAVE TRACK 06 AUDIO TITLE "Machine Gun" PERFORMER "10 Ft. Ganja Plant" INDEX 01 00:00:00FILE "07 - Kid Curry.wav" WAVE TRACK 07 AUDIO TITLE "Kid Curry" PERFORMER "10 Ft. Ganja Plant" INDEX 01 00:00:00FILE "08 - Billy The Kid.wav" WAVE TRACK 08 AUDIO TITLE "Billy The Kid" PERFORMER "10 Ft. Ganja Plant" INDEX 01 00:00:00FILE "09 - Black Bart.wav" WAVE TRACK 09 AUDIO TITLE "Black Bart" PERFORMER "10 Ft. Ganja Plant" INDEX 01 00:00:00FILE "10 - The Sundance Kid.wav" WAVE TRACK 10 AUDIO TITLE "The Sundance Kid" PERFORMER "10 Ft. Ganja Plant" INDEX 01 00:00:00

Страна-производитель диска: US
Год издания диска: 2011
Издатель (лейбл): ROIR
Номер по каталогу: RUSCD 8318
Продолжительность: 38:46
Источник (релизер): What.CD (buzzeva)
Наличие сканов в содержимом раздачи: да
Треклист:
<ul type="1">
My Roots (feat. Sylford Walker) (3:46)
Strength (4:22)
Shake Up the Place (4:32)
Ringer's Rock (3:33)
Africa (feat. Prince Jazzbo) (3:43)
Hard Times (feat. Sylford Walker) (3:28)
Pharoah's Army (3:17)
Rush Me (3:34)
Strongback (4:07)
Recession (feat. Prince Jazzbo) (4:24)
</ul>
Доп. ссылки: Amazon, MusicBrainz, Discogs
 
Exact Audio Copy V1.0 beta 2 from 29. April 2011

EAC extraction logfile from 3. December 2011, 17:00

10 Ft. Ganja Plant / Shake Up The Place

Used drive : ATAPI iHAP122 W Adapter: 2 ID: 0

Read mode : SecureUtilize accurate stream : YesDefeat audio cache : YesMake use of C2 pointers : No

Read offset correction : 6Overread into Lead-In and Lead-Out : NoFill up missing offset samples with silence : YesDelete leading and trailing silent blocks : NoNull samples used in CRC calculations : YesUsed interface : Native Win32 interface for Win NT & 2000Gap handling : Appended to previous track

Used output format : User Defined EncoderSelected bitrate : 896 kBit/sQuality : HighAdd ID3 tag : NoCommand line compressor : C:\Program Files (x86)\Exact Audio Copy\Flac\flac.exeAdditional command line options : -8 -V -T "ARTIST=%artist%" -T "TITLE=%title%" -T "ALBUM=%albumtitle%" -T "DATE=%year%" -T "TRACKNUMBER=%tracknr%" -T "TOTALTRACKS=%numtracks%" -T "GENRE=%genre%" -T "ALBUM ARTIST=%albumartist%" -T "ALBUMARTIST=%albumartist%

TOC of the extracted CD

Track | Start | Length | Start sector | End sector --------------------------------------------------------- 1 | 0:00.02 | 3:45.22 | 2 | 16898 2 | 3:45.24 | 4:21.24 | 16899 | 36497 3 | 8:06.48 | 4:31.45 | 36498 | 56867 4 | 12:38.18 | 3:33.03 | 56868 | 72845 5 | 16:11.21 | 3:42.69 | 72846 | 89564 6 | 19:54.15 | 3:27.22 | 89565 | 105111 7 | 23:21.37 | 3:17.20 | 105112 | 119906 8 | 26:38.57 | 3:33.50 | 119907 | 135931 9 | 30:12.32 | 4:06.19 | 135932 | 154400 10 | 34:18.51 | 4:23.41 | 154401 | 174166

Track 1

Filename E:\LW\01 - My Roots.wav

Pre-gap length 0:00:02.02

Peak level 98.4 % Extraction speed 3.3 X Track quality 100.0 % Test CRC 19BF31F5 Copy CRC 19BF31F5 Track not present in AccurateRip database Copy OK

Track 2

Filename E:\LW\02 - Strength.wav

Pre-gap length 0:00:02.02

Peak level 98.4 % Extraction speed 3.8 X Track quality 100.0 % Test CRC 85C006BB Copy CRC 85C006BB Track not present in AccurateRip database Copy OK

Track 3

Filename E:\LW\03 - Shake Up The Place.wav

Pre-gap length 0:00:02.02

Peak level 98.4 % Extraction speed 3.5 X Track quality 99.9 % Test CRC FB9E9533 Copy CRC FB9E9533 Track not present in AccurateRip database Copy OK

Track 4

Filename E:\LW\04 - Ringer's Rock.wav

Pre-gap length 0:00:02.02

Peak level 98.4 % Extraction speed 4.3 X Track quality 100.0 % Test CRC 9DEB0C0F Copy CRC 9DEB0C0F Track not present in AccurateRip database Copy OK

Track 5

Filename E:\LW\05 - Africa.wav

Pre-gap length 0:00:02.02

Peak level 98.9 % Extraction speed 4.6 X Track quality 100.0 % Test CRC 914B57B7 Copy CRC 914B57B7 Track not present in AccurateRip database Copy OK

Track 6

Filename E:\LW\06 - Hardtimes.wav

Pre-gap length 0:00:02.02

Peak level 98.4 % Extraction speed 4.8 X Track quality 100.0 % Test CRC A85C6C68 Copy CRC A85C6C68 Track not present in AccurateRip database Copy OK

Track 7

Filename E:\LW\07 - Pharaohs Army.wav

Pre-gap length 0:00:02.02

Peak level 98.4 % Extraction speed 5.0 X Track quality 100.0 % Test CRC 5980C126 Copy CRC 5980C126 Track not present in AccurateRip database Copy OK

Track 8

Filename E:\LW\08 - Rush Me.wav

Pre-gap length 0:00:02.02

Peak level 98.4 % Extraction speed 5.2 X Track quality 100.0 % Test CRC 7A346FDF Copy CRC 7A346FDF Track not present in AccurateRip database Copy OK

Track 9

Filename E:\LW\09 - Strongback.wav

Pre-gap length 0:00:02.02

Peak level 98.4 % Extraction speed 5.5 X Track quality 100.0 % Test CRC 1D5EE6B6 Copy CRC 1D5EE6B6 Track not present in AccurateRip database Copy OK

Track 10

Filename E:\LW\10 - Recession.wav

Pre-gap length 0:00:02.02

Peak level 98.4 % Extraction speed 5.8 X Track quality 100.0 % Test CRC 0F915B83 Copy CRC 0F915B83 Track not present in AccurateRip database Copy OK

None of the tracks are present in the AccurateRip database

No errors occurred

End of status report

==== Log checksum FB29904D4B57590EB998CD70454F6ECB4EC15CC0F3A8258654B754014DB02A11 ====
 
REM GENRE ReggaeREM DATE 2011REM DISCID 7709120AREM COMMENT "ExactAudioCopy v1.0b2"PERFORMER "10 Ft. Ganja Plant"TITLE "Shake Up The Place"FILE "01 - My Roots.wav" WAVE TRACK 01 AUDIO TITLE "My Roots" PERFORMER "10 Ft. Ganja Plant" PREGAP 00:00:02 INDEX 01 00:00:00 TRACK 02 AUDIO TITLE "Strength" PERFORMER "10 Ft. Ganja Plant" INDEX 00 03:43:20FILE "02 - Strength.wav" WAVE INDEX 01 00:00:00 TRACK 03 AUDIO TITLE "Shake Up The Place" PERFORMER "10 Ft. Ganja Plant" INDEX 00 04:19:22FILE "03 - Shake Up The Place.wav" WAVE INDEX 01 00:00:00 TRACK 04 AUDIO TITLE "Ringer's Rock" PERFORMER "10 Ft. Ganja Plant" INDEX 00 04:29:43FILE "04 - Ringer's Rock.wav" WAVE INDEX 01 00:00:00 TRACK 05 AUDIO TITLE "Africa" PERFORMER "10 Ft. Ganja Plant" INDEX 00 03:31:01FILE "05 - Africa.wav" WAVE INDEX 01 00:00:00 TRACK 06 AUDIO TITLE "Hardtimes" PERFORMER "10 Ft. Ganja Plant" INDEX 00 03:40:67FILE "06 - Hardtimes.wav" WAVE INDEX 01 00:00:00 TRACK 07 AUDIO TITLE "Pharaohs Army" PERFORMER "10 Ft. Ganja Plant" INDEX 00 03:25:20FILE "07 - Pharaohs Army.wav" WAVE INDEX 01 00:00:00 TRACK 08 AUDIO TITLE "Rush Me" PERFORMER "10 Ft. Ganja Plant" INDEX 00 03:15:18FILE "08 - Rush Me.wav" WAVE INDEX 01 00:00:00 TRACK 09 AUDIO TITLE "Strongback" PERFORMER "10 Ft. Ganja Plant" INDEX 00 03:31:48FILE "09 - Strongback.wav" WAVE INDEX 01 00:00:00 TRACK 10 AUDIO TITLE "Recession" PERFORMER "10 Ft. Ganja Plant" INDEX 00 04:04:17FILE "10 - Recession.wav" WAVE INDEX 01 00:00:00

Оф. сайт MySpace Facebook YouTube Last.fm Wikipedia Amazon MusicBrainz Discogs
It’s a sweltering hot day in 1999, we convene for the usual chalice and ital stew at 286 Beacon street in Somerville. Then suddenly a drum fill cracked and “Good News Dub” or as we like to call it “Why Can’t They Tell Us The Good News” was permeating the third floor living room. 10 Ft Ganja Plant from the start had many things to say. One was to play the only music we knew how and to give people something we felt was not heard a lot in the world today, roots reggae. Being collectors of the music we sought out many pieces of vintage equipment to make these records. I will never forget the first day the Ampeg 8X10 vibrated the house and the clavinet morphed through the wah-wah and phaser.

When 10 Ft. began, its main intention was to get together and do song writing that would then be presented to another group of musicians- some of you may well know. As some of us were out touring with a familiar reggae band called John Brown’s Body we would get off the road and run to the studio; which at the time was called “Mang Studio” or as some of us called it, home. At Mang, everything was positive, and there was no stress to make music but more to relax and enjoy the company of our friends and family. As we played music through the summer, frequently taking breaks to hit the rooftop to get a breath of fresh air we would get the next track ready. The amount of material we created began to grew quickly and something changed inside all of us. The album Presents debuted in 2000 and was released independently on I-Town Records. As we continued to build up an arsenal of music we decided to present the material we had recorded on two consumer JVC cassette decks to a friend. In doing so our relationship and family grew by introducing us to the well known record label ROIR. From here it encouraged us to grow as a group of friends, family, musicians and engineers.

Signing with ROIR brought Hillside Airstrip in 2001 and introduced many new sounds and musicians to the record. From this point on the studio was like a revolving door of musicians cutting a track and passing it off. Midnight Landing arrived in 2003 reiterating the bands passion for roots deeply rooted in the mid to late 70′s. The bass got heavier and the drums bigger, the melodies stronger and the ganja smoke thicker. Bass Chalice was then released in 2005. As touring slowed for some, and life decisions took people into different parts of the world and realms of music. A short break was taken to gather the vibes, build a new studio and lay the foundation for what would become Bush Rock which was released in 2009. Reaching new levels of psychedelic sounds and heavy bass production brings us to where we are now. In talking recently, a few of us seemed to be in the same place of looking back to classic sounds of groups like The Upsetters, Silvertones, Pioneers, Gladiators, Gregory Isaacs, Lee Perry, The Maytones, Burning Spear and some of the greats that graced them such as Ernest Ranglin, Lynn Taitt, Jackie Mittoo, Carlton Barrett, Family Man and so many others. We decided in April of 2010 we would get together for a weekend and do a full instrumental record in conjunction with ROIR as a special digital release (and later hopefully to be released on vinyl) for the opening of the website and to give the people just a little more music to enjoy in the summer months to come. Keep your eyes and ears out for more of these spontaneous records to come as we begin work on the next full length record.

Peace and Love,
10 Ft Ganja Plant
Рипы с what?cd раздаются не тронутыми, изменены лишь название папок. На момент создания раздачи, это полная CD дискография, сборник Essential 10 Ft. Ganja Plant существует только в электроном варианте, и что странно не выше MP3 320 kbps


Трекер:  [ 15-Дек-2011 17:11 ]

  

Скачать .torrent

Размер .torrent файла 153 KB


Размер: 1.79 GB
Хэш (hash) релиза: 6ec8f7b30c29a8510b9eb16978b63a7a73047e84

Торренты, похожие на 10 Ft. Ganja Plant {Ten Foot} - Дискография скачать торрент

Форум Название Автор Размер S L Добавлен
Reggae, Ska, Dub (mp3) ·· (Dub, Reggae) 10 Ft. Ganja Plant {Ten Foot} - Дискография (7 альбомов, 1 сборник) - 2001-2011, MP3, 320 kbps Galfimbul 845478072806 MB 0 0 1323799293

21:01

13-Дек-11

Еще никто не оставлял запись к записи скачать торрент 10 Ft. Ganja Plant {Ten Foot} - Дискография . Будь первым!

!Обратная связь