Belle et bête | Lakshyam (2017) Malayalam Action Movie DVDRip 700MB ESub | S1 03 Charm Attack, Veteran Mercenary

Скачать через торрент музыку VA - Lead With The Bass I - 1995 бесплатно без регистрации torrent

Статистика раздачи
Размер:  336 MB   |    Зарегистрирован:  6 лет 7 месяцев   |    .torrent скачан:  46 раз   |   
Раздают:  1  
   
загрузка...
 
Автор Сообщение

Galfimbul

avatar Galfimbul


Various Artists
Lead With The Bass I
CD, Compilation.
Жанр: Dub
Год выпуска диска: 1995
Производитель диска: UK
Аудио кодек: FLAC
Тип рипа: tracks+.cue
Битрейт аудио: lossless
Продолжительность: 01:05:59
.
Трэклист:
01 - [b]The Disciples - Prowling Lion
- (04:18)
02 - The Disciples - Prowling Lion (Version) - (04:12)
03 - Power Steppers - Beethoven - (04:31)
04 - Power Steppers - Beethoven (Version) - (02:46)
05 - The Disciples - Return To Addis Ababa - (04:42)
06 - The Disciples - Return To Addis Ababa (Version) - (03:53)
07 - The Israelites - Lord - (03:52)
08 - The Israelites - Lord (Version) - (03:45)
09 - Iration Steppas - Scud Missile - (04:26)
10 - Iration Steppas - Scud Missile (Version) - (04:26)
11 - The Bush Chemists - Come Together - (03:33)
12 - The Bush Chemists - Come Together (Version) - (03:42)
13 - Iration Steppas - High Rise - (04:20)
14 - Iration Steppas - High Rise (Version) - (04:18)
15 - Power Steppers - Make Love Not War - (04:08)
16 - Power Steppers - Make Love Not War (Version) - (05:08)[/b]
.
from what?cd thnx 2 treblejunglist
 
Exact Audio Copy V1.0 beta 2 from 29. April 2011

EAC extraction logfile from 23. September 2011, 19:09

Various / Lead with the Bass

Used drive : TSSTcorpCD/DVDW SH-S183L Adapter: 2 ID: 1

Read mode : SecureUtilize accurate stream : YesDefeat audio cache : YesMake use of C2 pointers : No

Read offset correction : 6Overread into Lead-In and Lead-Out : NoFill up missing offset samples with silence : YesDelete leading and trailing silent blocks : NoNull samples used in CRC calculations : YesUsed interface : Native Win32 interface for Win NT & 2000Gap handling : Appended to previous track

Used output format : User Defined EncoderSelected bitrate : 1024 kBit/sQuality : HighAdd ID3 tag : NoCommand line compressor : C:\Program Files\Exact Audio Copy\Flac\flac.exeAdditional command line options : -8 -V -T "ARTIST=%artist%" -T "TITLE=%title%" -T "ALBUM=%albumtitle%" -T "DATE=%year%" -T "TRACKNUMBER=%tracknr%" -T "GENRE=%genre%" -T "PERFORMER=%albuminterpret%" -T "COMPOSER=%composer%" %haslyrics%--tag-from-file=LYRICS

TOC of the extracted CD

Track | Start | Length | Start sector | End sector --------------------------------------------------------- 1 | 0:00.32 | 4:17.58 | 32 | 19364 2 | 4:18.15 | 4:11.55 | 19365 | 38244 3 | 8:29.70 | 4:31.07 | 38245 | 58576 4 | 13:01.02 | 2:46.28 | 58577 | 71054 5 | 15:47.30 | 4:42.17 | 71055 | 92221 6 | 20:29.47 | 3:53.03 | 92222 | 109699 7 | 24:22.50 | 3:52.15 | 109700 | 127114 8 | 28:14.65 | 3:45.17 | 127115 | 144006 9 | 32:00.07 | 4:25.68 | 144007 | 163949 10 | 36:26.00 | 4:25.65 | 163950 | 183889 11 | 40:51.65 | 3:33.02 | 183890 | 199866 12 | 44:24.67 | 3:41.68 | 199867 | 216509 13 | 48:06.60 | 4:19.67 | 216510 | 236001 14 | 52:26.52 | 4:17.43 | 236002 | 255319 15 | 56:44.20 | 4:08.22 | 255320 | 273941 16 | 60:52.42 | 5:07.38 | 273942 | 297004

Track 1

Filename C:\01 - The Disciples - Prowling Lion.wav

Pre-gap length 0:00:02.42

Peak level 85.1 % Extraction speed 4.8 X Track quality 100.0 % Test CRC C7C5C76C Copy CRC C7C5C76C Cannot be verified as accurate (confidence 1) [D070628C], AccurateRip returned [90CAC9CF] (AR v2) Copy OK

Track 2

Filename C:\02 - The Disciples - Prowling Lion Version.wav

Pre-gap length 0:00:01.33

Peak level 78.4 % Extraction speed 5.3 X Track quality 100.0 % Test CRC CE687E29 Copy CRC CE687E29 Accurately ripped (confidence 1) [BF117C83] (AR v1) Copy OK

Track 3

Filename C:\03 - Power Steppers - Beethoven.wav

Pre-gap length 0:00:01.33

Peak level 74.1 % Extraction speed 5.8 X Track quality 100.0 % Test CRC 752770B6 Copy CRC 752770B6 Accurately ripped (confidence 1) [1E9AD1F1] (AR v1) Copy OK

Track 4

Filename C:\04 - Power Steppers - Beethoven Version.wav

Pre-gap length 0:00:01.33

Peak level 77.5 % Extraction speed 5.7 X Track quality 100.0 % Test CRC 79AC9537 Copy CRC 79AC9537 Accurately ripped (confidence 1) [6BF943EA] (AR v1) Copy OK

Track 5

Filename C:\05 - The Disciples - Return to Addis Ababa.wav

Pre-gap length 0:00:01.33

Peak level 72.2 % Extraction speed 6.5 X Track quality 100.0 % Test CRC B16EDE22 Copy CRC B16EDE22 Accurately ripped (confidence 1) [EFCDB739] (AR v1) Copy OK

Track 6

Filename C:\06 - The Disciples - Return to Addis Ababa Version.wav

Pre-gap length 0:00:01.33

Peak level 81.3 % Extraction speed 5.9 X Track quality 99.9 % Test CRC 5328714C Copy CRC 5328714C Accurately ripped (confidence 1) [5A6B22F7] (AR v1) Copy OK

Track 7

Filename C:\07 - The Israelites - Lord.wav

Pre-gap length 0:00:01.33

Peak level 82.7 % Extraction speed 7.0 X Track quality 100.0 % Test CRC FB65BDF4 Copy CRC FB65BDF4 Accurately ripped (confidence 1) [E2F2F332] (AR v1) Copy OK

Track 8

Filename C:\08 - The Israelites - Lord Version.wav

Pre-gap length 0:00:01.33

Peak level 90.9 % Extraction speed 7.3 X Track quality 100.0 % Test CRC CC3A27D4 Copy CRC CC3A27D4 Accurately ripped (confidence 1) [4403F9EC] (AR v1) Copy OK

Track 9

Filename C:\09 - Iration Steppers - Scud Missile.wav

Pre-gap length 0:00:01.33

Peak level 69.6 % Extraction speed 6.9 X Track quality 99.9 % Test CRC EC32AF7E Copy CRC EC32AF7E Accurately ripped (confidence 1) [4C190D4D] (AR v1) Copy OK

Track 10

Filename C:\10 - Iration Steppers - Scud Missile Version.wav

Pre-gap length 0:00:01.33

Peak level 64.0 % Extraction speed 6.3 X Track quality 99.9 % Test CRC 419A3109 Copy CRC 419A3109 Cannot be verified as accurate (confidence 1) [C20A457C], AccurateRip returned [CD2DB016] (AR v2) Copy OK

Track 11

Filename C:\11 - The Bush Chemists - Come together.wav

Pre-gap length 0:00:01.33

Peak level 82.8 % Extraction speed 8.0 X Track quality 100.0 % Test CRC 5D83C550 Copy CRC 5D83C550 Accurately ripped (confidence 1) [FB73D7A7] (AR v1) Copy OK

Track 12

Filename C:\12 - The Bush Chemists - Come together Version.wav

Pre-gap length 0:00:01.33

Peak level 100.0 % Extraction speed 8.3 X Track quality 100.0 % Test CRC B50AD510 Copy CRC B50AD510 Accurately ripped (confidence 1) [04CDB90A] (AR v1) Copy OK

Track 13

Filename C:\13 - Iration Steppers - High Rise.wav

Pre-gap length 0:00:01.33

Peak level 73.9 % Extraction speed 6.9 X Track quality 99.9 % Test CRC C55055B6 Copy CRC F7B4E710 Cannot be verified as accurate (confidence 1) [C3CAB731], AccurateRip returned [1FBF1E54] (AR v2) Copy OK

Track 14

Filename C:\14 - Iration Steppers - High Rise Version.wav

Pre-gap length 0:00:01.33

Peak level 94.0 % Extraction speed 9.0 X Track quality 100.0 % Test CRC 70840B78 Copy CRC 70840B78 Accurately ripped (confidence 1) [8E14DB9B] (AR v1) Copy OK

Track 15

Filename C:\15 - Power Steppers - Make Love not War.wav

Pre-gap length 0:00:01.33

Peak level 94.3 % Extraction speed 8.1 X Track quality 99.9 % Test CRC D4A8ED88 Copy CRC D4A8ED88 Accurately ripped (confidence 1) [6D1B0D14] (AR v1) Copy OK

Track 16

Filename C:\16 - Power Steppers - Make Love not War Version.wav

Pre-gap length 0:00:01.33

Peak level 88.9 % Extraction speed 7.8 X Track quality 99.9 % Test CRC 86C78F4D Copy CRC 86C78F4D Cannot be verified as accurate (confidence 1) [ED9DA704], AccurateRip returned [C6FEC0D1] (AR v2) Copy OK

12 track(s) accurately ripped 4 track(s) could not be verified as accurate

Some tracks could not be verified as accurate

No errors occurred

End of status report

==== Log checksum BECCADD2526E11FD764B064474CADCEDF9E18461B7B9CCA6DCAD8CBB825535C4 ====

Exact Audio Copy V1.0 beta 2 from 29. April 2011

EAC extraction logfile from 23. September 2011, 19:19

Various / Lead with the Bass

Used drive : TSSTcorpCD/DVDW SH-S183L Adapter: 2 ID: 1

Read mode : SecureUtilize accurate stream : YesDefeat audio cache : YesMake use of C2 pointers : No

Read offset correction : 6Overread into Lead-In and Lead-Out : NoFill up missing offset samples with silence : YesDelete leading and trailing silent blocks : NoNull samples used in CRC calculations : YesUsed interface : Native Win32 interface for Win NT & 2000Gap handling : Appended to previous track

Used output format : User Defined EncoderSelected bitrate : 1024 kBit/sQuality : HighAdd ID3 tag : NoCommand line compressor : C:\Program Files\Exact Audio Copy\Flac\flac.exeAdditional command line options : -8 -V -T "ARTIST=%artist%" -T "TITLE=%title%" -T "ALBUM=%albumtitle%" -T "DATE=%year%" -T "TRACKNUMBER=%tracknr%" -T "GENRE=%genre%" -T "PERFORMER=%albuminterpret%" -T "COMPOSER=%composer%" %haslyrics%--tag-from-file=LYRICS

TOC of the extracted CD

Track | Start | Length | Start sector | End sector --------------------------------------------------------- 1 | 0:00.32 | 4:17.58 | 32 | 19364 2 | 4:18.15 | 4:11.55 | 19365 | 38244 3 | 8:29.70 | 4:31.07 | 38245 | 58576 4 | 13:01.02 | 2:46.28 | 58577 | 71054 5 | 15:47.30 | 4:42.17 | 71055 | 92221 6 | 20:29.47 | 3:53.03 | 92222 | 109699 7 | 24:22.50 | 3:52.15 | 109700 | 127114 8 | 28:14.65 | 3:45.17 | 127115 | 144006 9 | 32:00.07 | 4:25.68 | 144007 | 163949 10 | 36:26.00 | 4:25.65 | 163950 | 183889 11 | 40:51.65 | 3:33.02 | 183890 | 199866 12 | 44:24.67 | 3:41.68 | 199867 | 216509 13 | 48:06.60 | 4:19.67 | 216510 | 236001 14 | 52:26.52 | 4:17.43 | 236002 | 255319 15 | 56:44.20 | 4:08.22 | 255320 | 273941 16 | 60:52.42 | 5:07.38 | 273942 | 297004

Track 13

Filename C:\13 - Iration Steppers - High Rise.wav

Pre-gap length 0:00:01.33

Peak level 73.9 % Extraction speed 6.2 X Track quality 99.8 % Test CRC C55055B6 Copy CRC C55055B6 Cannot be verified as accurate (confidence 1) [D259E895], AccurateRip returned [1FBF1E54] (AR v2) Copy OK

No tracks could be verified as accurateYou may have a different pressing from the one(s) in the database

No errors occurred

End of status report

==== Log checksum C1DBC1125C00D0BCA49B27A476B1E3E3F532A01C9777205E35C8DDFFE3CCD02D ====
 
REM GENRE AmbientREM DATE 1996REM DISCID F10F7810REM COMMENT "ExactAudioCopy v1.0b2"PERFORMER "Various"TITLE "Lead with the Bass"FILE "01 - The Disciples - Prowling Lion.wav" WAVE TRACK 01 AUDIO TITLE "Prowling Lion" PERFORMER "The Disciples" PREGAP 00:00:32 INDEX 01 00:00:00 TRACK 02 AUDIO TITLE "Prowling Lion Version" PERFORMER "The Disciples" INDEX 00 04:16:33FILE "02 - The Disciples - Prowling Lion Version.wav" WAVE INDEX 01 00:00:00 TRACK 03 AUDIO TITLE "Beethoven" PERFORMER "Power Steppers" INDEX 00 04:10:30FILE "03 - Power Steppers - Beethoven.wav" WAVE INDEX 01 00:00:00 TRACK 04 AUDIO TITLE "Beethoven Version" PERFORMER "Power Steppers" INDEX 00 04:29:57FILE "04 - Power Steppers - Beethoven Version.wav" WAVE INDEX 01 00:00:00 TRACK 05 AUDIO TITLE "Return to Addis Ababa" PERFORMER "The Disciples" INDEX 00 02:45:03FILE "05 - The Disciples - Return to Addis Ababa.wav" WAVE INDEX 01 00:00:00 TRACK 06 AUDIO TITLE "Return to Addis Ababa Version" PERFORMER "The Disciples" INDEX 00 04:40:67FILE "06 - The Disciples - Return to Addis Ababa Version.wav" WAVE INDEX 01 00:00:00 TRACK 07 AUDIO TITLE "Lord" PERFORMER "The Israelites" INDEX 00 03:51:53FILE "07 - The Israelites - Lord.wav" WAVE INDEX 01 00:00:00 TRACK 08 AUDIO TITLE "Lord Version" PERFORMER "The Israelites" INDEX 00 03:50:65FILE "08 - The Israelites - Lord Version.wav" WAVE INDEX 01 00:00:00 TRACK 09 AUDIO TITLE "Scud Missile" PERFORMER "Iration Steppers" INDEX 00 03:43:67FILE "09 - Iration Steppers - Scud Missile.wav" WAVE INDEX 01 00:00:00 TRACK 10 AUDIO TITLE "Scud Missile Version" PERFORMER "Iration Steppers" INDEX 00 04:24:43FILE "10 - Iration Steppers - Scud Missile Version.wav" WAVE INDEX 01 00:00:00 TRACK 11 AUDIO TITLE "Come together" PERFORMER "The Bush Chemists" INDEX 00 04:24:40FILE "11 - The Bush Chemists - Come together.wav" WAVE INDEX 01 00:00:00 TRACK 12 AUDIO TITLE "Come together Version" PERFORMER "The Bush Chemists" INDEX 00 03:31:52FILE "12 - The Bush Chemists - Come together Version.wav" WAVE INDEX 01 00:00:00 TRACK 13 AUDIO TITLE "High Rise" PERFORMER "Iration Steppers" INDEX 00 03:40:43FILE "13 - Iration Steppers - High Rise.wav" WAVE INDEX 01 00:00:00 TRACK 14 AUDIO TITLE "High Rise Version" PERFORMER "Iration Steppers" INDEX 00 04:18:42FILE "14 - Iration Steppers - High Rise Version.wav" WAVE INDEX 01 00:00:00 TRACK 15 AUDIO TITLE "Make Love not War" PERFORMER "Power Steppers" INDEX 00 04:16:18FILE "15 - Power Steppers - Make Love not War.wav" WAVE INDEX 01 00:00:00 TRACK 16 AUDIO TITLE "Make Love not War Version" PERFORMER "Power Steppers" INDEX 00 04:06:72FILE "16 - Power Steppers - Make Love not War Version.wav" WAVE INDEX 01 00:00:00



Трекер:  [ 15-Дек-2011 17:11 ]

  

Скачать .torrent

Размер .torrent файла 15 KB


Размер: 336 MB
Хэш (hash) релиза: 2b300ca6a36103a6492d6a3f30caa1fc637626a8

Еще никто не оставлял запись к записи скачать торрент VA - Lead With The Bass I - 1995 . Будь первым!

!Обратная связь