100 Bloody Acres (2012) | Hawaii Five-0 Season 8 Eps23 | telecharger gratuit Jurassic World Fallen Kingdom (2018) VOSTFR

Скачать через торрент музыку VA - Lead With The Bass II - 1996 бесплатно без регистрации torrent

Статистика раздачи
Размер:  464 MB   |    Зарегистрирован:  6 лет 8 месяцев   |    .torrent скачан:  42 раза   |   
Раздают:  1  
   
загрузка...
 
Автор Сообщение

Galfimbul

avatar Galfimbul


Various Artists
Lead With The Bass II
CD, Compilation.
Жанр: Dub
Год выпуска диска: 1996
Производитель диска: UK
Аудио кодек: FLAC
Тип рипа: tracks+.cue
Битрейт аудио: lossless
Продолжительность: 01:11:18
.
Трэклист:

01 - Centry - Release The Chains - (05:54)
02 - Centry - Release The Chains (Version) - (05:58)
03 - The Disciples - Dub Revolution - (07:12)
04 - The Disciples - Dub Revolution (Version) - (04:23)
05 - Iration Steppas - Kilimanjaro - (04:56)
06 - Iration Steppas - Kilimanjaro (Version) - (05:39)
07 - Jah Free - Rydim - (04:22)
08 - Jah Free - Rydim (Version) - (04:04)
09 - Armagideon - Weakheart Drop - (03:29)
10 - Armagideon - Weakheart Drop (Version) - (03:29)
11 - Tassilli Players - Sensi - (06:42)
12 - Tassilli Players - Sensi (Version) - (06:16)
13 - Power Steppers - Fanfare - (04:37)
14 - Power Steppers - Fanfare (Version) - (04:17)
.
from what?cd thnx 2 teetee
 
Exact Audio Copy V1.0 beta 1 from 15. November 2010

EAC extraction logfile from 9. February 2011, 17:48

Various Artists / Lead With The Bass II

Used drive : TSSTcorpCDDVDW TS-L633A Adapter: 1 ID: 0

Read mode : SecureUtilize accurate stream : YesDefeat audio cache : YesMake use of C2 pointers : No

Read offset correction : 6Overread into Lead-In and Lead-Out : NoFill up missing offset samples with silence : YesDelete leading and trailing silent blocks : NoNull samples used in CRC calculations : YesUsed interface : Native Win32 interface for Win NT & 2000Gap handling : Appended to previous track

Used output format : User Defined EncoderSelected bitrate : 320 kBit/sQuality : HighAdd ID3 tag : NoCommand line compressor : C:\Program Files\Exact Audio Copy\Flac\flac.exe

TOC of the extracted CD

Track | Start | Length | Start sector | End sector --------------------------------------------------------- 1 | 0:00.00 | 5:54.04 | 0 | 26553 2 | 5:54.04 | 5:57.49 | 26554 | 53377 3 | 11:51.53 | 7:12.30 | 53378 | 85807 4 | 19:04.08 | 4:23.01 | 85808 | 105533 5 | 23:27.09 | 4:56.04 | 105534 | 127737 6 | 28:23.13 | 5:39.27 | 127738 | 153189 7 | 34:02.40 | 4:22.35 | 153190 | 172874 8 | 38:25.00 | 4:03.39 | 172875 | 191138 9 | 42:28.39 | 3:28.44 | 191139 | 206782 10 | 45:57.08 | 3:29.01 | 206783 | 222458 11 | 49:26.09 | 6:41.73 | 222459 | 252606 12 | 56:08.07 | 6:16.11 | 252607 | 280817 13 | 62:24.18 | 4:37.30 | 280818 | 301622 14 | 67:01.48 | 4:16.38 | 301623 | 320860

Track 1

Filename C:\Users\Zenga-Ivona\Desktop\VA - Lead With The Bass Volume 2 (1996) [FLAC]\01. Release The Chains - Centry – Release The Chains - Centry.wav

Pre-gap length 0:00:02.00

Peak level 100.0 % Extraction speed 3.0 X Track quality 100.0 % Test CRC B10378D7 Copy CRC B10378D7 Cannot be verified as accurate (confidence 1) [CE545E04], AccurateRip returned [891D50A2] Copy OK

Track 2

Filename C:\Users\Zenga-Ivona\Desktop\VA - Lead With The Bass Volume 2 (1996) [FLAC]\02. Release The Chains Version – Release The Chains Version.wav

Pre-gap length 0:00:01.60

Peak level 100.0 % Extraction speed 3.3 X Track quality 100.0 % Test CRC 8E60EB67 Copy CRC 8E60EB67 Cannot be verified as accurate (confidence 1) [808CE672], AccurateRip returned [8E93731C] Copy OK

Track 3

Filename C:\Users\Zenga-Ivona\Desktop\VA - Lead With The Bass Volume 2 (1996) [FLAC]\03. Dub Revolution - The Disciples – Dub Revolution - The Disciples.wav

Pre-gap length 0:00:01.60

Peak level 100.0 % Extraction speed 3.8 X Track quality 100.0 % Test CRC 2C3A2A9B Copy CRC 2C3A2A9B Cannot be verified as accurate (confidence 1) [ABD43767], AccurateRip returned [B5457F4C] Copy OK

Track 4

Filename C:\Users\Zenga-Ivona\Desktop\VA - Lead With The Bass Volume 2 (1996) [FLAC]\04. Dub Revolution Version (Dubplate Special) – Dub Revolution Version (Dubplate Special).wav

Pre-gap length 0:00:01.60

Peak level 99.9 % Extraction speed 3.1 X Track quality 99.9 % Test CRC 61FEFAA9 Copy CRC 61FEFAA9 Cannot be verified as accurate (confidence 1) [BDE3860F], AccurateRip returned [C8F91486] Copy OK

Track 5

Filename C:\Users\Zenga-Ivona\Desktop\VA - Lead With The Bass Volume 2 (1996) [FLAC]\05. Kilimanjaro - Iration Steppers – Kilimanjaro - Iration Steppers.wav

Pre-gap length 0:00:01.60

Peak level 100.0 % Extraction speed 4.0 X Track quality 100.0 % Test CRC 30633AD4 Copy CRC 30633AD4 Cannot be verified as accurate (confidence 1) [B4A665C3], AccurateRip returned [2F843E73] Copy OK

Track 6

Filename C:\Users\Zenga-Ivona\Desktop\VA - Lead With The Bass Volume 2 (1996) [FLAC]\06. Kilimanjaro Version (Dubplate Special) – Kilimanjaro Version (Dubplate Special).wav

Pre-gap length 0:00:01.60

Peak level 99.9 % Extraction speed 3.7 X Track quality 99.9 % Test CRC 933015C3 Copy CRC 933015C3 Cannot be verified as accurate (confidence 1) [A180D05B], AccurateRip returned [848DABC0] Copy OK

Track 7

Filename C:\Users\Zenga-Ivona\Desktop\VA - Lead With The Bass Volume 2 (1996) [FLAC]\07. Rydim - Jah Free – Rydim - Jah Free.wav

Pre-gap length 0:00:01.60

Peak level 100.0 % Extraction speed 4.3 X Track quality 100.0 % Test CRC C590799D Copy CRC C590799D Cannot be verified as accurate (confidence 1) [CEE3C987], AccurateRip returned [9E6FCCB3] Copy OK

Track 8

Filename C:\Users\Zenga-Ivona\Desktop\VA - Lead With The Bass Volume 2 (1996) [FLAC]\08. Rydim Version – Rydim Version.wav

Pre-gap length 0:00:01.60

Peak level 100.0 % Extraction speed 4.4 X Track quality 100.0 % Test CRC 1E450173 Copy CRC 1E450173 Cannot be verified as accurate (confidence 1) [CFBBC567], AccurateRip returned [E7D2F918] Copy OK

Track 9

Filename C:\Users\Zenga-Ivona\Desktop\VA - Lead With The Bass Volume 2 (1996) [FLAC]\09. Weakheart Drop - Armagideon Sounds – Weakheart Drop - Armagideon Sounds.wav

Pre-gap length 0:00:01.60

Peak level 100.0 % Extraction speed 3.2 X Track quality 99.9 % Test CRC F0F5EF4F Copy CRC F0F5EF4F Cannot be verified as accurate (confidence 1) [923648F4], AccurateRip returned [261D9EDC] Copy OK

Track 10

Filename C:\Users\Zenga-Ivona\Desktop\VA - Lead With The Bass Volume 2 (1996) [FLAC]\10. Weakheart Drop Version – Weakheart Drop Version.wav

Pre-gap length 0:00:01.60

Peak level 100.0 % Extraction speed 4.5 X Track quality 100.0 % Test CRC 80FE155C Copy CRC 80FE155C Cannot be verified as accurate (confidence 1) [84E71E3B], AccurateRip returned [78307F6F] Copy OK

Track 11

Filename C:\Users\Zenga-Ivona\Desktop\VA - Lead With The Bass Volume 2 (1996) [FLAC]\11. Sensi - The Tassilli Players – Sensi - The Tassilli Players.wav

Pre-gap length 0:00:01.60

Peak level 100.0 % Extraction speed 5.2 X Track quality 100.0 % Test CRC E7E27749 Copy CRC E7E27749 Cannot be verified as accurate (confidence 1) [BC330E75], AccurateRip returned [0422C3E6] Copy OK

Track 12

Filename C:\Users\Zenga-Ivona\Desktop\VA - Lead With The Bass Volume 2 (1996) [FLAC]\12. Sensi Version – Sensi Version.wav

Pre-gap length 0:00:01.60

Peak level 100.0 % Extraction speed 5.4 X Track quality 100.0 % Test CRC 75C6FBCC Copy CRC 75C6FBCC Cannot be verified as accurate (confidence 1) [3B49F451], AccurateRip returned [275A72D4] Copy OK

Track 13

Filename C:\Users\Zenga-Ivona\Desktop\VA - Lead With The Bass Volume 2 (1996) [FLAC]\13. Fanfare - The Power Steppers – Fanfare - The Power Steppers.wav

Pre-gap length 0:00:01.60

Peak level 100.0 % Extraction speed 5.2 X Track quality 100.0 % Test CRC 936B095E Copy CRC 936B095E Cannot be verified as accurate (confidence 1) [E538060F], AccurateRip returned [74CC5064] Copy OK

Track 14

Filename C:\Users\Zenga-Ivona\Desktop\VA - Lead With The Bass Volume 2 (1996) [FLAC]\14. Fanfare Version – Fanfare Version.wav

Pre-gap length 0:00:01.60

Peak level 100.0 % Extraction speed 5.3 X Track quality 100.0 % Test CRC 90E03B74 Copy CRC 90E03B74 Track not present in AccurateRip database Copy OK

13 track(s) could not be verified as accurate 1 track(s) not present in the AccurateRip database

No tracks could be verified as accurateYou may have a different pressing from the one(s) in the database

No errors occurred

End of status report

==== Log checksum 89AC1B30DF352870853F227916FD111A68A02CEF67B19747FFEC3F386E7AFA3B ====

------------------------------------------------------------

Exact Audio Copy V1.0 beta 1 from 15. November 2010

EAC extraction logfile from 9. February 2011, 18:31

Various Artists / Lead With The Bass II

Used drive : TSSTcorpCDDVDW TS-L633A Adapter: 1 ID: 0

Read mode : SecureUtilize accurate stream : YesDefeat audio cache : YesMake use of C2 pointers : No

Read offset correction : 6Overread into Lead-In and Lead-Out : NoFill up missing offset samples with silence : YesDelete leading and trailing silent blocks : NoNull samples used in CRC calculations : YesUsed interface : Native Win32 interface for Win NT & 2000Gap handling : Appended to previous track

Used output format : User Defined EncoderSelected bitrate : 320 kBit/sQuality : HighAdd ID3 tag : NoCommand line compressor : C:\Program Files\Exact Audio Copy\Flac\flac.exe

TOC of the extracted CD

Track | Start | Length | Start sector | End sector --------------------------------------------------------- 1 | 0:00.00 | 5:54.04 | 0 | 26553 2 | 5:54.04 | 5:57.49 | 26554 | 53377 3 | 11:51.53 | 7:12.30 | 53378 | 85807 4 | 19:04.08 | 4:23.01 | 85808 | 105533 5 | 23:27.09 | 4:56.04 | 105534 | 127737 6 | 28:23.13 | 5:39.27 | 127738 | 153189 7 | 34:02.40 | 4:22.35 | 153190 | 172874 8 | 38:25.00 | 4:03.39 | 172875 | 191138 9 | 42:28.39 | 3:28.44 | 191139 | 206782 10 | 45:57.08 | 3:29.01 | 206783 | 222458 11 | 49:26.09 | 6:41.73 | 222459 | 252606 12 | 56:08.07 | 6:16.11 | 252607 | 280817 13 | 62:24.18 | 4:37.30 | 280818 | 301622 14 | 67:01.48 | 4:16.38 | 301623 | 320860

Track 1

Filename C:\Users\Zenga-Ivona\Desktop\VA - Lead With The Bass Volume 2 (1996) [FLAC]\01. Release The Chains – Centry.wav

Pre-gap length 0:00:02.00

Peak level 100.0 % Extraction speed 3.0 X Track quality 100.0 % Test CRC B10378D7 Copy CRC B10378D7 Cannot be verified as accurate (confidence 1) [CE545E04], AccurateRip returned [891D50A2] Copy OK

Track 2

Filename C:\Users\Zenga-Ivona\Desktop\VA - Lead With The Bass Volume 2 (1996) [FLAC]\02. Release The Chains Version – Centry.wav

Pre-gap length 0:00:01.60

Peak level 100.0 % Extraction speed 3.3 X Track quality 100.0 % Test CRC 8E60EB67 Copy CRC 8E60EB67 Cannot be verified as accurate (confidence 1) [808CE672], AccurateRip returned [8E93731C] Copy OK

Track 3

Filename C:\Users\Zenga-Ivona\Desktop\VA - Lead With The Bass Volume 2 (1996) [FLAC]\03. Dub Revolution – The Disciples.wav

Pre-gap length 0:00:01.60

Peak level 100.0 % Extraction speed 3.8 X Track quality 100.0 % Test CRC 2C3A2A9B Copy CRC 2C3A2A9B Cannot be verified as accurate (confidence 1) [ABD43767], AccurateRip returned [B5457F4C] Copy OK

Track 4

Filename C:\Users\Zenga-Ivona\Desktop\VA - Lead With The Bass Volume 2 (1996) [FLAC]\04. Dub Revolution Version (Dubplate Special) – The Disciples.wav

Pre-gap length 0:00:01.60

Peak level 99.9 % Extraction speed 3.1 X Track quality 99.9 % Test CRC 61FEFAA9 Copy CRC 61FEFAA9 Cannot be verified as accurate (confidence 1) [BDE3860F], AccurateRip returned [C8F91486] Copy OK

Track 5

Filename C:\Users\Zenga-Ivona\Desktop\VA - Lead With The Bass Volume 2 (1996) [FLAC]\05. Kilimanjaro – Iration Steppers.wav

Pre-gap length 0:00:01.60

Peak level 100.0 % Extraction speed 4.0 X Track quality 100.0 % Test CRC 30633AD4 Copy CRC 30633AD4 Cannot be verified as accurate (confidence 1) [B4A665C3], AccurateRip returned [2F843E73] Copy OK

Track 6

Filename C:\Users\Zenga-Ivona\Desktop\VA - Lead With The Bass Volume 2 (1996) [FLAC]\06. Kilimanjaro Version (Dubplate Special) – Iration Steppers.wav

Pre-gap length 0:00:01.60

Peak level 99.9 % Extraction speed 3.7 X Track quality 99.9 % Test CRC 933015C3 Copy CRC 933015C3 Cannot be verified as accurate (confidence 1) [A180D05B], AccurateRip returned [848DABC0] Copy OK

Track 7

Filename C:\Users\Zenga-Ivona\Desktop\VA - Lead With The Bass Volume 2 (1996) [FLAC]\07. Rydim – Jah Free.wav

Pre-gap length 0:00:01.60

Peak level 100.0 % Extraction speed 4.3 X Track quality 100.0 % Test CRC C590799D Copy CRC C590799D Cannot be verified as accurate (confidence 1) [CEE3C987], AccurateRip returned [9E6FCCB3] Copy OK

Track 8

Filename C:\Users\Zenga-Ivona\Desktop\VA - Lead With The Bass Volume 2 (1996) [FLAC]\08. Rydim Version – Jah Free.wav

Pre-gap length 0:00:01.60

Peak level 100.0 % Extraction speed 4.1 X Track quality 100.0 % Test CRC 1E450173 Copy CRC 1E450173 Cannot be verified as accurate (confidence 1) [CFBBC567], AccurateRip returned [E7D2F918] Copy OK

Track 9

Filename C:\Users\Zenga-Ivona\Desktop\VA - Lead With The Bass Volume 2 (1996) [FLAC]\09. Weakheart Drop – Armagideon Sounds.wav

Pre-gap length 0:00:01.60

Peak level 100.0 % Extraction speed 4.4 X Track quality 100.0 % Test CRC F0F5EF4F Copy CRC F0F5EF4F Cannot be verified as accurate (confidence 1) [923648F4], AccurateRip returned [261D9EDC] Copy OK

Track 10

Filename C:\Users\Zenga-Ivona\Desktop\VA - Lead With The Bass Volume 2 (1996) [FLAC]\10. Weakheart Drop Version – Armagideon Sounds.wav

Pre-gap length 0:00:01.60

Peak level 100.0 % Extraction speed 4.5 X Track quality 100.0 % Test CRC 80FE155C Copy CRC 80FE155C Cannot be verified as accurate (confidence 1) [84E71E3B], AccurateRip returned [78307F6F] Copy OK

Track 11

Filename C:\Users\Zenga-Ivona\Desktop\VA - Lead With The Bass Volume 2 (1996) [FLAC]\11. Sensi – The Tassilli Players.wav

Pre-gap length 0:00:01.60

Peak level 100.0 % Extraction speed 5.2 X Track quality 100.0 % Test CRC E7E27749 Copy CRC E7E27749 Cannot be verified as accurate (confidence 1) [BC330E75], AccurateRip returned [0422C3E6] Copy OK

Track 12

Filename C:\Users\Zenga-Ivona\Desktop\VA - Lead With The Bass Volume 2 (1996) [FLAC]\12. Sensi Version – The Tassilli Players.wav

Pre-gap length 0:00:01.60

Peak level 100.0 % Extraction speed 5.4 X Track quality 100.0 % Test CRC 75C6FBCC Copy CRC 75C6FBCC Cannot be verified as accurate (confidence 1) [3B49F451], AccurateRip returned [275A72D4] Copy OK

Track 13

Filename C:\Users\Zenga-Ivona\Desktop\VA - Lead With The Bass Volume 2 (1996) [FLAC]\13. Fanfare – The Power Steppers.wav

Pre-gap length 0:00:01.60

Peak level 100.0 % Extraction speed 5.2 X Track quality 100.0 % Test CRC 936B095E Copy CRC 936B095E Cannot be verified as accurate (confidence 1) [E538060F], AccurateRip returned [74CC5064] Copy OK

Track 14

Filename C:\Users\Zenga-Ivona\Desktop\VA - Lead With The Bass Volume 2 (1996) [FLAC]\14. Fanfare Version – The Power Steppers.wav

Pre-gap length 0:00:01.60

Peak level 100.0 % Extraction speed 5.3 X Track quality 100.0 % Test CRC 90E03B74 Copy CRC 90E03B74 Track not present in AccurateRip database Copy OK

13 track(s) could not be verified as accurate 1 track(s) not present in the AccurateRip database

No tracks could be verified as accurateYou may have a different pressing from the one(s) in the database

No errors occurred

End of status report

==== Log checksum 4DC480223DC66277234EB9E88D5FB239EDFA35F6B64F5FDFA3657FB145E54755 ====
 
REM GENRE ReggaeREM DATE 1996REM DISCID BE10B60EREM COMMENT "ExactAudioCopy v1.0b1"FILE "01. Release The Chains – Centry.wav" WAVE TRACK 01 AUDIO INDEX 01 00:00:00 TRACK 02 AUDIO INDEX 00 05:52:34FILE "02. Release The Chains Version – Centry.wav" WAVE INDEX 01 00:00:00 TRACK 03 AUDIO INDEX 00 05:56:04FILE "03. Dub Revolution – The Disciples.wav" WAVE INDEX 01 00:00:00 TRACK 04 AUDIO INDEX 00 07:10:60FILE "04. Dub Revolution Version (Dubplate Special) – The Disciples.wav" WAVE INDEX 01 00:00:00 TRACK 05 AUDIO INDEX 00 04:21:31FILE "05. Kilimanjaro – Iration Steppers.wav" WAVE INDEX 01 00:00:00 TRACK 06 AUDIO INDEX 00 04:54:34FILE "06. Kilimanjaro Version (Dubplate Special) – Iration Steppers.wav" WAVE INDEX 01 00:00:00 TRACK 07 AUDIO INDEX 00 05:37:57FILE "07. Rydim – Jah Free.wav" WAVE INDEX 01 00:00:00 TRACK 08 AUDIO INDEX 00 04:20:65FILE "08. Rydim Version – Jah Free.wav" WAVE INDEX 01 00:00:00 TRACK 09 AUDIO INDEX 00 04:01:69FILE "09. Weakheart Drop – Armagideon Sounds.wav" WAVE INDEX 01 00:00:00 TRACK 10 AUDIO INDEX 00 03:26:74FILE "10. Weakheart Drop Version – Armagideon Sounds.wav" WAVE INDEX 01 00:00:00 TRACK 11 AUDIO INDEX 00 03:27:31FILE "11. Sensi – The Tassilli Players.wav" WAVE INDEX 01 00:00:00 TRACK 12 AUDIO INDEX 00 06:40:28FILE "12. Sensi Version – The Tassilli Players.wav" WAVE INDEX 01 00:00:00 TRACK 13 AUDIO INDEX 00 06:14:41FILE "13. Fanfare – The Power Steppers.wav" WAVE INDEX 01 00:00:00 TRACK 14 AUDIO INDEX 00 04:35:60FILE "14. Fanfare Version – The Power Steppers.wav" WAVE INDEX 01 00:00:00

Y!Machine

Трекер:  [ 15-Дек-2011 17:12 ]

  

Скачать .torrent

Размер .torrent файла 19 KB


Размер: 464 MB
Хэш (hash) релиза: 6303461de99f8194bf009950666c07de19c4d125

Еще никто не оставлял запись к записи скачать торрент VA - Lead With The Bass II - 1996 . Будь первым!

!Обратная связь