Condor Saison 1 | Nigella Christmas | Adventure

Скачать через торрент музыку VA - Lead With The Bass III - 2008 бесплатно без регистрации torrent

Статистика раздачи
Размер:  416 MB   |    Зарегистрирован:  6 лет 7 месяцев   |    .torrent скачан:  18 раз   |   
Раздают:  1  
   
загрузка...
 
Автор Сообщение

Galfimbul

avatar Galfimbul


Various Artists
Lead With The Bass III
CD, Compilation.
Жанр: Dub
Год выпуска диска: 2008
Производитель диска: UK
Аудио кодек: FLAC
Тип рипа: tracks+.cue
Битрейт аудио: lossless
Продолжительность: 01:08:08
.
Трэклист:

01 - Vibronics - Congo Natty - (04:15)
02 - Vibronics - Congo Natty (Dubplate Version) - (04:53)
03 - Dub Terror - No More Stress - (03:50)
Featuring – Tena Stelin
04 - Dub Terror - No More Stress Dub - (03:59)
05 - Dubdadda - Revenger Dub - (05:02)
06 - Dubdadda - Revenger Dub (Dubplate Version) - (05:02)
07 - Abassi All Stars - Gideon Youth - (03:13)
Featuring – Fitta Warri
08 - Abassi All Stars - Crisis Dub - (03:18)
09 - University Of Roots And Culture Sound System - Universal Dub - (04:39)
10 - University Of Roots And Culture Sound System - Universal Dub (Dubplate Version) - (04:52)
11 - Prince David - Evil Fi Burn - (04:06)
12 - Moa-Anbessa - Forward Dub - (04:21)
13 - Ital Horns - Purification - (03:43)
14 - Ital Horns - Purification (Dubplate Version) - (03:43)
15 - Zion Train - Tribute To Keng Keng - (04:36)
16 - Zion Train - Tribute To Keng Keng (Dubplate Version) - (04:36)
.
from what?cd thnx 2 Dubwisah
 
Exact Audio Copy V0.99 prebeta 3 from 28. July 2007

EAC extraction logfile from 29. April 2008, 21:49

Various / Lead With The Bass III

Used drive : NERO IMAGEDRIVE2 Adapter: 10 ID: 0

Read mode : SecureUtilize accurate stream : YesDefeat audio cache : YesMake use of C2 pointers : No

Read offset correction : 102Overread into Lead-In and Lead-Out : NoFill up missing offset samples with silence : YesDelete leading and trailing silent blocks : NoNull samples used in CRC calculations : YesUsed interface : Installed external ASPI interfaceGap handling : Appended to previous track

Used output format : Internal WAV RoutinesSample format : 44.100 Hz; 16 Bit; Stereo

TOC of the extracted CD

Track | Start | Length | Start sector | End sector --------------------------------------------------------- 1 | 0:00.00 | 4:14.53 | 0 | 19102 2 | 4:14.53 | 4:53.17 | 19103 | 41094 3 | 9:07.70 | 3:50.02 | 41095 | 58346 4 | 12:57.72 | 3:58.50 | 58347 | 76246 5 | 16:56.47 | 5:01.64 | 76247 | 98885 6 | 21:58.36 | 5:01.60 | 98886 | 121520 7 | 27:00.21 | 3:13.25 | 121521 | 136020 8 | 30:13.46 | 3:18.26 | 136021 | 150896 9 | 33:31.72 | 4:38.47 | 150897 | 171793 10 | 38:10.44 | 4:52.07 | 171794 | 193700 11 | 43:02.51 | 4:06.33 | 193701 | 212183 12 | 47:09.09 | 4:21.35 | 212184 | 231793 13 | 51:30.44 | 3:43.30 | 231794 | 248548 14 | 55:13.74 | 3:43.22 | 248549 | 265295 15 | 58:57.21 | 4:35.38 | 265296 | 285958 16 | 63:32.59 | 4:35.38 | 285959 | 306621

Track 1

Filename D:\_Music\Rips\01 - Vibronics - Congo Natty.wav

Pre-gap length 0:00:02.00

Peak level 97.7 % Track quality 99.9 % Test CRC 9B75CB3B Copy CRC 9B75CB3B Track not present in AccurateRip database Copy OK

Track 2

Filename D:\_Music\Rips\02 - Vibronics - Congo Natty (Dubplate Version).wav

Peak level 97.7 % Track quality 99.9 % Test CRC E3759161 Copy CRC E3759161 Track not present in AccurateRip database Copy OK

Track 3

Filename D:\_Music\Rips\03 - Dub Terror ft. Tena Stelin - No More Stress.wav

Peak level 97.7 % Track quality 100.0 % Test CRC E442574A Copy CRC E442574A Track not present in AccurateRip database Copy OK

Track 4

Filename D:\_Music\Rips\04 - Dub Terror - No More Stress Dub.wav

Peak level 97.7 % Track quality 100.0 % Test CRC CA68217A Copy CRC CA68217A Track not present in AccurateRip database Copy OK

Track 5

Filename D:\_Music\Rips\05 - Dubdadda - Revenger Dub.wav

Peak level 97.7 % Track quality 99.9 % Test CRC CC2273FB Copy CRC CC2273FB Track not present in AccurateRip database Copy OK

Track 6

Filename D:\_Music\Rips\06 - Dubdadda - Revenger Dub (Dubplate Version).wav

Peak level 97.7 % Track quality 100.0 % Test CRC 3FC4BC41 Copy CRC 3FC4BC41 Track not present in AccurateRip database Copy OK

Track 7

Filename D:\_Music\Rips\07 - Abassi All Stars ft. Fitta Warri - Gideon Youth.wav

Peak level 97.7 % Track quality 100.0 % Test CRC 74C8D94C Copy CRC 74C8D94C Track not present in AccurateRip database Copy OK

Track 8

Filename D:\_Music\Rips\08 - Abassi All Stars - Crisis Dub.wav

Peak level 93.3 % Track quality 100.0 % Test CRC 6AF58AD0 Copy CRC 6AF58AD0 Track not present in AccurateRip database Copy OK

Track 9

Filename D:\_Music\Rips\09 - University Of Roots and Culture Sound System - Universal Dub.wav

Peak level 99.9 % Track quality 99.9 % Test CRC 8562CFD3 Copy CRC 8562CFD3 Track not present in AccurateRip database Copy OK

Track 10

Filename D:\_Music\Rips\10 - University Of Roots and Culture Sound System - Universal Dub (Dubplate Version).wav

Peak level 93.9 % Track quality 100.0 % Test CRC 1A1CDAC5 Copy CRC 1A1CDAC5 Track not present in AccurateRip database Copy OK

Track 11

Filename D:\_Music\Rips\11 - Prince David - Evil Fi Burn.wav

Peak level 97.7 % Track quality 100.0 % Test CRC B0685CCD Copy CRC B0685CCD Track not present in AccurateRip database Copy OK

Track 12

Filename D:\_Music\Rips\12 - Moa-Anbessa - Forward Dub.wav

Peak level 97.7 % Track quality 100.0 % Test CRC D1F08CE5 Copy CRC D1F08CE5 Track not present in AccurateRip database Copy OK

Track 13

Filename D:\_Music\Rips\13 - Ital Horns - Purification.wav

Peak level 94.5 % Track quality 100.0 % Test CRC 6F12AB24 Copy CRC 6F12AB24 Track not present in AccurateRip database Copy OK

Track 14

Filename D:\_Music\Rips\14 - Ital Horns - Purification (Dubplate Version).wav

Peak level 94.5 % Track quality 100.0 % Test CRC E5261825 Copy CRC E5261825 Track not present in AccurateRip database Copy OK

Track 15

Filename D:\_Music\Rips\15 - Zion Train - Tribute To Keng Keng.wav

Peak level 97.7 % Track quality 100.0 % Test CRC 369E1AA6 Copy CRC 369E1AA6 Track not present in AccurateRip database Copy OK

Track 16

Filename D:\_Music\Rips\16 - Zion Train - Tribute To Keng Keng (Dubplate Version).wav

Peak level 97.7 % Track quality 100.0 % Test CRC B08D9737 Copy CRC B08D9737 Track not present in AccurateRip database Copy OK

None of the tracks are present in the AccurateRip database

No errors occurred

End of status report
 
REM GENRE DubREM DATE 2008REM DISCID D60FF810REM COMMENT "ExactAudioCopy v0.99pb3"PERFORMER "Various"TITLE "Lead With The Bass III"FILE "01 - Vibronics - Congo Natty.wav" WAVE TRACK 01 AUDIO TITLE "Vibronics - Congo Natty" PERFORMER "Vibronics - Congo Natty" INDEX 01 00:00:00FILE "02 - Vibronics - Congo Natty (Dubplate Version).wav" WAVE TRACK 02 AUDIO TITLE "Vibronics - Congo Natty (Dubplate Version)" PERFORMER "Vibronics - Congo Natty (Dubplate Version)" INDEX 01 00:00:00FILE "03 - Dub Terror ft. Tena Stelin - No More Stress.wav" WAVE TRACK 03 AUDIO TITLE "Dub Terror ft. Tena Stelin - No More Stress" PERFORMER "Dub Terror ft. Tena Stelin - No More Stress" INDEX 01 00:00:00FILE "04 - Dub Terror - No More Stress Dub.wav" WAVE TRACK 04 AUDIO TITLE "Dub Terror - No More Stress Dub" PERFORMER "Dub Terror - No More Stress Dub" INDEX 01 00:00:00FILE "05 - Dubdadda - Revenger Dub.wav" WAVE TRACK 05 AUDIO TITLE "Dubdadda - Revenger Dub" PERFORMER "Dubdadda - Revenger Dub" INDEX 01 00:00:00FILE "06 - Dubdadda - Revenger Dub (Dubplate Version).wav" WAVE TRACK 06 AUDIO TITLE "Dubdadda - Revenger Dub (Dubplate Version)" PERFORMER "Dubdadda - Revenger Dub (Dubplate Version)" INDEX 01 00:00:00FILE "07 - Abassi All Stars ft. Fitta Warri - Gideon Youth.wav" WAVE TRACK 07 AUDIO TITLE "Abassi All Stars ft. Fitta Warri - Gideon Youth" PERFORMER "Abassi All Stars ft. Fitta Warri - Gideon Youth" INDEX 01 00:00:00FILE "08 - Abassi All Stars - Crisis Dub.wav" WAVE TRACK 08 AUDIO TITLE "Abassi All Stars - Crisis Dub" PERFORMER "Abassi All Stars - Crisis Dub" INDEX 01 00:00:00FILE "09 - University Of Roots and Culture Sound System - Universal Dub.wav" WAVE TRACK 09 AUDIO TITLE "University Of Roots and Culture Sound System - Universal Dub" PERFORMER "University Of Roots and Culture Sound System - Universal Dub" INDEX 01 00:00:00FILE "10 - University Of Roots and Culture Sound System - Universal Dub (Dubplate Version).wav" WAVE TRACK 10 AUDIO TITLE "University Of Roots and Culture Sound System - Universal Dub (Dubplate Version)" PERFORMER "University Of Roots and Culture Sound System - Universal Dub (Dubplate Version)" INDEX 01 00:00:00FILE "11 - Prince David - Evil Fi Burn.wav" WAVE TRACK 11 AUDIO TITLE "Prince David - Evil Fi Burn" PERFORMER "Prince David - Evil Fi Burn" INDEX 01 00:00:00FILE "12 - Moa-Anbessa - Forward Dub.wav" WAVE TRACK 12 AUDIO TITLE "Moa-Anbessa - Forward Dub" PERFORMER "Moa-Anbessa - Forward Dub" INDEX 01 00:00:00FILE "13 - Ital Horns - Purification.wav" WAVE TRACK 13 AUDIO TITLE "Ital Horns - Purification" PERFORMER "Ital Horns - Purification" INDEX 01 00:00:00FILE "14 - Ital Horns - Purification (Dubplate Version).wav" WAVE TRACK 14 AUDIO TITLE "Ital Horns - Purification (Dubplate Version)" PERFORMER "Ital Horns - Purification (Dubplate Version)" INDEX 01 00:00:00FILE "15 - Zion Train - Tribute To Keng Keng.wav" WAVE TRACK 15 AUDIO TITLE "Zion Train - Tribute To Keng Keng" PERFORMER "Zion Train - Tribute To Keng Keng" INDEX 01 00:00:00FILE "16 - Zion Train - Tribute To Keng Keng (Dubplate Version).wav" WAVE TRACK 16 AUDIO TITLE "Zion Train - Tribute To Keng Keng (Dubplate Version)" PERFORMER "Zion Train - Tribute To Keng Keng (Dubplate Version)" INDEX 01 00:00:00


Трекер:  [ 15-Дек-2011 17:12 ]

  

Скачать .torrent

Размер .torrent файла 18 KB


Размер: 416 MB
Хэш (hash) релиза: 3877b994f35c92363bbf13ca08f582b289380ae3

Еще никто не оставлял запись к записи скачать торрент VA - Lead With The Bass III - 2008 . Будь первым!

!Обратная связь