Télécharger Part 1 | Generation Kill | The Last Ship saison 2 streaming

Скачать через торрент музыку VA - Tougher Than Tough: The Story Of Jamaican Music - 1993, FLAC бесплатно без регистрации torrent

Статистика раздачи
Размер:  1.63 GB   |    Зарегистрирован:  6 лет 7 месяцев   |    .torrent скачан:  54 раза   |   
Раздают:  1  
   
загрузка...
 
Автор Сообщение

Galfimbul

avatar Galfimbul


Tougher Than Tough: The Story Of Jamaican Music

Жанр: Reggae, Roots Reggae, Ska, Dancehall, Rocksteady
Страна-производитель диска: Germany (CDs)/England (Package)
Год издания диска: 1993
Издатель (лейбл): Mango Street (sublabel of Island Records)
Номер по каталогу: Mango – 518 399-2, Mango – IBXCD 1
Аудиокодек: FLAC (*.flac)
Тип рипа: tracks+.cue
Битрейт аудио: lossless
Продолжительность: 310:16 (76:25 + 77:04 + 78:00 + 78:46)
Источник (релизер): [email protected]
Наличие сканов в содержимом раздачи: нет
 
Forward March 1958-1967 DISC 1:1. Oh Carolina - Folkes Brothers2. Boogie In My Bones - Laurel Aitken3. Midnight Track - Owen Gray4. Easy Snappin' - Theophilus Beckford5. Housewives Choice - Derrick & Patsy6. Forward March - Derrick Morgan7. Miss Jamaica - Jimmy Cliff8. My Boy Lollipop - Millie Small9. Six And Seven Books Of Moses - The Maytals10. Simmer Down - The Wailers11. Man In The Street - Don Drummond12. Carry Go Bring Come - Justin Hinds & The Dominoes13. Guns Of Navarone - The Skatalites14. Al Capone - Prince Buster15. Hard Man Fe Dead - Prince Buster16. Tougher Than Tough - Derrick Morgan17. Girl I've Got A Date - Alton Ellis18. Happy Go Lucky Girl - The Paragons19. Dancing Mood - Delroy Wilson20. Train Is Coming, The - Ken Boothe21. Take It Easy - Hopeton Lewis22. Ba Ba Boom - The Jamaicans23. 007 (Shanty Town) - Desmond Dekker24. I've Got To Go Back Home - Bob Andy25. Queen Majesty - The Techniques26. Loving Pauper - Dobby Dobson27. Don't Stay Away - Phyllis Dillon

Reggae Hits The Town 1968-1974 DISC 2:1. Israelites - Desmond Dekker2. 54-46 (That's My Number) - The Maytals3. Reggae Hit The Town - The Ethiopians4. Wet Dream - Max Romeo5. My Conversation - The Uniques6. Bangarang - Stranger Cole/Lester Sterling7. Return Of Django - The Upsetters8. Liquidator, The - Harry J. All Stars9. Rivers Of Babylon - The Melodians10. Harder They Come, The - Jimmy Cliff11. Young, Gifted & Black - Bob & Marcia12. Wake The Town - U Roy13. How Long - Pat Kelly14. Double Barrel - Dave & Ansel Collins15. Blood & Fire - Niney The Observer16. Cherry Oh Baby - Eric Donaldson17. Better Must Come - Delroy Wilson18. Money In My Pocket - Dennis Brown19. Stick By Me - John Holt20. Teach The Children - Dennis Alcapone21. S.90 Skank - Big Youth22. Everything I Own - Ken Boothe23. Westbound Train - Dennis Brown24. Move Out A Babylon - Johnnie Clarke25. Curly Locks - Junior Byles

Natty Sing Hit Songs 1975-1981 DISC 3:1. Country Boy - The Heptones2. Welding - I Roy3. Marcus Garvey - Burning Spear4. Right Time - The Mighty Diamonds5. Natty Sing Hit Songs - Roman Stewart6. Ballistic Affair - Leroy Smart7. Tenement Yard - Jacob Miller8. War Ina Babylon - Max Romeo9. Police & Thieves - Junior Murvin10. Two Sevens Clash - Culture11. I'm Still Waiting - Delroy Wilson12. No Woman No Cry - Bob Marley & The Wailers13. Uptown Top Ranking - Althea & Donna14. Number One - Gregory Isaacs15. Bredda Gravalicious - Wailing Souls16. River Jordan - Sugar Minott17. Armagideon Time - Willie Williams18. Guess Who's Coming To Dinner - Black Uhuru19. Fort Augustus - Junior Delgado20. Joggin' - Freddie McGregor21. Sitting & Watching - Dennis Brown

Dance Hall Good To We 1982-1993 DISC 4:1. Night Nurse - Gregory Isaacs2. Mad Over Me - Yellowman3. Diseases - Michigan & Smiley4. Water Pumping - Johnnie Osbourne5. Pass The Tusheng Peng - Frankie Paul6. Here I Come - Barrington Levy7. Ring The Alarm - Tenor Saw8. Under Me Sleng Teng - Wayne Smith9. Tempo - Anthony Red Rose10. Boops - Supercat11. Greetings - Half Pint12. Punanny - Admiral Bailey13. Hol' A Fresh - Red Dragon14. Rumours - Gregory Isaacs15. Cover Me - Tinga Stewart/Ninjaman16. Legal Rights - Papa San/Lady G17. Wicked Inna Bed - Shabba Ranks18. Bandolero - Pinchers19. Yuh Dead Now - Tiger20. Bogle Dance - Buju Banton21. Murder She Wrote - Chaka Demus & Pliers22. Oh Carolina - Shaggy
 
Exact Audio Copy V0.99 prebeta 5 from 4. May 2009

EAC extraction logfile from 15. September 2010, 16:24

Various Artists / Tougher Than Tough - The Story of Jamaican Music - 1958-1967 Forward March (Disc 1)

Used drive : TSSTcorpCDDVDW SH-S223F Adapter: 1 ID: 1

Read mode : SecureUtilize accurate stream : YesDefeat audio cache : YesMake use of C2 pointers : No

Read offset correction : 6Overread into Lead-In and Lead-Out : NoFill up missing offset samples with silence : YesDelete leading and trailing silent blocks : NoNull samples used in CRC calculations : YesUsed interface : Native Win32 interface for Win NT & 2000Gap handling : Appended to previous track

Used output format : User Defined EncoderSelected bitrate : 1024 kBit/sQuality : HighAdd ID3 tag : NoCommand line compressor : C:\Program Files\Exact Audio Copy\Flac\flac.exeAdditional command line options : -V -8 -T "artist=%a" -T "title=%t" -T "album=%g" -T "date=%y" -T "tracknumber=%n" -T "genre=%m" %s

TOC of the extracted CD

Track | Start | Length | Start sector | End sector --------------------------------------------------------- 1 | 0:00.00 | 2:40.55 | 0 | 12054 2 | 2:40.55 | 2:47.45 | 12055 | 24624 3 | 5:28.25 | 2:27.40 | 24625 | 35689 4 | 7:55.65 | 2:50.52 | 35690 | 48491 5 | 10:46.42 | 2:40.58 | 48492 | 60549 6 | 13:27.25 | 2:50.45 | 60550 | 73344 7 | 16:17.70 | 2:25.60 | 73345 | 84279 8 | 18:43.55 | 2:01.27 | 84280 | 93381 9 | 20:45.07 | 2:25.25 | 93382 | 104281 10 | 23:10.32 | 2:48.25 | 104282 | 116906 11 | 25:58.57 | 3:23.60 | 116907 | 132191 12 | 29:22.42 | 2:51.25 | 132192 | 145041 13 | 32:13.67 | 2:28.70 | 145042 | 156211 14 | 34:42.62 | 2:56.73 | 156212 | 169484 15 | 37:39.60 | 3:22.25 | 169485 | 184659 16 | 41:02.10 | 2:26.15 | 184660 | 195624 17 | 43:28.25 | 2:24.45 | 195625 | 206469 18 | 45:52.70 | 3:06.17 | 206470 | 220436 19 | 48:59.12 | 2:51.48 | 220437 | 233309 20 | 51:50.60 | 3:20.17 | 233310 | 248326 21 | 55:11.02 | 2:49.43 | 248327 | 261044 22 | 58:00.45 | 3:20.02 | 261045 | 276046 23 | 61:20.47 | 2:42.05 | 276047 | 288201 24 | 64:02.52 | 3:05.08 | 288202 | 302084 25 | 67:07.60 | 3:31.02 | 302085 | 317911 26 | 70:38.62 | 3:15.03 | 317912 | 332539 27 | 73:53.65 | 2:31.45 | 332540 | 343909

Track 1

Filename C:\EAC\Tougher Than Tough - The Story of Jamaican Music - 1958-1967 Forward March (Disc 1) (1993) - FLAC\01 - Folkes Brothers - Oh Carolina.wav

Pre-gap length 0:00:02.00

Peak level 100.0 % Track quality 99.9 % Test CRC D1C1C6C2 Copy CRC D1C1C6C2 Accurately ripped (confidence 11) [35C72EF8] Copy OK

Track 2

Filename C:\EAC\Tougher Than Tough - The Story of Jamaican Music - 1958-1967 Forward March (Disc 1) (1993) - FLAC\02 - Laurel Aitken - Boogie In My Bones.wav

Pre-gap length 0:00:00.50

Peak level 97.4 % Track quality 100.0 % Test CRC 18208ED7 Copy CRC 18208ED7 Accurately ripped (confidence 11) [7F48A320] Copy OK

Track 3

Filename C:\EAC\Tougher Than Tough - The Story of Jamaican Music - 1958-1967 Forward March (Disc 1) (1993) - FLAC\03 - Owen Gray - Midnight Track.wav

Pre-gap length 0:00:00.90

Peak level 86.7 % Track quality 100.0 % Test CRC 4BBF59FF Copy CRC 4BBF59FF Accurately ripped (confidence 11) [F30B1213] Copy OK

Track 4

Filename C:\EAC\Tougher Than Tough - The Story of Jamaican Music - 1958-1967 Forward March (Disc 1) (1993) - FLAC\04 - Theophilus Beckford - Easy Snappin'.wav

Pre-gap length 0:00:00.66

Peak level 96.0 % Track quality 99.9 % Test CRC D12696C4 Copy CRC D12696C4 Accurately ripped (confidence 11) [4C472187] Copy OK

Track 5

Filename C:\EAC\Tougher Than Tough - The Story of Jamaican Music - 1958-1967 Forward March (Disc 1) (1993) - FLAC\05 - Derrick & Patsy - Housewives Choice.wav

Pre-gap length 0:00:01.00

Peak level 98.7 % Track quality 100.0 % Test CRC 77F0EBF8 Copy CRC 77F0EBF8 Accurately ripped (confidence 11) [20E373FE] Copy OK

Track 6

Filename C:\EAC\Tougher Than Tough - The Story of Jamaican Music - 1958-1967 Forward March (Disc 1) (1993) - FLAC\06 - Derrick Morgan - Forward March.wav

Pre-gap length 0:00:01.37

Peak level 99.0 % Track quality 100.0 % Test CRC E7CFB603 Copy CRC E7CFB603 Accurately ripped (confidence 11) [0283CC8C] Copy OK

Track 7

Filename C:\EAC\Tougher Than Tough - The Story of Jamaican Music - 1958-1967 Forward March (Disc 1) (1993) - FLAC\07 - Jimmy Cliff - Miss Jamaica.wav

Pre-gap length 0:00:01.44

Peak level 99.1 % Track quality 99.9 % Test CRC 19C7B049 Copy CRC 19C7B049 Accurately ripped (confidence 11) [6313ABB1] Copy OK

Track 8

Filename C:\EAC\Tougher Than Tough - The Story of Jamaican Music - 1958-1967 Forward March (Disc 1) (1993) - FLAC\08 - Millie - My Boy Lollipop.wav

Pre-gap length 0:00:00.57

Peak level 97.7 % Track quality 100.0 % Test CRC A57F3F1D Copy CRC A57F3F1D Accurately ripped (confidence 11) [B01A34BB] Copy OK

Track 9

Filename C:\EAC\Tougher Than Tough - The Story of Jamaican Music - 1958-1967 Forward March (Disc 1) (1993) - FLAC\09 - The Maytals - Six And Seven Books Of Moses.wav

Pre-gap length 0:00:01.16

Peak level 96.9 % Track quality 100.0 % Test CRC 26DA7567 Copy CRC 26DA7567 Accurately ripped (confidence 11) [49895A35] Copy OK

Track 10

Filename C:\EAC\Tougher Than Tough - The Story of Jamaican Music - 1958-1967 Forward March (Disc 1) (1993) - FLAC\10 - The Wailers - Simmer Down.wav

Pre-gap length 0:00:00.82

Peak level 81.7 % Track quality 99.9 % Test CRC A5291678 Copy CRC A5291678 Accurately ripped (confidence 11) [C92FA061] Copy OK

Track 11

Filename C:\EAC\Tougher Than Tough - The Story of Jamaican Music - 1958-1967 Forward March (Disc 1) (1993) - FLAC\11 - Don Drummond - Man In The Street.wav

Pre-gap length 0:00:00.82

Peak level 94.1 % Track quality 100.0 % Test CRC 5F5D2F2A Copy CRC 5F5D2F2A Accurately ripped (confidence 11) [FDC0E69F] Copy OK

Track 12

Filename C:\EAC\Tougher Than Tough - The Story of Jamaican Music - 1958-1967 Forward March (Disc 1) (1993) - FLAC\12 - Justin Hines & The Dominoes - Carry Go Bring Come.wav

Pre-gap length 0:00:01.13

Peak level 95.9 % Track quality 99.9 % Test CRC 076FF494 Copy CRC 076FF494 Accurately ripped (confidence 11) [651E85E9] Copy OK

Track 13

Filename C:\EAC\Tougher Than Tough - The Story of Jamaican Music - 1958-1967 Forward March (Disc 1) (1993) - FLAC\13 - Skatalites - Guns Of Navarone.wav

Pre-gap length 0:00:01.00

Peak level 98.0 % Track quality 100.0 % Test CRC 3C7037C0 Copy CRC 3C7037C0 Accurately ripped (confidence 11) [A18F91F9] Copy OK

Track 14

Filename C:\EAC\Tougher Than Tough - The Story of Jamaican Music - 1958-1967 Forward March (Disc 1) (1993) - FLAC\14 - Prince Buster - Al Capone.wav

Pre-gap length 0:00:01.26

Peak level 92.1 % Track quality 99.9 % Test CRC 4D249C97 Copy CRC 4D249C97 Accurately ripped (confidence 11) [97C34F37] Copy OK

Track 15

Filename C:\EAC\Tougher Than Tough - The Story of Jamaican Music - 1958-1967 Forward March (Disc 1) (1993) - FLAC\15 - Prince Buster - Hard Man Fe Dead.wav

Pre-gap length 0:00:00.93

Peak level 98.2 % Track quality 100.0 % Test CRC 63371CBA Copy CRC 63371CBA Accurately ripped (confidence 11) [EB34C62B] Copy OK

Track 16

Filename C:\EAC\Tougher Than Tough - The Story of Jamaican Music - 1958-1967 Forward March (Disc 1) (1993) - FLAC\16 - Derrick Morgan - Tougher Than Tough.wav

Pre-gap length 0:00:00.90

Peak level 99.0 % Track quality 100.0 % Test CRC 862F15F7 Copy CRC 862F15F7 Accurately ripped (confidence 11) [EA07D330] Copy OK

Track 17

Filename C:\EAC\Tougher Than Tough - The Story of Jamaican Music - 1958-1967 Forward March (Disc 1) (1993) - FLAC\17 - Alton Ellis - Girl I've Got A Date.wav

Pre-gap length 0:00:01.24

Peak level 97.0 % Track quality 100.0 % Test CRC 93BFDE7E Copy CRC 93BFDE7E Accurately ripped (confidence 11) [61E0FE1E] Copy OK

Track 18

Filename C:\EAC\Tougher Than Tough - The Story of Jamaican Music - 1958-1967 Forward March (Disc 1) (1993) - FLAC\18 - The Paragons - Happy Go Lucky Girl.wav

Pre-gap length 0:00:01.37

Peak level 95.0 % Track quality 100.0 % Test CRC 0212E79C Copy CRC 0212E79C Accurately ripped (confidence 11) [C1A0F2EE] Copy OK

Track 19

Filename C:\EAC\Tougher Than Tough - The Story of Jamaican Music - 1958-1967 Forward March (Disc 1) (1993) - FLAC\19 - Delroy Wilson - Dancing Mood.wav

Pre-gap length 0:00:01.60

Peak level 93.4 % Track quality 100.0 % Test CRC 4F3CC757 Copy CRC 4F3CC757 Accurately ripped (confidence 11) [992D6644] Copy OK

Track 20

Filename C:\EAC\Tougher Than Tough - The Story of Jamaican Music - 1958-1967 Forward March (Disc 1) (1993) - FLAC\20 - Ken Boothe - The Train Is Coming.wav

Pre-gap length 0:00:01.33

Peak level 99.0 % Track quality 99.9 % Test CRC 3E2E0F12 Copy CRC 3E2E0F12 Accurately ripped (confidence 11) [524C2CEC] Copy OK

Track 21

Filename C:\EAC\Tougher Than Tough - The Story of Jamaican Music - 1958-1967 Forward March (Disc 1) (1993) - FLAC\21 - Hopeton Lewis - Take It Easy.wav

Pre-gap length 0:00:00.66

Peak level 99.1 % Track quality 100.0 % Test CRC ED6E4621 Copy CRC ED6E4621 Accurately ripped (confidence 11) [E94690CD] Copy OK

Track 22

Filename C:\EAC\Tougher Than Tough - The Story of Jamaican Music - 1958-1967 Forward March (Disc 1) (1993) - FLAC\22 - The Jamaicans - Ba Ba Boom.wav

Pre-gap length 0:00:01.10

Peak level 99.1 % Track quality 100.0 % Test CRC A09A59FB Copy CRC A09A59FB Accurately ripped (confidence 10) [92E6996A] Copy OK

Track 23

Filename C:\EAC\Tougher Than Tough - The Story of Jamaican Music - 1958-1967 Forward March (Disc 1) (1993) - FLAC\23 - Desmond Dekker - 007 (Shanty Town).wav

Pre-gap length 0:00:01.00

Peak level 79.4 % Track quality 100.0 % Test CRC 05508BEE Copy CRC 05508BEE Accurately ripped (confidence 10) [E7771DF8] Copy OK

Track 24

Filename C:\EAC\Tougher Than Tough - The Story of Jamaican Music - 1958-1967 Forward March (Disc 1) (1993) - FLAC\24 - Bob Andy - I've Got To Go Back Home.wav

Pre-gap length 0:00:00.80

Peak level 94.6 % Track quality 100.0 % Test CRC D0377FB8 Copy CRC D0377FB8 Accurately ripped (confidence 11) [DCBB6770] Copy OK

Track 25

Filename C:\EAC\Tougher Than Tough - The Story of Jamaican Music - 1958-1967 Forward March (Disc 1) (1993) - FLAC\25 - The Techniques - Queen Majesty.wav

Pre-gap length 0:00:00.64

Peak level 86.2 % Track quality 100.0 % Test CRC DDE5AD57 Copy CRC DDE5AD57 Accurately ripped (confidence 11) [DD3AC871] Copy OK

Track 26

Filename C:\EAC\Tougher Than Tough - The Story of Jamaican Music - 1958-1967 Forward March (Disc 1) (1993) - FLAC\26 - Dobby Dobson - Loving Pauper.wav

Pre-gap length 0:00:00.33

Peak level 99.1 % Track quality 100.0 % Test CRC 276B9E85 Copy CRC 276B9E85 Accurately ripped (confidence 11) [22D4ED96] Copy OK

Track 27

Filename C:\EAC\Tougher Than Tough - The Story of Jamaican Music - 1958-1967 Forward March (Disc 1) (1993) - FLAC\27 - Phyllis Dillon - Don't Stay Away.wav

Pre-gap length 0:00:00.24

Peak level 96.3 % Track quality 100.0 % Test CRC 5663EA1C Copy CRC 5663EA1C Accurately ripped (confidence 11) [A8810A5C] Copy OK

All tracks accurately ripped

No errors occurred

End of status report

-----------------------------

Exact Audio Copy V0.99 prebeta 5 from 4. May 2009

EAC extraction logfile from 15. September 2010, 20:21

Various Artists / Tougher Than Tough - The Story of Jamaican Music - 1968-1974 Reggae Hit The Town (Disc 2)

Used drive : TSSTcorpCDDVDW SH-S223F Adapter: 1 ID: 1

Read mode : SecureUtilize accurate stream : YesDefeat audio cache : YesMake use of C2 pointers : No

Read offset correction : 6Overread into Lead-In and Lead-Out : NoFill up missing offset samples with silence : YesDelete leading and trailing silent blocks : NoNull samples used in CRC calculations : YesUsed interface : Native Win32 interface for Win NT & 2000Gap handling : Appended to previous track

Used output format : User Defined EncoderSelected bitrate : 1024 kBit/sQuality : HighAdd ID3 tag : NoCommand line compressor : C:\Program Files\Exact Audio Copy\Flac\flac.exeAdditional command line options : -V -8 -T "artist=%a" -T "title=%t" -T "album=%g" -T "date=%y" -T "tracknumber=%n" -T "genre=%m" %s

TOC of the extracted CD

Track | Start | Length | Start sector | End sector --------------------------------------------------------- 1 | 0:00.00 | 2:48.67 | 0 | 12666 2 | 2:48.67 | 2:54.53 | 12667 | 25769 3 | 5:43.45 | 2:25.25 | 25770 | 36669 4 | 8:08.70 | 2:48.55 | 36670 | 49324 5 | 10:57.50 | 3:38.40 | 49325 | 65714 6 | 14:36.15 | 3:08.67 | 65715 | 79881 7 | 17:45.07 | 2:25.55 | 79882 | 90811 8 | 20:10.62 | 2:52.68 | 90812 | 103779 9 | 23:03.55 | 4:16.20 | 103780 | 122999 10 | 27:20.00 | 3:40.25 | 123000 | 139524 11 | 31:00.25 | 3:06.07 | 139525 | 153481 12 | 34:06.32 | 2:27.10 | 153482 | 164516 13 | 36:33.42 | 3:54.43 | 164517 | 182109 14 | 40:28.10 | 2:47.70 | 182110 | 194704 15 | 43:16.05 | 3:05.47 | 194705 | 208626 16 | 46:21.52 | 3:02.00 | 208627 | 222276 17 | 49:23.52 | 2:33.73 | 222277 | 233824 18 | 51:57.50 | 2:33.25 | 233825 | 245324 19 | 54:31.00 | 3:19.15 | 245325 | 260264 20 | 57:50.15 | 2:30.62 | 260265 | 271576 21 | 60:21.02 | 2:50.13 | 271577 | 284339 22 | 63:11.15 | 3:44.17 | 284340 | 301156 23 | 66:55.32 | 3:07.53 | 301157 | 315234 24 | 70:03.10 | 3:38.32 | 315235 | 331616 25 | 73:41.42 | 3:22.33 | 331617 | 346799

Track 1

Filename C:\EAC\Tougher Than Tough - The Story of Jamaican Music - 1968-1974 Reggae Hit The Town (Disc 2) (1993) - FLAC\01 - Desmond Dekker - Israelites.wav

Pre-gap length 0:00:02.00

Peak level 97.7 % Track quality 100.0 % Test CRC CC199D14 Copy CRC CC199D14 Accurately ripped (confidence 10) [C42048D2] Copy OK

Track 2

Filename C:\EAC\Tougher Than Tough - The Story of Jamaican Music - 1968-1974 Reggae Hit The Town (Disc 2) (1993) - FLAC\02 - The Maytals - 54-46 (That's My Number).wav

Pre-gap length 0:00:00.33

Peak level 97.7 % Track quality 100.0 % Test CRC B237C956 Copy CRC B237C956 Accurately ripped (confidence 10) [05DCF2D3] Copy OK

Track 3

Filename C:\EAC\Tougher Than Tough - The Story of Jamaican Music - 1968-1974 Reggae Hit The Town (Disc 2) (1993) - FLAC\03 - The Ethiopians - Reggae Hit The Town.wav

Pre-gap length 0:00:00.44

Peak level 91.3 % Track quality 100.0 % Test CRC 87F48464 Copy CRC 87F48464 Accurately ripped (confidence 10) [78CD9D5B] Copy OK

Track 4

Filename C:\EAC\Tougher Than Tough - The Story of Jamaican Music - 1968-1974 Reggae Hit The Town (Disc 2) (1993) - FLAC\04 - Max Romeo - Wet Dream.wav

Pre-gap length 0:00:00.84

Peak level 94.8 % Track quality 100.0 % Test CRC A2B9D22E Copy CRC A2B9D22E Accurately ripped (confidence 10) [07DE066C] Copy OK

Track 5

Filename C:\EAC\Tougher Than Tough - The Story of Jamaican Music - 1968-1974 Reggae Hit The Town (Disc 2) (1993) - FLAC\05 - The Uniques - My Conversation.wav

Pre-gap length 0:00:01.04

Peak level 97.7 % Track quality 100.0 % Test CRC EAA6C161 Copy CRC EAA6C161 Accurately ripped (confidence 10) [87A92BD7] Copy OK

Track 6

Filename C:\EAC\Tougher Than Tough - The Story of Jamaican Music - 1968-1974 Reggae Hit The Town (Disc 2) (1993) - FLAC\06 - Stranger Cole & Lester Sterling - Bangarang.wav

Pre-gap length 0:00:01.20

Peak level 90.2 % Track quality 100.0 % Test CRC CB2DAEFC Copy CRC CB2DAEFC Accurately ripped (confidence 10) [8673FCC1] Copy OK

Track 7

Filename C:\EAC\Tougher Than Tough - The Story of Jamaican Music - 1968-1974 Reggae Hit The Town (Disc 2) (1993) - FLAC\07 - The Upsetters - Return Of Django.wav

Pre-gap length 0:00:00.06

Peak level 100.0 % Track quality 100.0 % Test CRC C42BADF9 Copy CRC C42BADF9 Accurately ripped (confidence 10) [7DEDF5AD] Copy OK

Track 8

Filename C:\EAC\Tougher Than Tough - The Story of Jamaican Music - 1968-1974 Reggae Hit The Town (Disc 2) (1993) - FLAC\08 - Harry J. Allstars - The Liquidator.wav

Pre-gap length 0:00:00.16

Peak level 91.7 % Track quality 100.0 % Test CRC 811FE69D Copy CRC 811FE69D Accurately ripped (confidence 10) [3D790BFE] Copy OK

Track 9

Filename C:\EAC\Tougher Than Tough - The Story of Jamaican Music - 1968-1974 Reggae Hit The Town (Disc 2) (1993) - FLAC\09 - The Melodians - Rivers Of Babylon.wav

Pre-gap length 0:00:00.80

Peak level 97.7 % Track quality 100.0 % Test CRC 5EF9BCC3 Copy CRC 5EF9BCC3 Accurately ripped (confidence 9) [46EACFA8] Copy OK

Track 10

Filename C:\EAC\Tougher Than Tough - The Story of Jamaican Music - 1968-1974 Reggae Hit The Town (Disc 2) (1993) - FLAC\10 - Jimmy Cliff - The Harder They Come.wav

Pre-gap length 0:00:00.53

Peak level 97.7 % Track quality 100.0 % Test CRC CEDB9381 Copy CRC CEDB9381 Accurately ripped (confidence 10) [EF7B52B0] Copy OK

Track 11

Filename C:\EAC\Tougher Than Tough - The Story of Jamaican Music - 1968-1974 Reggae Hit The Town (Disc 2) (1993) - FLAC\11 - Bob And Marcia - Young Gifted & Black.wav

Pre-gap length 0:00:00.73

Peak level 96.3 % Track quality 100.0 % Test CRC BD4FCF22 Copy CRC BD4FCF22 Accurately ripped (confidence 10) [498D7E4A] Copy OK

Track 12

Filename C:\EAC\Tougher Than Tough - The Story of Jamaican Music - 1968-1974 Reggae Hit The Town (Disc 2) (1993) - FLAC\12 - U Roy - Wake The Town.wav

Pre-gap length 0:00:00.86

Peak level 97.7 % Track quality 100.0 % Test CRC 601125D6 Copy CRC 601125D6 Accurately ripped (confidence 10) [F8F07694] Copy OK

Track 13

Filename C:\EAC\Tougher Than Tough - The Story of Jamaican Music - 1968-1974 Reggae Hit The Town (Disc 2) (1993) - FLAC\13 - Pat Kelly - How Long.wav

Pre-gap length 0:00:00.89

Peak level 90.9 % Track quality 100.0 % Test CRC E5A27A86 Copy CRC E5A27A86 Accurately ripped (confidence 10) [5424F1FA] Copy OK

Track 14

Filename C:\EAC\Tougher Than Tough - The Story of Jamaican Music - 1968-1974 Reggae Hit The Town (Disc 2) (1993) - FLAC\14 - Dave And Ansell Collins - Double Barrel.wav

Pre-gap length 0:00:01.04

Peak level 97.7 % Track quality 100.0 % Test CRC 169B1C8C Copy CRC 169B1C8C Accurately ripped (confidence 10) [6E6FD27E] Copy OK

Track 15

Filename C:\EAC\Tougher Than Tough - The Story of Jamaican Music - 1968-1974 Reggae Hit The Town (Disc 2) (1993) - FLAC\15 - Niney - Blood & Fire.wav

Pre-gap length 0:00:00.90

Peak level 85.3 % Track quality 99.9 % Test CRC 00D7C345 Copy CRC 00D7C345 Accurately ripped (confidence 11) [AC6029D6] Copy OK

Track 16

Filename C:\EAC\Tougher Than Tough - The Story of Jamaican Music - 1968-1974 Reggae Hit The Town (Disc 2) (1993) - FLAC\16 - Eric Donaldson - Cherry Oh Baby.wav

Pre-gap length 0:00:01.02

Peak level 97.7 % Track quality 100.0 % Test CRC DC805C03 Copy CRC DC805C03 Accurately ripped (confidence 11) [186ABCAD] Copy OK

Track 17

Filename C:\EAC\Tougher Than Tough - The Story of Jamaican Music - 1968-1974 Reggae Hit The Town (Disc 2) (1993) - FLAC\17 - Delroy Wilson - Better Must Come.wav

Pre-gap length 0:00:00.93

Peak level 96.9 % Track quality 100.0 % Test CRC 790101E6 Copy CRC 790101E6 Accurately ripped (confidence 11) [6D97F92F] Copy OK

Track 18

Filename C:\EAC\Tougher Than Tough - The Story of Jamaican Music - 1968-1974 Reggae Hit The Town (Disc 2) (1993) - FLAC\18 - Dennis Brown - Money In My Pocket.wav

Pre-gap length 0:00:01.30

Peak level 86.9 % Track quality 100.0 % Test CRC E8BDFFFE Copy CRC E8BDFFFE Accurately ripped (confidence 11) [7CA43922] Copy OK

Track 19

Filename C:\EAC\Tougher Than Tough - The Story of Jamaican Music - 1968-1974 Reggae Hit The Town (Disc 2) (1993) - FLAC\19 - John Holt - Stick By Me.wav

Pre-gap length 0:00:01.17

Peak level 94.0 % Track quality 100.0 % Test CRC DC6A5EA0 Copy CRC DC6A5EA0 Accurately ripped (confidence 11) [65D82150] Copy OK

Track 20

Filename C:\EAC\Tougher Than Tough - The Story of Jamaican Music - 1968-1974 Reggae Hit The Town (Disc 2) (1993) - FLAC\20 - Dennis Alcapone - Teach The Children.wav

Pre-gap length 0:00:01.17

Peak level 87.2 % Track quality 100.0 % Test CRC ACA5A792 Copy CRC ACA5A792 Accurately ripped (confidence 11) [546E6AB3] Copy OK

Track 21

Filename C:\EAC\Tougher Than Tough - The Story of Jamaican Music - 1968-1974 Reggae Hit The Town (Disc 2) (1993) - FLAC\21 - Big Youth - S.90 Skank.wav

Pre-gap length 0:00:00.73

Peak level 97.7 % Track quality 100.0 % Test CRC 52A3B740 Copy CRC 52A3B740 Accurately ripped (confidence 10) [8A7BC396] Copy OK

Track 22

Filename C:\EAC\Tougher Than Tough - The Story of Jamaican Music - 1968-1974 Reggae Hit The Town (Disc 2) (1993) - FLAC\22 - Ken Boothe - Everything I Own.wav

Pre-gap length 0:00:00.66

Peak level 97.7 % Track quality 100.0 % Test CRC 5D0B2003 Copy CRC 5D0B2003 Accurately ripped (confidence 9) [9415F191] Copy OK

Track 23

Filename C:\EAC\Tougher Than Tough - The Story of Jamaican Music - 1968-1974 Reggae Hit The Town (Disc 2) (1993) - FLAC\23 - Dennis Brown - Westbound Train.wav

Pre-gap length 0:00:00.29

Peak level 97.7 % Track quality 100.0 % Test CRC 09CBDB60 Copy CRC 09CBDB60 Accurately ripped (confidence 11) [D2EE063D] Copy OK

Track 24

Filename C:\EAC\Tougher Than Tough - The Story of Jamaican Music - 1968-1974 Reggae Hit The Town (Disc 2) (1993) - FLAC\24 - Johnnie Clarke - Moving Out A Babylon.wav

Pre-gap length 0:00:00.90

Peak level 97.7 % Track quality 100.0 % Test CRC A6322B53 Copy CRC A6322B53 Accurately ripped (confidence 10) [03B4D207] Copy OK

Track 25

Filename C:\EAC\Tougher Than Tough - The Story of Jamaican Music - 1968-1974 Reggae Hit The Town (Disc 2) (1993) - FLAC\25 - Junior Byles - Curly Locks.wav

Pre-gap length 0:00:01.20

Peak level 87.0 % Track quality 100.0 % Test CRC 10C4D449 Copy CRC 10C4D449 Accurately ripped (confidence 8) [CA160F3D] Copy OK

All tracks accurately ripped

No errors occurred

End of status report

---------------------------

Exact Audio Copy V0.99 prebeta 5 from 4. May 2009

EAC extraction logfile from 21. September 2010, 19:24

Various / The Story Of Jamaican Music - CD 3

Used drive : TSSTcorpCDDVDW SH-S223F Adapter: 1 ID: 1

Read mode : SecureUtilize accurate stream : YesDefeat audio cache : YesMake use of C2 pointers : No

Read offset correction : 6Overread into Lead-In and Lead-Out : NoFill up missing offset samples with silence : YesDelete leading and trailing silent blocks : NoNull samples used in CRC calculations : YesUsed interface : Native Win32 interface for Win NT & 2000Gap handling : Appended to previous track

Used output format : User Defined EncoderSelected bitrate : 1024 kBit/sQuality : HighAdd ID3 tag : NoCommand line compressor : C:\Program Files\Exact Audio Copy\Flac\flac.exeAdditional command line options : -V -8 -T "artist=%a" -T "title=%t" -T "album=%g" -T "date=%y" -T "tracknumber=%n" -T "genre=%m" %s

TOC of the extracted CD

Track | Start | Length | Start sector | End sector --------------------------------------------------------- 1 | 0:00.32 | 2:58.13 | 32 | 13394 2 | 2:58.45 | 3:48.12 | 13395 | 30506 3 | 6:46.57 | 3:24.50 | 30507 | 45856 4 | 10:11.32 | 3:15.63 | 45857 | 60544 5 | 13:27.20 | 3:19.05 | 60545 | 75474 6 | 16:46.25 | 3:06.32 | 75475 | 89456 7 | 19:52.57 | 2:37.13 | 89457 | 101244 8 | 22:29.70 | 4:04.30 | 101245 | 119574 9 | 26:34.25 | 3:45.70 | 119575 | 136519 10 | 30:20.20 | 3:29.12 | 136520 | 152206 11 | 33:49.32 | 4:05.13 | 152207 | 170594 12 | 37:54.45 | 4:04.50 | 170595 | 188944 13 | 41:59.20 | 3:54.70 | 188945 | 206564 14 | 45:54.15 | 3:43.67 | 206565 | 223356 15 | 49:38.07 | 3:52.00 | 223357 | 240756 16 | 53:30.07 | 3:08.50 | 240757 | 254906 17 | 56:38.57 | 5:09.05 | 254907 | 278086 18 | 61:47.62 | 4:54.20 | 278087 | 300156 19 | 66:42.07 | 4:06.38 | 300157 | 318644 20 | 70:48.45 | 3:43.00 | 318645 | 335369 21 | 74:31.45 | 3:28.62 | 335370 | 351031

Track 1

Filename C:\EAC\The Story Of Jamaican Music - CD 3 (1993) - FLAC\01 - Heptones, The - Country boy.wav

Pre-gap length 0:00:02.42

Peak level 92.7 % Track quality 100.0 % Test CRC 76C174E4 Copy CRC 76C174E4 Accurately ripped (confidence 2) [15A7D333] Copy OK

Track 2

Filename C:\EAC\The Story Of Jamaican Music - CD 3 (1993) - FLAC\02 - I. Roy - Welding.wav

Pre-gap length 0:00:01.00

Peak level 94.4 % Track quality 100.0 % Test CRC 22C1533B Copy CRC 22C1533B Accurately ripped (confidence 2) [394C9D1F] Copy OK

Track 3

Filename C:\EAC\The Story Of Jamaican Music - CD 3 (1993) - FLAC\03 - Burning Spear - Marcus Garvey.wav

Peak level 94.3 % Track quality 100.0 % Test CRC E93B0799 Copy CRC E93B0799 Accurately ripped (confidence 2) [F3559982] Copy OK

Track 4

Filename C:\EAC\The Story Of Jamaican Music - CD 3 (1993) - FLAC\04 - Mighty Diamonds, The - Right time.wav

Peak level 98.3 % Track quality 100.0 % Test CRC A3EF25F8 Copy CRC A3EF25F8 Accurately ripped (confidence 2) [74DECFF4] Copy OK

Track 5

Filename C:\EAC\The Story Of Jamaican Music - CD 3 (1993) - FLAC\05 - Stewart, Roman - Natty sing hit songs.wav

Peak level 97.7 % Track quality 100.0 % Test CRC C8978405 Copy CRC C8978405 Accurately ripped (confidence 2) [4D96F3D6] Copy OK

Track 6

Filename C:\EAC\The Story Of Jamaican Music - CD 3 (1993) - FLAC\06 - SMart, Leroy - Ballistic affair.wav

Pre-gap length 0:00:01.00

Peak level 98.8 % Track quality 100.0 % Test CRC 20A66C48 Copy CRC 20A66C48 Accurately ripped (confidence 2) [87216B84] Copy OK

Track 7

Filename C:\EAC\The Story Of Jamaican Music - CD 3 (1993) - FLAC\07 - Miller, Jacob - Tenement yard.wav

Pre-gap length 0:00:01.82

Peak level 98.8 % Track quality 100.0 % Test CRC 6CEB69DF Copy CRC 6CEB69DF Accurately ripped (confidence 2) [76F1B6AE] Copy OK

Track 8

Filename C:\EAC\The Story Of Jamaican Music - CD 3 (1993) - FLAC\08 - Romeo, Max - War ina Babylon.wav

Pre-gap length 0:00:01.00

Peak level 98.8 % Track quality 99.9 % Test CRC 1018C5F5 Copy CRC 1018C5F5 Accurately ripped (confidence 2) [D474E12B] Copy OK

Track 9

Filename C:\EAC\The Story Of Jamaican Music - CD 3 (1993) - FLAC\09 - Junior Murvin - Police & thieves.wav

Pre-gap length 0:00:01.00

Peak level 96.2 % Track quality 100.0 % Test CRC F49CFC26 Copy CRC F49CFC26 Accurately ripped (confidence 2) [4961A597] Copy OK

Track 10

Filename C:\EAC\The Story Of Jamaican Music - CD 3 (1993) - FLAC\10 - Culture - Two sevens clash.wav

Peak level 95.1 % Track quality 100.0 % Test CRC F291EE81 Copy CRC F291EE81 Accurately ripped (confidence 2) [FF06366A] Copy OK

Track 11

Filename C:\EAC\The Story Of Jamaican Music - CD 3 (1993) - FLAC\11 - Wilson, Delroy - I'm still waiting.wav

Peak level 93.3 % Track quality 100.0 % Test CRC EEB9D491 Copy CRC EEB9D491 Accurately ripped (confidence 2) [A544FA10] Copy OK

Track 12

Filename C:\EAC\The Story Of Jamaican Music - CD 3 (1993) - FLAC\12 - Marley, Bob & The Wailers - No woman no cry.wav

Pre-gap length 0:00:01.00

Peak level 98.8 % Track quality 100.0 % Test CRC 030F3733 Copy CRC 030F3733 Accurately ripped (confidence 2) [FB273BCC] Copy OK

Track 13

Filename C:\EAC\The Story Of Jamaican Music - CD 3 (1993) - FLAC\13 - Althia & Donna - Uptown top ranking.wav

Pre-gap length 0:00:01.00

Peak level 98.3 % Track quality 100.0 % Test CRC B5C3C572 Copy CRC B5C3C572 Accurately ripped (confidence 2) [09343928] Copy OK

Track 14

Filename C:\EAC\The Story Of Jamaican Music - CD 3 (1993) - FLAC\14 - Isaacs, Gregory - Number one.wav

Pre-gap length 0:00:01.00

Peak level 95.6 % Track quality 100.0 % Test CRC EFAF25F3 Copy CRC EFAF25F3 Accurately ripped (confidence 2) [C28A6A93] Copy OK

Track 15

Filename C:\EAC\The Story Of Jamaican Music - CD 3 (1993) - FLAC\15 - Wailing Souls - Bredda gravalicious.wav

Pre-gap length 0:00:01.00

Peak level 96.1 % Track quality 100.0 % Test CRC 75BB7199 Copy CRC 75BB7199 Accurately ripped (confidence 2) [2A9AAFED] Copy OK

Track 16

Filename C:\EAC\The Story Of Jamaican Music - CD 3 (1993) - FLAC\16 - Sugar Minott - River Jordan.wav

Pre-gap length 0:00:01.00

Peak level 89.4 % Track quality 100.0 % Test CRC 7F91F00F Copy CRC 7F91F00F Accurately ripped (confidence 2) [AE15DBFA] Copy OK

Track 17

Filename C:\EAC\The Story Of Jamaican Music - CD 3 (1993) - FLAC\17 - Williams, Willie - Armagideon time.wav

Peak level 98.8 % Track quality 100.0 % Test CRC 3541189C Copy CRC 3541189C Accurately ripped (confidence 2) [4569006E] Copy OK

Track 18

Filename C:\EAC\The Story Of Jamaican Music - CD 3 (1993) - FLAC\18 - Black Uhuru - Guess who's coming to dinner.wav

Pre-gap length 0:00:01.00

Peak level 98.8 % Track quality 100.0 % Test CRC A5944231 Copy CRC A5944231 Accurately ripped (confidence 2) [D2EAE45C] Copy OK

Track 19

Filename C:\EAC\The Story Of Jamaican Music - CD 3 (1993) - FLAC\19 - Junior Delgado - Fort Augustus.wav

Peak level 95.0 % Track quality 100.0 % Test CRC 9BB5B2E9 Copy CRC 9BB5B2E9 Accurately ripped (confidence 2) [EC7B6A84] Copy OK

Track 20

Filename C:\EAC\The Story Of Jamaican Music - CD 3 (1993) - FLAC\20 - McGregor, Freddie - Joggin'.wav

Peak level 98.8 % Track quality 100.0 % Test CRC 09F1A8C5 Copy CRC 09F1A8C5 Accurately ripped (confidence 2) [12DC5938] Copy OK

Track 21

Filename C:\EAC\The Story Of Jamaican Music - CD 3 (1993) - FLAC\21 - Brown, Dennis - Sitting & watching.wav

Pre-gap length 0:00:01.00

Peak level 83.5 % Track quality 99.6 % Test CRC DF511CB8 Copy CRC DF511CB8 Accurately ripped (confidence 2) [67A975E2] Copy OK

All tracks accurately ripped

No errors occurred

End of status report

--------------------------

Exact Audio Copy V0.99 prebeta 5 from 4. May 2009

EAC extraction logfile from 15. September 2010, 21:45

Various Artists / Tougher Than Tough - The Story of Jamaican Music - 1982-1993 Dance Hall Good To We (Disc 4)

Used drive : TSSTcorpCDDVDW SH-S223F Adapter: 1 ID: 1

Read mode : SecureUtilize accurate stream : YesDefeat audio cache : YesMake use of C2 pointers : No

Read offset correction : 6Overread into Lead-In and Lead-Out : NoFill up missing offset samples with silence : YesDelete leading and trailing silent blocks : NoNull samples used in CRC calculations : YesUsed interface : Native Win32 interface for Win NT & 2000Gap handling : Appended to previous track

Used output format : User Defined EncoderSelected bitrate : 1024 kBit/sQuality : HighAdd ID3 tag : NoCommand line compressor : C:\Program Files\Exact Audio Copy\Flac\flac.exeAdditional command line options : -V -8 -T "artist=%a" -T "title=%t" -T "album=%g" -T "date=%y" -T "tracknumber=%n" -T "genre=%m" %s

TOC of the extracted CD

Track | Start | Length | Start sector | End sector --------------------------------------------------------- 1 | 0:00.00 | 4:05.35 | 0 | 18409 2 | 4:05.35 | 3:13.27 | 18410 | 32911 3 | 7:18.62 | 3:31.28 | 32912 | 48764 4 | 10:50.15 | 3:06.70 | 48765 | 62784 5 | 13:57.10 | 3:08.10 | 62785 | 76894 6 | 17:05.20 | 3:37.07 | 76895 | 93176 7 | 20:42.27 | 3:13.38 | 93177 | 107689 8 | 23:55.65 | 4:07.15 | 107690 | 126229 9 | 28:03.05 | 3:30.45 | 126230 | 142024 10 | 31:33.50 | 3:59.10 | 142025 | 159959 11 | 35:32.60 | 3:36.07 | 159960 | 176166 12 | 39:08.67 | 3:27.45 | 176167 | 191736 13 | 42:36.37 | 3:54.30 | 191737 | 209316 14 | 46:30.67 | 4:09.15 | 209317 | 228006 15 | 50:40.07 | 3:23.43 | 228007 | 243274 16 | 54:03.50 | 4:04.10 | 243275 | 261584 17 | 58:07.60 | 2:58.62 | 261585 | 274996 18 | 61:06.47 | 3:32.68 | 274997 | 290964 19 | 64:39.40 | 3:49.15 | 290965 | 308154 20 | 68:28.55 | 3:01.35 | 308155 | 321764 21 | 71:30.15 | 4:05.35 | 321765 | 340174 22 | 75:35.50 | 3:10.40 | 340175 | 354464

Track 1

Filename C:\EAC\Tougher Than Tough - The Story of Jamaican Music - 1982-1993 Dance Hall Good To We (Disc 4) (1993) - FLAC\01 - Gregory Isaacs - Night Nurse.wav

Pre-gap length 0:00:02.00

Peak level 93.6 % Track quality 100.0 % Test CRC 3A0D08FA Copy CRC 3A0D08FA Accurately ripped (confidence 10) [B1CAB10F] Copy OK

Track 2

Filename C:\EAC\Tougher Than Tough - The Story of Jamaican Music - 1982-1993 Dance Hall Good To We (Disc 4) (1993) - FLAC\02 - Yellowman - Mad Over Me.wav

Pre-gap length 0:00:00.97

Peak level 100.0 % Track quality 100.0 % Test CRC DA25467F Copy CRC DA25467F Accurately ripped (confidence 10) [6881F118] Copy OK

Track 3

Filename C:\EAC\Tougher Than Tough - The Story of Jamaican Music - 1982-1993 Dance Hall Good To We (Disc 4) (1993) - FLAC\03 - Michigan & Smiley - Diseases.wav

Pre-gap length 0:00:00.29

Peak level 100.0 % Track quality 100.0 % Test CRC DC2E5206 Copy CRC DC2E5206 Accurately ripped (confidence 10) [70D2A620] Copy OK

Track 4

Filename C:\EAC\Tougher Than Tough - The Story of Jamaican Music - 1982-1993 Dance Hall Good To We (Disc 4) (1993) - FLAC\04 - Johnnie Osbourne - Water Pumping.wav

Pre-gap length 0:00:00.50

Peak level 96.8 % Track quality 99.9 % Test CRC CDDFF993 Copy CRC CDDFF993 Accurately ripped (confidence 10) [7DA0171E] Copy OK

Track 5

Filename C:\EAC\Tougher Than Tough - The Story of Jamaican Music - 1982-1993 Dance Hall Good To We (Disc 4) (1993) - FLAC\05 - Frankie Paul - Pass The Tusheng Peng.wav

Pre-gap length 0:00:00.90

Peak level 98.8 % Track quality 100.0 % Test CRC B25C67DE Copy CRC B25C67DE Accurately ripped (confidence 10) [76EC058E] Copy OK

Track 6

Filename C:\EAC\Tougher Than Tough - The Story of Jamaican Music - 1982-1993 Dance Hall Good To We (Disc 4) (1993) - FLAC\06 - Barrington Levy - Here I Come.wav

Pre-gap length 0:00:01.06

Peak level 100.0 % Track quality 100.0 % Test CRC 520EB955 Copy CRC 520EB955 Accurately ripped (confidence 10) [71ABA24F] Copy OK

Track 7

Filename C:\EAC\Tougher Than Tough - The Story of Jamaican Music - 1982-1993 Dance Hall Good To We (Disc 4) (1993) - FLAC\07 - Tenor Saw - Ring The Alarm.wav

Pre-gap length 0:00:01.33

Peak level 98.8 % Track quality 100.0 % Test CRC 50E0F1DD Copy CRC 50E0F1DD Accurately ripped (confidence 10) [42B9BCFB] Copy OK

Track 8

Filename C:\EAC\Tougher Than Tough - The Story of Jamaican Music - 1982-1993 Dance Hall Good To We (Disc 4) (1993) - FLAC\08 - Wayne Smith - Under Me Sleng Teng.wav

Pre-gap length 0:00:00.24

Peak level 93.3 % Track quality 100.0 % Test CRC 13F3B4A3 Copy CRC 13F3B4A3 Accurately ripped (confidence 10) [6370115C] Copy OK

Track 9

Filename C:\EAC\Tougher Than Tough - The Story of Jamaican Music - 1982-1993 Dance Hall Good To We (Disc 4) (1993) - FLAC\09 - Anthony Red Rose - Tempo.wav

Pre-gap length 0:00:00.64

Peak level 98.9 % Track quality 100.0 % Test CRC 722556F7 Copy CRC 722556F7 Accurately ripped (confidence 10) [27EBC617] Copy OK

Track 10

Filename C:\EAC\Tougher Than Tough - The Story of Jamaican Music - 1982-1993 Dance Hall Good To We (Disc 4) (1993) - FLAC\10 - Supercat - Boops.wav

Pre-gap length 0:00:01.04

Peak level 97.4 % Track quality 100.0 % Test CRC 8AE746A9 Copy CRC 8AE746A9 Accurately ripped (confidence 10) [9A2EEFB5] Copy OK

Track 11

Filename C:\EAC\Tougher Than Tough - The Story of Jamaican Music - 1982-1993 Dance Hall Good To We (Disc 4) (1993) - FLAC\11 - Half Pint - Greetings.wav

Pre-gap length 0:00:01.13

Peak level 86.6 % Track quality 100.0 % Test CRC 042CC864 Copy CRC 042CC864 Accurately ripped (confidence 10) [BA637742] Copy OK

Track 12

Filename C:\EAC\Tougher Than Tough - The Story of Jamaican Music - 1982-1993 Dance Hall Good To We (Disc 4) (1993) - FLAC\12 - Admiral Bailey - Punanny.wav

Pre-gap length 0:00:00.89

Peak level 91.2 % Track quality 100.0 % Test CRC 386D18DE Copy CRC 386D18DE Accurately ripped (confidence 10) [88554C55] Copy OK

Track 13

Filename C:\EAC\Tougher Than Tough - The Story of Jamaican Music - 1982-1993 Dance Hall Good To We (Disc 4) (1993) - FLAC\13 - Red Dragon - Hol' A Fresh.wav

Pre-gap length 0:00:00.69

Peak level 98.8 % Track quality 100.0 % Test CRC EE681491 Copy CRC EE681491 Accurately ripped (confidence 10) [4D7FFEA5] Copy OK

Track 14

Filename C:\EAC\Tougher Than Tough - The Story of Jamaican Music - 1982-1993 Dance Hall Good To We (Disc 4) (1993) - FLAC\14 - Gregory Isaacs - Rumours.wav

Pre-gap length 0:00:00.73

Peak level 88.5 % Track quality 100.0 % Test CRC D32D84F9 Copy CRC D32D84F9 Accurately ripped (confidence 10) [F4B6FE50] Copy OK

Track 15

Filename C:\EAC\Tougher Than Tough - The Story of Jamaican Music - 1982-1993 Dance Hall Good To We (Disc 4) (1993) - FLAC\15 - Tinga Stewart & Ninjaman - Cover Me.wav

Pre-gap length 0:00:00.86

Peak level 100.0 % Track quality 100.0 % Test CRC 57769E8C Copy CRC 57769E8C Accurately ripped (confidence 9) [59AB6495] Copy OK

Track 16

Filename C:\EAC\Tougher Than Tough - The Story of Jamaican Music - 1982-1993 Dance Hall Good To We (Disc 4) (1993) - FLAC\16 - Papa San & Lady G - Legal Rights.wav

Pre-gap length 0:00:00.70

Peak level 93.2 % Track quality 100.0 % Test CRC B17BEF42 Copy CRC B17BEF42 Accurately ripped (confidence 9) [3CB20A41] Copy OK

Track 17

Filename C:\EAC\Tougher Than Tough - The Story of Jamaican Music - 1982-1993 Dance Hall Good To We (Disc 4) (1993) - FLAC\17 - Shabba Ranks - Wicked Inna Bed.wav

Pre-gap length 0:00:00.90

Peak level 84.4 % Track quality 100.0 % Test CRC 4F96E333 Copy CRC 4F96E333 Accurately ripped (confidence 10) [23ABBA6E] Copy OK

Track 18

Filename C:\EAC\Tougher Than Tough - The Story of Jamaican Music - 1982-1993 Dance Hall Good To We (Disc 4) (1993) - FLAC\18 - Pinchers - Bandolero.wav

Pre-gap length 0:00:00.53

Peak level 83.3 % Track quality 100.0 % Test CRC BB8B86EE Copy CRC BB8B86EE Accurately ripped (confidence 10) [B7B8D8AB] Copy OK

Track 19

Filename C:\EAC\Tougher Than Tough - The Story of Jamaican Music - 1982-1993 Dance Hall Good To We (Disc 4) (1993) - FLAC\19 - Tiger - Yuh Dead Now.wav

Pre-gap length 0:00:01.10

Peak level 83.3 % Track quality 100.0 % Test CRC C2E06DE5 Copy CRC C2E06DE5 Accurately ripped (confidence 9) [DDC48B98] Copy OK

Track 20

Filename C:\EAC\Tougher Than Tough - The Story of Jamaican Music - 1982-1993 Dance Hall Good To We (Disc 4) (1993) - FLAC\20 - Buju Banton - Bogle Dance.wav

Pre-gap length 0:00:01.06

Peak level 98.8 % Track quality 100.0 % Test CRC 6D1771E7 Copy CRC 6D1771E7 Accurately ripped (confidence 9) [46D65F41] Copy OK

Track 21

Filename C:\EAC\Tougher Than Tough - The Story of Jamaican Music - 1982-1993 Dance Hall Good To We (Disc 4) (1993) - FLAC\21 - Chaka Demus & Pliers - Muder She Wrote.wav

Pre-gap length 0:00:01.50

Peak level 93.0 % Track quality 100.0 % Test CRC 263D5139 Copy CRC 263D5139 Accurately ripped (confidence 9) [0141A81E] Copy OK

Track 22

Filename C:\EAC\Tougher Than Tough - The Story of Jamaican Music - 1982-1993 Dance Hall Good To We (Disc 4) (1993) - FLAC\22 - Shaggy - Oh Carolina.wav

Pre-gap length 0:00:01.10

Peak level 74.9 % Track quality 100.0 % Test CRC EF68A732 Copy CRC EF68A732 Accurately ripped (confidence 9) [5330E30B] Copy OK

All tracks accurately ripped

No errors occurred

End of status report
 
REM GENRE ReggaeREM DATE 1993REM DISCID 7B11E91BREM COMMENT "ExactAudioCopy v0.99pb5"FILE "01 - Folkes Brothers - Oh Carolina.wav" WAVE TRACK 01 AUDIO INDEX 01 00:00:00 TRACK 02 AUDIO INDEX 00 02:40:17FILE "02 - Laurel Aitken - Boogie In My Bones.wav" WAVE INDEX 01 00:00:00 TRACK 03 AUDIO INDEX 00 02:46:52FILE "03 - Owen Gray - Midnight Track.wav" WAVE INDEX 01 00:00:00 TRACK 04 AUDIO INDEX 00 02:26:65FILE "04 - Theophilus Beckford - Easy Snappin'.wav" WAVE INDEX 01 00:00:00 TRACK 05 AUDIO INDEX 00 02:49:52FILE "05 - Derrick & Patsy - Housewives Choice.wav" WAVE INDEX 01 00:00:00 TRACK 06 AUDIO INDEX 00 02:39:30FILE "06 - Derrick Morgan - Forward March.wav" WAVE INDEX 01 00:00:00 TRACK 07 AUDIO INDEX 00 02:49:12FILE "07 - Jimmy Cliff - Miss Jamaica.wav" WAVE INDEX 01 00:00:00 TRACK 08 AUDIO INDEX 00 02:25:17FILE "08 - Millie - My Boy Lollipop.wav" WAVE INDEX 01 00:00:00 TRACK 09 AUDIO INDEX 00 02:00:15FILE "09 - The Maytals - Six And Seven Books Of Moses.wav" WAVE INDEX 01 00:00:00 TRACK 10 AUDIO INDEX 00 02:24:38FILE "10 - The Wailers - Simmer Down.wav" WAVE INDEX 01 00:00:00 TRACK 11 AUDIO INDEX 00 02:47:38FILE "11 - Don Drummond - Man In The Street.wav" WAVE INDEX 01 00:00:00 TRACK 12 AUDIO INDEX 00 03:22:50FILE "12 - Justin Hines & The Dominoes - Carry Go Bring Come.wav" WAVE INDEX 01 00:00:00 TRACK 13 AUDIO INDEX 00 02:50:25FILE "13 - Skatalites - Guns Of Navarone.wav" WAVE INDEX 01 00:00:00 TRACK 14 AUDIO INDEX 00 02:27:50FILE "14 - Prince Buster - Al Capone.wav" WAVE INDEX 01 00:00:00 TRACK 15 AUDIO INDEX 00 02:56:03FILE "15 - Prince Buster - Hard Man Fe Dead.wav" WAVE INDEX 01 00:00:00 TRACK 16 AUDIO INDEX 00 03:21:32FILE "16 - Derrick Morgan - Tougher Than Tough.wav" WAVE INDEX 01 00:00:00 TRACK 17 AUDIO INDEX 00 02:24:72FILE "17 - Alton Ellis - Girl I've Got A Date.wav" WAVE INDEX 01 00:00:00 TRACK 18 AUDIO INDEX 00 02:23:17FILE "18 - The Paragons - Happy Go Lucky Girl.wav" WAVE INDEX 01 00:00:00 TRACK 19 AUDIO INDEX 00 03:04:47FILE "19 - Delroy Wilson - Dancing Mood.wav" WAVE INDEX 01 00:00:00 TRACK 20 AUDIO INDEX 00 02:50:23FILE "20 - Ken Boothe - The Train Is Coming.wav" WAVE INDEX 01 00:00:00 TRACK 21 AUDIO INDEX 00 03:19:42FILE "21 - Hopeton Lewis - Take It Easy.wav" WAVE INDEX 01 00:00:00 TRACK 22 AUDIO INDEX 00 02:48:35FILE "22 - The Jamaicans - Ba Ba Boom.wav" WAVE INDEX 01 00:00:00 TRACK 23 AUDIO INDEX 00 03:19:02FILE "23 - Desmond Dekker - 007 (Shanty Town).wav" WAVE INDEX 01 00:00:00 TRACK 24 AUDIO INDEX 00 02:41:20FILE "24 - Bob Andy - I've Got To Go Back Home.wav" WAVE INDEX 01 00:00:00 TRACK 25 AUDIO INDEX 00 03:04:35FILE "25 - The Techniques - Queen Majesty.wav" WAVE INDEX 01 00:00:00 TRACK 26 AUDIO INDEX 00 03:30:52FILE "26 - Dobby Dobson - Loving Pauper.wav" WAVE INDEX 01 00:00:00 TRACK 27 AUDIO INDEX 00 03:14:60FILE "27 - Phyllis Dillon - Don't Stay Away.wav" WAVE INDEX 01 00:00:00

REM GENRE ReggaeREM DATE 1993REM DISCID 71121019REM COMMENT "ExactAudioCopy v0.99pb5"FILE "01 - Desmond Dekker - Israelites.wav" WAVE TRACK 01 AUDIO INDEX 01 00:00:00 TRACK 02 AUDIO INDEX 00 02:48:42FILE "02 - The Maytals - 54-46 (That's My Number).wav" WAVE INDEX 01 00:00:00 TRACK 03 AUDIO INDEX 00 02:54:20FILE "03 - The Ethiopians - Reggae Hit The Town.wav" WAVE INDEX 01 00:00:00 TRACK 04 AUDIO INDEX 00 02:24:37FILE "04 - Max Romeo - Wet Dream.wav" WAVE INDEX 01 00:00:00 TRACK 05 AUDIO INDEX 00 02:47:52FILE "05 - The Uniques - My Conversation.wav" WAVE INDEX 01 00:00:00 TRACK 06 AUDIO INDEX 00 03:37:25FILE "06 - Stranger Cole & Lester Sterling - Bangarang.wav" WAVE INDEX 01 00:00:00 TRACK 07 AUDIO INDEX 00 03:08:62FILE "07 - The Upsetters - Return Of Django.wav" WAVE INDEX 01 00:00:00 TRACK 08 AUDIO INDEX 00 02:25:43FILE "08 - Harry J. Allstars - The Liquidator.wav" WAVE INDEX 01 00:00:00 TRACK 09 AUDIO INDEX 00 02:52:08FILE "09 - The Melodians - Rivers Of Babylon.wav" WAVE INDEX 01 00:00:00 TRACK 10 AUDIO INDEX 00 04:15:55FILE "10 - Jimmy Cliff - The Harder They Come.wav" WAVE INDEX 01 00:00:00 TRACK 11 AUDIO INDEX 00 03:39:45FILE "11 - Bob And Marcia - Young Gifted & Black.wav" WAVE INDEX 01 00:00:00 TRACK 12 AUDIO INDEX 00 03:05:17FILE "12 - U Roy - Wake The Town.wav" WAVE INDEX 01 00:00:00 TRACK 13 AUDIO INDEX 00 02:26:18FILE "13 - Pat Kelly - How Long.wav" WAVE INDEX 01 00:00:00 TRACK 14 AUDIO INDEX 00 03:53:40FILE "14 - Dave And Ansell Collins - Double Barrel.wav" WAVE INDEX 01 00:00:00 TRACK 15 AUDIO INDEX 00 02:47:02FILE "15 - Niney - Blood & Fire.wav" WAVE INDEX 01 00:00:00 TRACK 16 AUDIO INDEX 00 03:04:45FILE "16 - Eric Donaldson - Cherry Oh Baby.wav" WAVE INDEX 01 00:00:00 TRACK 17 AUDIO INDEX 00 03:01:05FILE "17 - Delroy Wilson - Better Must Come.wav" WAVE INDEX 01 00:00:00 TRACK 18 AUDIO INDEX 00 02:32:50FILE "18 - Dennis Brown - Money In My Pocket.wav" WAVE INDEX 01 00:00:00 TRACK 19 AUDIO INDEX 00 02:32:12FILE "19 - John Holt - Stick By Me.wav" WAVE INDEX 01 00:00:00 TRACK 20 AUDIO INDEX 00 03:18:02FILE "20 - Dennis Alcapone - Teach The Children.wav" WAVE INDEX 01 00:00:00 TRACK 21 AUDIO INDEX 00 02:30:07FILE "21 - Big Youth - S.90 Skank.wav" WAVE INDEX 01 00:00:00 TRACK 22 AUDIO INDEX 00 02:49:38FILE "22 - Ken Boothe - Everything I Own.wav" WAVE INDEX 01 00:00:00 TRACK 23 AUDIO INDEX 00 03:43:70FILE "23 - Dennis Brown - Westbound Train.wav" WAVE INDEX 01 00:00:00 TRACK 24 AUDIO INDEX 00 03:06:60FILE "24 - Johnnie Clarke - Moving Out A Babylon.wav" WAVE INDEX 01 00:00:00 TRACK 25 AUDIO INDEX 00 03:37:17FILE "25 - Junior Byles - Curly Locks.wav" WAVE INDEX 01 00:00:00

REM GENRE ReggaeREM DATE 1993REM DISCID 06124815REM COMMENT "ExactAudioCopy v0.99pb5"FILE "01 - Heptones, The - Country boy.wav" WAVE TRACK 01 AUDIO PREGAP 00:00:32 INDEX 01 00:00:00 TRACK 02 AUDIO INDEX 00 02:57:13FILE "02 - I. Roy - Welding.wav" WAVE INDEX 01 00:00:00FILE "03 - Burning Spear - Marcus Garvey.wav" WAVE TRACK 03 AUDIO INDEX 01 00:00:00FILE "04 - Mighty Diamonds, The - Right time.wav" WAVE TRACK 04 AUDIO INDEX 01 00:00:00FILE "05 - Stewart, Roman - Natty sing hit songs.wav" WAVE TRACK 05 AUDIO INDEX 01 00:00:00 TRACK 06 AUDIO INDEX 00 03:18:05FILE "06 - SMart, Leroy - Ballistic affair.wav" WAVE INDEX 01 00:00:00 TRACK 07 AUDIO INDEX 00 03:04:45FILE "07 - Miller, Jacob - Tenement yard.wav" WAVE INDEX 01 00:00:00 TRACK 08 AUDIO INDEX 00 02:36:13FILE "08 - Romeo, Max - War ina Babylon.wav" WAVE INDEX 01 00:00:00 TRACK 09 AUDIO INDEX 00 04:03:30FILE "09 - Junior Murvin - Police & thieves.wav" WAVE INDEX 01 00:00:00FILE "10 - Culture - Two sevens clash.wav" WAVE TRACK 10 AUDIO INDEX 01 00:00:00FILE "11 - Wilson, Delroy - I'm still waiting.wav" WAVE TRACK 11 AUDIO INDEX 01 00:00:00 TRACK 12 AUDIO INDEX 00 04:04:13FILE "12 - Marley, Bob & The Wailers - No woman no cry.wav" WAVE INDEX 01 00:00:00 TRACK 13 AUDIO INDEX 00 04:03:50FILE "13 - Althia & Donna - Uptown top ranking.wav" WAVE INDEX 01 00:00:00 TRACK 14 AUDIO INDEX 00 03:53:70FILE "14 - Isaacs, Gregory - Number one.wav" WAVE INDEX 01 00:00:00 TRACK 15 AUDIO INDEX 00 03:42:67FILE "15 - Wailing Souls - Bredda gravalicious.wav" WAVE INDEX 01 00:00:00 TRACK 16 AUDIO INDEX 00 03:51:00FILE "16 - Sugar Minott - River Jordan.wav" WAVE INDEX 01 00:00:00FILE "17 - Williams, Willie - Armagideon time.wav" WAVE TRACK 17 AUDIO INDEX 01 00:00:00 TRACK 18 AUDIO INDEX 00 05:08:05FILE "18 - Black Uhuru - Guess who's coming to dinner.wav" WAVE INDEX 01 00:00:00FILE "19 - Junior Delgado - Fort Augustus.wav" WAVE TRACK 19 AUDIO INDEX 01 00:00:00FILE "20 - McGregor, Freddie - Joggin'.wav" WAVE TRACK 20 AUDIO INDEX 01 00:00:00 TRACK 21 AUDIO INDEX 00 03:42:00FILE "21 - Brown, Dennis - Sitting & watching.wav" WAVE INDEX 01 00:00:00

REM GENRE ReggaeREM DATE 1993REM DISCID 48127616REM COMMENT "ExactAudioCopy v0.99pb5"FILE "01 - Gregory Isaacs - Night Nurse.wav" WAVE TRACK 01 AUDIO INDEX 01 00:00:00 TRACK 02 AUDIO INDEX 00 04:04:37FILE "02 - Yellowman - Mad Over Me.wav" WAVE INDEX 01 00:00:00 TRACK 03 AUDIO INDEX 00 03:13:05FILE "03 - Michigan & Smiley - Diseases.wav" WAVE INDEX 01 00:00:00 TRACK 04 AUDIO INDEX 00 03:30:65FILE "04 - Johnnie Osbourne - Water Pumping.wav" WAVE INDEX 01 00:00:00 TRACK 05 AUDIO INDEX 00 03:06:02FILE "05 - Frankie Paul - Pass The Tusheng Peng.wav" WAVE INDEX 01 00:00:00 TRACK 06 AUDIO INDEX 00 03:07:05FILE "06 - Barrington Levy - Here I Come.wav" WAVE INDEX 01 00:00:00 TRACK 07 AUDIO INDEX 00 03:35:57FILE "07 - Tenor Saw - Ring The Alarm.wav" WAVE INDEX 01 00:00:00 TRACK 08 AUDIO INDEX 00 03:13:20FILE "08 - Wayne Smith - Under Me Sleng Teng.wav" WAVE INDEX 01 00:00:00 TRACK 09 AUDIO INDEX 00 04:06:42FILE "09 - Anthony Red Rose - Tempo.wav" WAVE INDEX 01 00:00:00 TRACK 10 AUDIO INDEX 00 03:29:42FILE "10 - Supercat - Boops.wav" WAVE INDEX 01 00:00:00 TRACK 11 AUDIO INDEX 00 03:58:00FILE "11 - Half Pint - Greetings.wav" WAVE INDEX 01 00:00:00 TRACK 12 AUDIO INDEX 00 03:35:15FILE "12 - Admiral Bailey - Punanny.wav" WAVE INDEX 01 00:00:00 TRACK 13 AUDIO INDEX 00 03:26:68FILE "13 - Red Dragon - Hol' A Fresh.wav" WAVE INDEX 01 00:00:00 TRACK 14 AUDIO INDEX 00 03:53:50FILE "14 - Gregory Isaacs - Rumours.wav" WAVE INDEX 01 00:00:00 TRACK 15 AUDIO INDEX 00 04:08:25FILE "15 - Tinga Stewart & Ninjaman - Cover Me.wav" WAVE INDEX 01 00:00:00 TRACK 16 AUDIO INDEX 00 03:22:65FILE "16 - Papa San & Lady G - Legal Rights.wav" WAVE INDEX 01 00:00:00 TRACK 17 AUDIO INDEX 00 04:03:17FILE "17 - Shabba Ranks - Wicked Inna Bed.wav" WAVE INDEX 01 00:00:00 TRACK 18 AUDIO INDEX 00 02:58:22FILE "18 - Pinchers - Bandolero.wav" WAVE INDEX 01 00:00:00 TRACK 19 AUDIO INDEX 00 03:31:60FILE "19 - Tiger - Yuh Dead Now.wav" WAVE INDEX 01 00:00:00 TRACK 20 AUDIO INDEX 00 03:48:10FILE "20 - Buju Banton - Bogle Dance.wav" WAVE INDEX 01 00:00:00 TRACK 21 AUDIO INDEX 00 02:59:72FILE "21 - Chaka Demus & Pliers - Muder She Wrote.wav" WAVE INDEX 01 00:00:00 TRACK 22 AUDIO INDEX 00 04:04:27FILE "22 - Shaggy - Oh Carolina.wav" WAVE INDEX 01 00:00:00
Доп. информация: Mastered at Chop 'em Out.
This Compilation ℗ / © 1993 Island Records Ltd.
Labelcode: LC 0407 • Barcode: 7 31451 83992 4 • BIEM/GEMA
Package printed in Birmingham, England.
CDs made in Germany (Sonopress GmbH).

Boxed sets are individually numbered.
If a story of a music as expansive as Jamaica's can be told over four CDs, then TOUGHER THAN TOUGH is as close as you'll ever likely get. Bookended by the unrefined charm of the Folkes Brothers' 1960 "Oh Carolina" and Shaggy's 1993 dancehall adaptation of the same tune, this collection attempts to chart the music's diversity and development through ska, rock-steady, reggae, and dub, to dancehall and ragga.
If there's one strand under-represented here, it's dub (in particular King Tubby), and the selection of Lee Perry's productions for Max Romeo and Junior Murvin only hints at the enormity of its influence. Then again, with 95 tracks chronologically capturing Prince Buster, the Skatalites, Desmond Dekker, international successes of Bob and Marcia, Ken Boothe and Bob Marley, and rootsier offerings by I Roy, Barrington Levy, and Jacob Miller, it's difficult to argue with the sheer breath of this collection.


Трекер:  [ 15-Дек-2011 17:13 ]

  

Скачать .torrent

Размер .torrent файла 25 KB


Размер: 1.63 GB
Хэш (hash) релиза: c8f90f456fc860786cc0d28fc7a8438be61300b4

Еще никто не оставлял запись к записи скачать торрент VA - Tougher Than Tough: The Story Of Jamaican Music - 1993, FLAC . Будь первым!

!Обратная связь