1.7 01 h 11 minRaiders of the Lost Shark | 101 Best Ways to Land a Job in Troubled Times | Hayley Sullivan

Скачать через торрент музыку VA - Essential Dub - 2007, FLAC бесплатно без регистрации torrent

Статистика раздачи
Размер:  374 MB   |    Зарегистрирован:  6 лет 7 месяцев   |    .torrent скачан:  34 раза   |   
Раздают:  1  
   
загрузка...
 
Автор Сообщение

Galfimbul

avatar Galfimbul


Essential Dub


Жанр: Dub, Reggae
Страна: United States
Страна-производитель диска: US
Год издания диска: 2007
Издатель (лейбл): ROIR
Номер по каталогу: RSCD9503
Аудиокодек: FLAC (*.flac)
Тип рипа: tracks+.cue
Битрейт аудио: lossless
Продолжительность: 59:31
Источник (релизер): What.CD (analoog)
Наличие сканов в содержимом раздачи: да
Доп. ссылки: MusicBrainz, Discogs, Amazon
Треклист:

Oku Onuora - Dub Out [4:51]
Ras Michael & The Sons of Negus - Truth and Right [5:25]
Dub Trio - Drive by Dub [2:54]
The Bush Chemists - East of Jaro [3:55]
Bad Brains - Leaving Babylon [4:08]
Twilight Circus Dub Sound System - Bassie Dub I [2:15]
Bill Laswell - Space-Time Paradox [6:19]
Dr. Israel - Sensimellia [3:40]
Niney the Observer - Acoustic Dub [4:12]
Alpha & Omega - Africa/Ethiopia [3:49]
Terrorists - Anittoo [4:12]
Badawi - Turbo Auto Drive [4:06]
Phase Selector Sound - Jackson Park [4:50]
10 Ft. Ganja Plant - New Day [4:55]
 
Exact Audio Copy V0.99 prebeta 4 from 23. January 2008

EAC extraction logfile from 3. February 2009, 14:02

Various Artists / Essential Dub

Used drive : Optiarc DVD RW AD-7173A Adapter: 0 ID: 0

Read mode : SecureUtilize accurate stream : YesDefeat audio cache : YesMake use of C2 pointers : No

Read offset correction : 48Overread into Lead-In and Lead-Out : NoFill up missing offset samples with silence : YesDelete leading and trailing silent blocks : NoNull samples used in CRC calculations : YesUsed interface : Installed external ASPI interfaceGap handling : Appended to previous track

Used output format : User Defined EncoderSelected bitrate : 128 kBit/sQuality : HighAdd ID3 tag : NoCommand line compressor : C:\Program Files\Exact Audio Copy\Flac\flac.exeAdditional command line options : -8 -V -T "ARTIST=%a" -T "TITLE=%t" -T "ALBUM=%g" -T "DATE=%y" -T "TRACKNUMBER=%n" -T "GENRE=%m" -T "COMMENT=EAC FLAC -8" %s

TOC of the extracted CD

Track | Start | Length | Start sector | End sector --------------------------------------------------------- 1 | 0:00.00 | 4:50.32 | 0 | 21781 2 | 4:50.32 | 5:24.30 | 21782 | 46111 3 | 10:14.62 | 4:11.49 | 46112 | 64985 4 | 14:26.36 | 3:54.70 | 64986 | 82605 5 | 18:21.31 | 4:07.47 | 82606 | 101177 6 | 22:29.03 | 2:15.13 | 101178 | 111315 7 | 24:44.16 | 6:18.55 | 111316 | 139720 8 | 31:02.71 | 3:39.59 | 139721 | 156204 9 | 34:42.55 | 2:53.48 | 156205 | 169227 10 | 37:36.28 | 3:48.38 | 169228 | 186365 11 | 41:24.66 | 4:12.16 | 186366 | 205281 12 | 45:37.07 | 4:05.35 | 205282 | 223691 13 | 49:42.42 | 4:50.11 | 223692 | 245452 14 | 54:32.53 | 4:54.42 | 245453 | 267544

Track 1

Filename F:\Reggae 2\VA\Essential Dub\01 – Oku Onuora - Dub Out – Oku Onuora - Dub Out.wav

Pre-gap length 0:00:02.00

Peak level 96.6 % Track quality 100.0 % Test CRC 7D6BDEAA Copy CRC 7D6BDEAA Track not present in AccurateRip database Copy OK

Track 2

Filename F:\Reggae 2\VA\Essential Dub\02 – Ras Michael & The Sons Of Negus - Truth And Right – Ras Michael & The Sons Of Negus - Truth And Right.wav

Pre-gap length 0:00:02.00

Peak level 96.6 % Track quality 99.9 % Test CRC 11B32DA6 Copy CRC 11B32DA6 Track not present in AccurateRip database Copy OK

Track 3

Filename F:\Reggae 2\VA\Essential Dub\03 – Dub Trio - Drive By Dub – Dub Trio - Drive By Dub.wav

Pre-gap length 0:00:01.00

Peak level 96.6 % Track quality 100.0 % Test CRC 9F95E263 Copy CRC 9F95E263 Track not present in AccurateRip database Copy OK

Track 4

Filename F:\Reggae 2\VA\Essential Dub\04 – Bush Chemists - East Of Jaro – Bush Chemists - East Of Jaro.wav

Pre-gap length 0:00:00.49

Peak level 96.6 % Track quality 100.0 % Test CRC C80C7D71 Copy CRC C80C7D71 Track not present in AccurateRip database Copy OK

Track 5

Filename F:\Reggae 2\VA\Essential Dub\05 – Bad Brains - Leaving Babylon – Bad Brains - Leaving Babylon.wav

Pre-gap length 0:00:02.00

Peak level 96.6 % Track quality 99.9 % Test CRC 9D369944 Copy CRC 9D369944 Track not present in AccurateRip database Copy OK

Track 6

Filename F:\Reggae 2\VA\Essential Dub\06 – Twilight Circus - Bassie Dub I – Twilight Circus - Bassie Dub I.wav

Pre-gap length 0:00:02.00

Peak level 96.6 % Track quality 100.0 % Test CRC 640FF509 Copy CRC 640FF509 Track not present in AccurateRip database Copy OK

Track 7

Filename F:\Reggae 2\VA\Essential Dub\07 – Bill Laswell - Space-Time Paradox – Bill Laswell - Space-Time Paradox.wav

Pre-gap length 0:00:02.00

Peak level 96.6 % Track quality 100.0 % Test CRC 5C3175A7 Copy CRC 5C3175A7 Track not present in AccurateRip database Copy OK

Track 8

Filename F:\Reggae 2\VA\Essential Dub\08 – Dr. Israel - Sensimellia – Dr. Israel - Sensimellia.wav

Pre-gap length 0:00:02.00

Peak level 98.8 % Track quality 100.0 % Test CRC 46AB842A Copy CRC 46AB842A Track not present in AccurateRip database Copy OK

Track 9

Filename F:\Reggae 2\VA\Essential Dub\09 – Niney The Observer - Acoustic Dub – Niney The Observer - Acoustic Dub.wav

Pre-gap length 0:00:02.00

Peak level 96.6 % Track quality 100.0 % Test CRC 4FE7E231 Copy CRC 4FE7E231 Track not present in AccurateRip database Copy OK

Track 10

Filename F:\Reggae 2\VA\Essential Dub\10 – Alpha & Omega - Africa – Ethiopia.wav

Pre-gap length 0:00:02.00

Peak level 96.6 % Track quality 99.9 % Test CRC AF1C261F Copy CRC AF1C261F Track not present in AccurateRip database Copy OK

Track 11

Filename F:\Reggae 2\VA\Essential Dub\11 – Terrorists - Anittoo – Terrorists - Anittoo.wav

Pre-gap length 0:00:02.00

Peak level 96.6 % Track quality 99.9 % Test CRC E17AD54E Copy CRC E17AD54E Track not present in AccurateRip database Copy OK

Track 12

Filename F:\Reggae 2\VA\Essential Dub\12 – Badawi - Turbo Auto Drive – Badawi - Turbo Auto Drive.wav

Pre-gap length 0:00:00.60

Peak level 96.6 % Track quality 100.0 % Test CRC 6385D1CE Copy CRC 6385D1CE Track not present in AccurateRip database Copy OK

Track 13

Filename F:\Reggae 2\VA\Essential Dub\13 – Phase Selector Sound - Jackson Park – Phase Selector Sound - Jackson Park.wav

Pre-gap length 0:00:02.00

Peak level 96.6 % Track quality 100.0 % Test CRC 29802B53 Copy CRC 29802B53 Track not present in AccurateRip database Copy OK

Track 14

Filename F:\Reggae 2\VA\Essential Dub\14 – 10 Ft. Ganja Plant - New Day – 10 Ft. Ganja Plant - New Day.wav

Pre-gap length 0:00:02.00

Peak level 96.6 % Track quality 99.9 % Test CRC E5DA7CE2 Copy CRC E5DA7CE2 Track not present in AccurateRip database Copy OK

None of the tracks are present in the AccurateRip database

No errors occurred

End of status report
 
REM GENRE DubREM DATE 2007REM DISCID D60DEF0EREM COMMENT "ExactAudioCopy v0.99pb4"PERFORMER "Various Artists"TITLE "Essential Dub"FILE "01 – Oku Onuora - Dub Out – Oku Onuora - Dub Out.wav" WAVE TRACK 01 AUDIO TITLE "Oku Onuora - Dub Out" PERFORMER "Oku Onuora - Dub Out" INDEX 01 00:00:00 TRACK 02 AUDIO TITLE "Ras Michael & The Sons Of Negus - Truth And Right" PERFORMER "Ras Michael & The Sons Of Negus - Truth And Right" INDEX 00 04:48:32FILE "02 – Ras Michael & The Sons Of Negus - Truth And Right – Ras Michael & The Sons Of Negus - Truth And Right.wav" WAVE INDEX 01 00:00:00 TRACK 03 AUDIO TITLE "Dub Trio - Drive By Dub" PERFORMER "Dub Trio - Drive By Dub" INDEX 00 05:23:30FILE "03 – Dub Trio - Drive By Dub – Dub Trio - Drive By Dub.wav" WAVE INDEX 01 00:00:00 TRACK 04 AUDIO TITLE "Bush Chemists - East Of Jaro" PERFORMER "Bush Chemists - East Of Jaro" INDEX 00 04:11:00FILE "04 – Bush Chemists - East Of Jaro – Bush Chemists - East Of Jaro.wav" WAVE INDEX 01 00:00:00 TRACK 05 AUDIO TITLE "Bad Brains - Leaving Babylon" PERFORMER "Bad Brains - Leaving Babylon" INDEX 00 03:52:70FILE "05 – Bad Brains - Leaving Babylon – Bad Brains - Leaving Babylon.wav" WAVE INDEX 01 00:00:00 TRACK 06 AUDIO TITLE "Twilight Circus - Bassie Dub I" PERFORMER "Twilight Circus - Bassie Dub I" INDEX 00 04:05:47FILE "06 – Twilight Circus - Bassie Dub I – Twilight Circus - Bassie Dub I.wav" WAVE INDEX 01 00:00:00 TRACK 07 AUDIO TITLE "Bill Laswell - Space-Time Paradox" PERFORMER "Bill Laswell - Space-Time Paradox" INDEX 00 02:13:13FILE "07 – Bill Laswell - Space-Time Paradox – Bill Laswell - Space-Time Paradox.wav" WAVE INDEX 01 00:00:00 TRACK 08 AUDIO TITLE "Dr. Israel - Sensimellia" PERFORMER "Dr. Israel - Sensimellia" INDEX 00 06:16:55FILE "08 – Dr. Israel - Sensimellia – Dr. Israel - Sensimellia.wav" WAVE INDEX 01 00:00:00 TRACK 09 AUDIO TITLE "Niney The Observer - Acoustic Dub" PERFORMER "Niney The Observer - Acoustic Dub" INDEX 00 03:37:59FILE "09 – Niney The Observer - Acoustic Dub – Niney The Observer - Acoustic Dub.wav" WAVE INDEX 01 00:00:00 TRACK 10 AUDIO TITLE "Ethiopia" PERFORMER "Alpha & Omega - Africa" INDEX 00 02:51:48FILE "10 – Alpha & Omega - Africa – Ethiopia.wav" WAVE INDEX 01 00:00:00 TRACK 11 AUDIO TITLE "Terrorists - Anittoo" PERFORMER "Terrorists - Anittoo" INDEX 00 03:46:38FILE "11 – Terrorists - Anittoo – Terrorists - Anittoo.wav" WAVE INDEX 01 00:00:00 TRACK 12 AUDIO TITLE "Badawi - Turbo Auto Drive" PERFORMER "Badawi - Turbo Auto Drive" INDEX 00 04:11:31FILE "12 – Badawi - Turbo Auto Drive – Badawi - Turbo Auto Drive.wav" WAVE INDEX 01 00:00:00 TRACK 13 AUDIO TITLE "Phase Selector Sound - Jackson Park" PERFORMER "Phase Selector Sound - Jackson Park" INDEX 00 04:03:35FILE "13 – Phase Selector Sound - Jackson Park – Phase Selector Sound - Jackson Park.wav" WAVE INDEX 01 00:00:00 TRACK 14 AUDIO TITLE "10 Ft. Ganja Plant - New Day" PERFORMER "10 Ft. Ganja Plant - New Day" INDEX 00 04:48:11FILE "14 – 10 Ft. Ganja Plant - New Day – 10 Ft. Ganja Plant - New Day.wav" WAVE INDEX 01 00:00:00


Трекер:  [ 15-Дек-2011 17:13 ]

  

Скачать .torrent

Размер .torrent файла 31 KB


Размер: 374 MB
Хэш (hash) релиза: eb9bf485b3d78a06b411f087cdf89f11b5023b38

Еще никто не оставлял запись к записи скачать торрент VA - Essential Dub - 2007, FLAC . Будь первым!

!Обратная связь