Piccola pasticceria salata | NON-ENGLISH GAMES | Konwój / Konwój (2016)

Скачать через торрент музыку The OneUps бесплатно без регистрации torrent

Статистика раздачи
Размер:  1.42 GB   |    Зарегистрирован:  6 лет 5 месяцев   |    .torrent скачан:  44 раза   |   
Раздают:  1  
   
загрузка...
 
Автор Сообщение

Galfimbul

avatar Galfimbul


(The OneUp Mushrooms)
4 альбомаЖанр: Score / Arrangement, Funk, Jazz
Год издания диска: 2005-2011
Издатель (лейбл): OneUp Studios
Страна: Америка, Арканзас, Фейетвил
Аудиокодек: FLAC (*.flac)
Тип рипа: tracks+.cue
Битрейт аудио: lossless
Продолжительность: 3:59:00
Источник (релизер): What.CD (sombreroman55, Staticnumeric, afr0sir27, jordexciu)
Наличие сканов в содержимом раздачи: да
Треклист:
01. ToeJam Jammin' - [from ToeJam & Earl] [4:06]
02. Koopa Beach - [from Super Mario Kart] [4:03]
03. Monkeys - [from Mario Paint] [3:00]
04. Isle Delfino - [from Super Mario Sunshine] [3:06]
05. Andy Asteroids - [from Earthworm Jim] [2:48]
06. Schala - [from Chrono Trigger] [3:08]
07. City Lights (Mother) - [from Axelay] [4:13]
08. Katamaritaino - [from Katamari Damacy] [4:51]
09. Koopa's Theme - [from Super Mario 64] [3:20]
10. Bomberman - [from Bomberman] [3:06]
11. Town Medley - [from Zelda II: The Adventure of Link] [4:37]
12. Bossa De Link - [from The Legend of Zelda] [3:49]
13. Aquatic Ambience - [from Donkey Kong Country] [4:25]
14. Green Greems - [from Kirby's Dream Land] [4:48]
15. Michael's Theme - [from Maniac Mansion] [2:54]
16. Paperboy - [from Paperboy] [6:19]
01 ToeJam Jammin' - [from ToeJam & Earl]
Composed by John Baker
Originally Published by ToeJam & Earl Studios
Arranged by The OneUps
Anthony Lofton - Tenor Saxophone
Jared Dunn - Drums, Tambourine, Cowbell, & Synthesizer
Tim Yarbrough - Electric Guitar
William Reyes - Elecyric Nylon String Guitar
Mustin - Bass Guitar, Muted Guitar, Electric Piano, & Clavinet

02 Koopa Beach - [from Super Mario Kart]
Composed by Soyo Oka
Originally Published by Nintendo
Arranged by The OneUps
Nathan McLeod - Alto Saxophone
Greg Kennedy - Violin
Anthony Lofton - Soprano Saxophone Solo
William Reyes - Nylon String Guitar
Matthew "Moose" Bridges - Bass Guitar
Jared Dunn - Drums, Egg Shakers, Maracas, & Bongos
Mustin - Guiro

03 Monkeys - [from Mario Paint]
Composed by Hip Tanaka
Originally Published by Nintendo
Arranged by Mustin
Mustin - Melodica, Piano, Guiro, & Bass Guitar
Greg Kennedy - Violin
William Reyes - Electric Nylon String Guitar
Matthew "Moose" Bridges - Bass Guitar
Jared Dunn - Claves, Triangle, & Bongos

04 Isle Delfino - [from Super Mario Sunshine]
Composed by Koji Kondo
Originally Published by Nintendo
Arranged by Tim Yarbrough
Tim Yarbrough - Acoustic Steel String Guitar
Greg Kennedy - Mandolin & Violin
William Reyes - Nylon String Guitar
Mustin - Melodica & Bass Guitar

05 Andy Asteroids - [from Earthworm Jim]
Composed by Tommy Tallarico
Originally Published by Tommy Tallarico Studios
Arranged by The OneUps
Greg Kennedy - Fiddle
William Reyes - Nylon String Guitars
Matthew "Moose" Bridges - Bass Guitar
Jared Dunn - Drums

06 Schala - [from Chrono Trigger]
Composed by Yasunori Mitsuda
Originally Published by NTT Publishing
Arranged by The OneUps
Greg Kennedy - Violin
Anthony Lofton - Soprano Saxophone
Tim Yarbrough - Electric Guitar
William Reyes - Electric Nylon String Guitar
Mustin - Glockenspiel, Electric Piano, & Bass Guitar
Jared Dunn - Drums

07 City Lights (Mother) - [from Axelay]
Composed by Souji Taro
Originally Published by Konami
Arranged by Posu "po!" Yan
Anthony Lofton - Tenor Saxophone
Greg Kennedy - Violin
William Reyes - All Guitars
Matthew "Moose" Bridges - Bass Guitar
Jared Dunn - Drums & Egg Shakers

08 Katamaritaino - [from Katamari Damacy]
Composed by Hideki Tobeta
Originally Published by Columbia Music
Arranged by Mustin
Featuring Rebekah Wood - Vocals
Anthony Lofton - Soprano & Tenor Saxophones
Greg Kennedy - Violin
Tim Yarbrough - Electric Guitar
William Reyes - Electric Nylon String Guitar
Mustin - Melodica, Piano, & Bass Guitar
Jared Dunn - High Hay, Egg Shakers, Tambourine, Claves, Bongos, & Bar Bell

09 Koopa's Theme - [from Super Mario 64]
Composed by Koji Kondo
Originally Published by Nintendo
Arranged by Mustin & The OneUps
William Reyes - Lead Guitar
Mustin - All Rhythm Guitars & Bass Guitar
Jared Dunn - Drums

10 Bomberman - [from Bomberman]
Composed by June Chikuma
Originally Published by Hudson Soft
Arranged by The OneUps
Anthony Lofton - Tenor Saxophone
Greg Kennedy - Violin
Tim Yarbrough - Electric Guitar
William Reyes - Electric Nylon String Guitar
Mustin - Piano & Bass Guitar
Jared Dunn - Drums

11 Town Medley - [from Zelda II: The Adventure of Link]
Composed by Akito Nakatsuka
Originally Published by Nintendo
Arranged and Performed by William Reyes

12 Bossa De Link - [from The Legend of Zelda]
Composed by Koji Kondo
Originally Published by Nintendo
Arranged by William Reyes
Nathan McLeod - Alto Saxophone
William Reyes - Nylon String Guitar
Mustin - Bass Guitar
Jared Dunn - Drums

13 Aquatic Ambience - [from Donkey Kong Country]
Composed by David Wise
Originally Published by Nintendo
Arranged by The OneUps
Anthony Lofton - Soprano Saxophone
William Reyes - Nylon String Guitar
Mustin - Synthesizer Pad, Piano, & Bass Guitar
Jared Dunn - Ddrums

14 Green Greens - [from Kirby's Dream Land]
Composed by Jun Ishikawa
Originally Published by Nintendo
Arranged by Anthony Lofton
Anthony Lofton - Electric Piano, Soprano & Tenor Saxophones
Matthew "Moose" Bridges - Bass Guitar
Jared Dunn - Drums

15 Michael's Theme - [from Maniac Mansion]
Composed by Chris Grigg, David Lawrence, & Brian Hales
Originally Published by Lucas Arts
Arranged by The OneUps
Greg Kennedy - Violin
Anthony Lofton - Tenor Saxophone
Tim Yarbrough - Electric Guitar
William Reyes - Electric Nylon Strin gGuitar
Mustin - Electric Piano & Bass Guitar
Jared Dunn - Drums

16 Paperboy - [from Paperboy]
Composed by Mark Cooksey
Originally Published by Mindscape
Arranged by The OneUps
Mustin - Electric Piano, Bass Guitar, & Bicycle Bell
Anthony Lofton - Tenor Saxophone
William Reyes - Electric Nylon String Guitar
Tim Yarbrough - Electric Guitar
Jared Dunn - Drums, Tambourine, & Egg Shakers
 
Exact Audio Copy V0.99 prebeta 3 from 28. July 2007

EAC extraction logfile from 5. May 2009, 19:03

The OneUps / The OneUps Volume 1

Used drive : SONY DVD RW DRU-820A Adapter: 5 ID: 1

Read mode : SecureUtilize accurate stream : YesDefeat audio cache : YesMake use of C2 pointers : No

Read offset correction : 102Overread into Lead-In and Lead-Out : NoFill up missing offset samples with silence : YesDelete leading and trailing silent blocks : NoNull samples used in CRC calculations : YesUsed interface : Native Win32 interface for Win NT & 2000Gap handling : Appended to previous track

Used output format : User Defined EncoderSelected bitrate : 320 kBit/sQuality : HighAdd ID3 tag : NoCommand line compressor : C:\Program Files\Exact Audio Copy\Flac\flac.exeAdditional command line options : -V -8 -T "artist=%a" -T "title=%t" -T "album=%g" -T "date=%y" -T "tracknumber=%n" -T "genre=%m" %s

TOC of the extracted CD

Track | Start | Length | Start sector | End sector --------------------------------------------------------- 1 | 0:00.00 | 4:06.21 | 0 | 18470 2 | 4:06.21 | 4:03.19 | 18471 | 36714 3 | 8:09.40 | 2:59.56 | 36715 | 50195 4 | 11:09.21 | 3:06.24 | 50196 | 64169 5 | 14:15.45 | 2:48.27 | 64170 | 76796 6 | 17:03.72 | 3:08.36 | 76797 | 90932 7 | 20:12.33 | 4:13.00 | 90933 | 109907 8 | 24:25.33 | 4:50.46 | 109908 | 131703 9 | 29:16.04 | 3:19.38 | 131704 | 146666 10 | 32:35.42 | 3:05.48 | 146667 | 160589 11 | 35:41.15 | 4:36.65 | 160590 | 181354 12 | 40:18.05 | 3:49.24 | 181355 | 198553 13 | 44:07.29 | 4:25.04 | 198554 | 218432 14 | 48:32.33 | 4:47.43 | 218433 | 240000 15 | 53:20.01 | 2:54.07 | 240001 | 253057 16 | 56:14.08 | 6:19.34 | 253058 | 281516

Track 1

Filename C:\FLAC Torrents\The OneUps Volume 1\01 The OneUps-ToeJam & Earl (ToeJam Jammin').wav

Pre-gap length 0:00:02.00

Peak level 100.0 % Track quality 100.0 % Test CRC A1AAB350 Copy CRC A1AAB350 Accurately ripped (confidence 1) [EE78AE06] Copy OK

Track 2

Filename C:\FLAC Torrents\The OneUps Volume 1\02 The OneUps-Super Mario Kart (Koopa Beach).wav

Peak level 91.2 % Track quality 100.0 % Test CRC 220FFBB0 Copy CRC 220FFBB0 Accurately ripped (confidence 1) [BF75C1F3] Copy OK

Track 3

Filename C:\FLAC Torrents\The OneUps Volume 1\03 The OneUps-Mario Paint (Monkeys).wav

Peak level 98.3 % Track quality 100.0 % Test CRC 44373CBF Copy CRC 44373CBF Accurately ripped (confidence 1) [246C4656] Copy OK

Track 4

Filename C:\FLAC Torrents\The OneUps Volume 1\04 The OneUps-Super Mario Sunshine (Isle Delfino).wav

Peak level 99.5 % Track quality 100.0 % Test CRC 553A13C9 Copy CRC 553A13C9 Accurately ripped (confidence 1) [2B4965C5] Copy OK

Track 5

Filename C:\FLAC Torrents\The OneUps Volume 1\05 The OneUps-Earthworm Jim (Andy Asteroids).wav

Peak level 100.0 % Track quality 99.9 % Test CRC E27ADCC0 Copy CRC E27ADCC0 Accurately ripped (confidence 1) [FE5557AE] Copy OK

Track 6

Filename C:\FLAC Torrents\The OneUps Volume 1\06 The OneUps-Chrono Trigger (Schala).wav

Peak level 98.3 % Track quality 100.0 % Test CRC 01EEC767 Copy CRC 01EEC767 Accurately ripped (confidence 1) [51EDA957] Copy OK

Track 7

Filename C:\FLAC Torrents\The OneUps Volume 1\07 The OneUps-Axelay (City Lights).wav

Peak level 87.8 % Track quality 99.9 % Test CRC CEE33444 Copy CRC CEE33444 Accurately ripped (confidence 1) [AFF10C3A] Copy OK

Track 8

Filename C:\FLAC Torrents\The OneUps Volume 1\08 The OneUps-Katamari Damacy (Katamaritaino).wav

Peak level 100.0 % Track quality 100.0 % Test CRC 6885D988 Copy CRC 6885D988 Accurately ripped (confidence 1) [2E97DDBC] Copy OK

Track 9

Filename C:\FLAC Torrents\The OneUps Volume 1\09 The OneUps-Super Mario 64 (Koopa's Theme).wav

Peak level 100.0 % Track quality 100.0 % Test CRC 1600F4B3 Copy CRC 1600F4B3 Accurately ripped (confidence 1) [AD025526] Copy OK

Track 10

Filename C:\FLAC Torrents\The OneUps Volume 1\10 The OneUps-Bomberman (Bomberman).wav

Peak level 100.0 % Track quality 99.9 % Test CRC F37651B6 Copy CRC F37651B6 Accurately ripped (confidence 1) [84504E84] Copy OK

Track 11

Filename C:\FLAC Torrents\The OneUps Volume 1\11 The OneUps-Zelda II- The Adventure of Link (Town Medley).wav

Peak level 95.1 % Track quality 100.0 % Test CRC 4822DAA7 Copy CRC 4822DAA7 Accurately ripped (confidence 1) [EB44D06B] Copy OK

Track 12

Filename C:\FLAC Torrents\The OneUps Volume 1\12 The OneUps-The Legend of Zelda (Bossa De Link).wav

Peak level 100.0 % Track quality 100.0 % Test CRC 8D14AAC0 Copy CRC 8D14AAC0 Accurately ripped (confidence 1) [08044AA7] Copy OK

Track 13

Filename C:\FLAC Torrents\The OneUps Volume 1\13 The OneUps-Donkey Kong Country (Aquatic Ambience).wav

Peak level 100.0 % Track quality 100.0 % Test CRC 21C04B54 Copy CRC 21C04B54 Accurately ripped (confidence 1) [D5A00DE6] Copy OK

Track 14

Filename C:\FLAC Torrents\The OneUps Volume 1\14 The OneUps-Kirby's Dream Land(Green Greens).wav

Peak level 100.0 % Track quality 99.9 % Test CRC E68B2613 Copy CRC E68B2613 Accurately ripped (confidence 1) [645330E2] Copy OK

Track 15

Filename C:\FLAC Torrents\The OneUps Volume 1\15 The OneUps-Maniac Mansion (Michael).wav

Peak level 99.3 % Track quality 100.0 % Test CRC F04627A7 Copy CRC F04627A7 Accurately ripped (confidence 1) [5605D983] Copy OK

Track 16

Filename C:\FLAC Torrents\The OneUps Volume 1\16 The OneUps-Paperboy (Paperboy).wav

Peak level 100.0 % Track quality 100.0 % Test CRC 646E290C Copy CRC 646E290C Accurately ripped (confidence 1) [77690E6B] Copy OK

All tracks accurately ripped

No errors occurred

End of status report
 
REM GENRE SoundtrackREM DATE 2005REM DISCID DE0EA910REM COMMENT "ExactAudioCopy v0.99pb3"PERFORMER "The OneUps"TITLE "The OneUps Volume 1"FILE "01. ToeJam & Earl (ToeJam Jammin').wav" WAVE TRACK 01 AUDIO TITLE "ToeJam & Earl (ToeJam Jammin')" PERFORMER "The OneUps" INDEX 01 00:00:00FILE "02. Super Mario Kart (Koopa Beach).wav" WAVE TRACK 02 AUDIO TITLE "Super Mario Kart (Koopa Beach)" PERFORMER "The OneUps" INDEX 01 00:00:00FILE "03. Mario Paint (Monkeys).wav" WAVE TRACK 03 AUDIO TITLE "Mario Paint (Monkeys)" PERFORMER "The OneUps" INDEX 01 00:00:00FILE "04. Super Mario Sunshine (Isle Delfino).wav" WAVE TRACK 04 AUDIO TITLE "Super Mario Sunshine (Isle Delfino)" PERFORMER "The OneUps" INDEX 01 00:00:00FILE "05. Earthworm Jim (Andy Asteroids).wav" WAVE TRACK 05 AUDIO TITLE "Earthworm Jim (Andy Asteroids)" PERFORMER "The OneUps" INDEX 01 00:00:00FILE "06. Chrono Trigger (Schala).wav" WAVE TRACK 06 AUDIO TITLE "Chrono Trigger (Schala)" PERFORMER "The OneUps" INDEX 01 00:00:00FILE "07. Axelay (City Lights).wav" WAVE TRACK 07 AUDIO TITLE "Axelay (City Lights)" PERFORMER "The OneUps" INDEX 01 00:00:00FILE "08. Katamari Damacy (Katamaritaino).wav" WAVE TRACK 08 AUDIO TITLE "Katamari Damacy (Katamaritaino)" PERFORMER "The OneUps" INDEX 01 00:00:00FILE "09. Super Mario 64 (Koopa's Theme).wav" WAVE TRACK 09 AUDIO TITLE "Super Mario 64 (Koopa's Theme)" PERFORMER "The OneUps" INDEX 01 00:00:00FILE "10. Bomberman (Bomberman).wav" WAVE TRACK 10 AUDIO TITLE "Bomberman (Bomberman)" PERFORMER "The OneUps" INDEX 01 00:00:00FILE "11. Zelda II- The Adventure of Link (Town Medley).wav" WAVE TRACK 11 AUDIO TITLE "Zelda II: The Adventure of Link (Town Medley)" PERFORMER "The OneUps" INDEX 01 00:00:00FILE "12. The Legend of Zelda (Bossa De Link).wav" WAVE TRACK 12 AUDIO TITLE "The Legend of Zelda (Bossa De Link)" PERFORMER "The OneUps" INDEX 01 00:00:00FILE "13. Donkey Kong Country (Aquatic Ambience).wav" WAVE TRACK 13 AUDIO TITLE "Donkey Kong Country (Aquatic Ambience)" PERFORMER "The OneUps" INDEX 01 00:00:00FILE "14. Kirby's Dream Land (Green Greens).wav" WAVE TRACK 14 AUDIO TITLE "Kirby's Dream Land (Green Greens)" PERFORMER "The OneUps" INDEX 01 00:00:00FILE "15. Maniac Mansion (Michael).wav" WAVE TRACK 15 AUDIO TITLE "Maniac Mansion (Michael)" PERFORMER "The OneUps" INDEX 01 00:00:00FILE "16. Paperboy (Paperboy).wav" WAVE TRACK 16 AUDIO TITLE "Paperboy (Paperboy)" PERFORMER "The OneUps" INDEX 01 00:00:00
CD 1
01 Mario Paint - Title Screen [1:49]
02 Punch-Out!! [2:11]
03 Sonic the Hedgehog - Green Hill Zone [4:13]
04 Tetris - Music A (Korobeniki) [3:25]
05 Secret of Mana - Into the Thick of It [3:10]
06 Mega Man 2 - Air Man [4:02]
07 Nintendo Wii - Mii Channel [2:28]
08 Mega Man X - Boomer Kuwanger [4:05]
09 Super Metroid - Brinstar [3:32]
10 King Arthur's World - Funky Goblin [4:25]
11 The Lenged of Zelda: A Link to the Past - Time of the Falling Rain [5:10]
12 Street Fighter II - Vega [3:14]
13 Castlevania III: Dracula's Curse - Prelude [2:40]

CD 2
01 Metroid - Title BGM [2:30]
02 Final Fantasy VI - Terra [4:01]
03 ToeJam & Earl - Alien Break Down [4:32]
04 Luigi's Mansion - Professor Oyama's Laboratory [3:39]
05 Star Fox - Fortuna [6:24]
06 Castlevania II: Simon's Quest - The Silence of the Daylight [2:35]
07 The Lenged of Zelda: A Link to the Past - Dungeon Medley [5:21]
08 Super Mario Bros. 2 - Underground BGM [3:46]
09 Chrono Trigger - Chrono Trigger Theme [4:58]
10 Sonic the Hedgehog 2 - Mystic Cave Zone [5:27]
11 Street Fighter II - Sagat [3:21]
12 Mega Man 3 - Shadow Man [5:48]
13 DuckTales - African Mines [10:56]
Pre-released at Penny Arcade Expo 2008 (August 29-31, 2008).

Disc I

01. Title Screen (Hirokazu Tanaka, Ryoji Yoshitomi, Kazumi Totaka)
From Mario Paint
Arranged and Performed by Tim Yarbrough

02. Punch-Out!! (Yukio Kaneoka, Akito Nakatsuka, Kenji Yamamoto)
From Punch-Out!!
Arranged and Performed by:
Tim Yarbrough - Guitar
Mustin - Bass
Jared Dunn - Drums

03. Green Hill Zone (Masato Nakamura)
From Sonic the Hedgehog
Arranged and Performed by The OneUps

04. Music A (Korobeiniki) (Traditional)
From Tetris
Arranged and Performed by The OneUps

05. Into the Thick of It (Hiroki Kikuta)
From Secret of Mana
Arranged and Performed by The OneUps
Greg Kennedy - Violin
Anthony Lofton - Tenor Sax
William Reyes - Nylon Electric Guitar
Mustin - Bass
Jared Dunn - Drums/Shaker
Alexander Reyes - Djembe

06. Air Man (Takashi Tateishi, Manami Matsumae)
From Mega Man 2
Arranged and Performed by The OneUps

07. Mii Channel (Kazumi Totaka)
From Nintendo Wii
Arranged by Dale North & Greg Kennedy
Dale North - Keyboard/Percussion
Greg Kennedy - Violin
Mustin - Bass/Percussion

08. Boomer Kuwanger (Setsuo Yamamoto, Makoto Tomozawa, Yuki Iwai, Yuko Takehara, Toshihiko Horiyama)
From Mega Man X
Arranged and Performed by The OneUps

09. Brinstar (Plant Overgrowth Area) (Kenji Yamamoto)
From Super Metroid
Arranged and Performed by The OneUps

10. Funky Goblin (Justin Scharvona, Martin Simpson)
From King Arthur's World
Arranged and Performed by The OneUps

11. Time of the Falling Rain (Koji Kondo)
From The Legend of Zelda: A Link to the Past
Arranged by Anthony Lofton
Performed by The OneUps

12. Vega (Yoko Shimomura)
From Street Fighter II
Arranged and Performed by:
Greg Kennedy - Violin
William Reyes - Nylon String Guitar/Castanets

13. Prelude (Hidenori Maezawa, Jun Funahashi, Yukie Morimoto)
From Castlevania III: Dracula's Curse
Arranged and Performed by William Reyes

Disc II arranged and performed by The OneUps
Tim Yarbrough - Lead Guitar
Greg Kennedy - Violin
Anthony Lofton - Keyboard/Tenor Sax
William Reyes - Rhythm Guitar
Mustin - Bass
Jared Dunn - Drums
Percussion on Tracks 6 and 7 by Jared Dunn and William Reyes

01. Title BGM (Hirokazu Tanaka)
From Metroid

02. Terra (Nobuo Uematsu)
From Final Fantasy VI

03. Alien Break Down (John Baker)
From ToeJam & Earl

04. Professor Oyama's Laboratory (Kazumi Totaka, Shinobu Tanaka)
From Luigi's Mansion

05. Fortuna (Hajime Hirasawa)
From StarFox

06. The Silence of the Daylight (Ken-ichi Matsubara, Kyohei Sada, Tonma-kun's Papa)
From Castlevania II: Simon's Quest

07. Dungeon Medley (Koji Kondo)
From The Legend of Zelda: A Link to the Past

08. Underground BGM (Koji Kondo)
From Super Mario Bros. 2

09. Chrono Trigger (Yasunori Mitsuda)
From Chrono Trigger

10. Mystic Cave Zone (Masato Nakamura)
From Sonic the Hedgehog 2

11. Sagat (Isao Abe)
From Street Fighter II

12. Shadow Man (Yasuaki Fujita)
From Mega Man 3

13. African Mines (Capcom)
From DuckTales

The final track contains a hidden arrangement of "Overworld BGM" from Super Mario Bros., composed by Koji Kondo.
 
X Lossless Decoder version 20090320 (105.1)

XLD extraction logfile from 2009-05-06 21:46:34 -0500

The OneUps / The OneUps Volume 2

Used drive : HL-DT-ST DVDRW GSA-S10N (revision BP10)

Use cdparanoia mode : YES (CDParanoia III 10.2 engine)Disable audio cache : OK for the drive with cache less than 2750KBMake use of C2 pointers : NORead offset correction : 667Max retry count : 100

TOC of the extracted CD Track | Start | Length | Start sector | End sector --------------------------------------------------------- 1 | 00:00:00 | 02:29:45 | 0 | 11219 2 | 02:29:45 | 04:01:12 | 11220 | 29306 3 | 06:30:57 | 04:32:25 | 29307 | 49731 4 | 11:03:07 | 03:38:50 | 49732 | 66131 5 | 14:41:57 | 06:23:39 | 66132 | 94895 6 | 21:05:21 | 02:35:33 | 94896 | 106553 7 | 23:40:54 | 05:21:11 | 106554 | 130639 8 | 29:01:65 | 03:46:34 | 130640 | 147623 9 | 32:48:24 | 04:57:62 | 147624 | 169960 10 | 37:46:11 | 05:26:38 | 169961 | 194448 11 | 43:12:49 | 03:21:07 | 194449 | 209530 12 | 46:33:56 | 05:48:28 | 209531 | 235658 13 | 52:22:09 | 10:55:49 | 235659 | 284832

Track 01 Filename : /Users/staticnumeric/Music/The OneUps - The OneUps Volume 2 - 2008[FLAC]/2-01 -The OneUps Volume 2- Title BGM.flac

CRC32 hash (test run) : AFCA0F85 CRC32 hash : AFCA0F85 CRC32 hash (skip zero) : F6865C25 AccurateRip signature : 35B3F9F9 ->Accurately ripped! (confidence 5) Statistics Read error : 0 Skipped (treated as error) : 0 Edge jitter error (maybe fixed) : 0 Atom jitter error (maybe fixed) : 0 Drift error (maybe fixed) : 0 Dropped bytes error (maybe fixed) : 0 Duplicated bytes error (maybe fixed) : 0 Inconsistency in error sectors : 0

Track 02 Filename : /Users/staticnumeric/Music/The OneUps - The OneUps Volume 2 - 2008[FLAC]/2-02 -The OneUps Volume 2- Terra.flac

CRC32 hash (test run) : 250BFB65 CRC32 hash : 250BFB65 CRC32 hash (skip zero) : 9E3A694B AccurateRip signature : 390A8EC8 ->Accurately ripped! (confidence 5) Statistics Read error : 0 Skipped (treated as error) : 0 Edge jitter error (maybe fixed) : 0 Atom jitter error (maybe fixed) : 0 Drift error (maybe fixed) : 0 Dropped bytes error (maybe fixed) : 0 Duplicated bytes error (maybe fixed) : 0 Inconsistency in error sectors : 0

Track 03 Filename : /Users/staticnumeric/Music/The OneUps - The OneUps Volume 2 - 2008[FLAC]/2-03 -The OneUps Volume 2- Alien Break Down.flac

CRC32 hash (test run) : 3F0AA08B CRC32 hash : 3F0AA08B CRC32 hash (skip zero) : 778D7476 AccurateRip signature : 85E42AEB ->Accurately ripped! (confidence 5) Statistics Read error : 0 Skipped (treated as error) : 0 Edge jitter error (maybe fixed) : 0 Atom jitter error (maybe fixed) : 0 Drift error (maybe fixed) : 0 Dropped bytes error (maybe fixed) : 0 Duplicated bytes error (maybe fixed) : 0 Inconsistency in error sectors : 0

Track 04 Filename : /Users/staticnumeric/Music/The OneUps - The OneUps Volume 2 - 2008[FLAC]/2-04 -The OneUps Volume 2- Professor Oyama's Laboratory.flac

CRC32 hash (test run) : 3752BB33 CRC32 hash : 3752BB33 CRC32 hash (skip zero) : 95EE6195 AccurateRip signature : 666A5B8C ->Accurately ripped! (confidence 5) Statistics Read error : 0 Skipped (treated as error) : 0 Edge jitter error (maybe fixed) : 0 Atom jitter error (maybe fixed) : 0 Drift error (maybe fixed) : 0 Dropped bytes error (maybe fixed) : 0 Duplicated bytes error (maybe fixed) : 0 Inconsistency in error sectors : 0

Track 05 Filename : /Users/staticnumeric/Music/The OneUps - The OneUps Volume 2 - 2008[FLAC]/2-05 -The OneUps Volume 2- Fortuna.flac

CRC32 hash (test run) : D6398F58 CRC32 hash : D6398F58 CRC32 hash (skip zero) : 75440EF2 AccurateRip signature : CA86DE9C ->Accurately ripped! (confidence 5) Statistics Read error : 0 Skipped (treated as error) : 0 Edge jitter error (maybe fixed) : 0 Atom jitter error (maybe fixed) : 0 Drift error (maybe fixed) : 0 Dropped bytes error (maybe fixed) : 0 Duplicated bytes error (maybe fixed) : 0 Inconsistency in error sectors : 0

Track 06 Filename : /Users/staticnumeric/Music/The OneUps - The OneUps Volume 2 - 2008[FLAC]/2-06 -The OneUps Volume 2- The Silence of the Daylight.flac

CRC32 hash (test run) : F89EE97B CRC32 hash : F89EE97B CRC32 hash (skip zero) : 724E0F49 AccurateRip signature : A6DF2CCD ->Accurately ripped! (confidence 5) Statistics Read error : 0 Skipped (treated as error) : 0 Edge jitter error (maybe fixed) : 0 Atom jitter error (maybe fixed) : 0 Drift error (maybe fixed) : 0 Dropped bytes error (maybe fixed) : 0 Duplicated bytes error (maybe fixed) : 0 Inconsistency in error sectors : 0

Track 07 Filename : /Users/staticnumeric/Music/The OneUps - The OneUps Volume 2 - 2008[FLAC]/2-07 -The OneUps Volume 2- Dungeon Medley.flac

CRC32 hash (test run) : 8EC353F2 CRC32 hash : 8EC353F2 CRC32 hash (skip zero) : FBEF2E16 AccurateRip signature : B30C7186 ->Accurately ripped! (confidence 5) Statistics Read error : 0 Skipped (treated as error) : 0 Edge jitter error (maybe fixed) : 0 Atom jitter error (maybe fixed) : 0 Drift error (maybe fixed) : 0 Dropped bytes error (maybe fixed) : 0 Duplicated bytes error (maybe fixed) : 0 Inconsistency in error sectors : 0

Track 08 Filename : /Users/staticnumeric/Music/The OneUps - The OneUps Volume 2 - 2008[FLAC]/2-08 -The OneUps Volume 2- Underground BGM.flac

CRC32 hash (test run) : 72AA89FE CRC32 hash : 72AA89FE CRC32 hash (skip zero) : 3C891778 AccurateRip signature : 75D9010D ->Accurately ripped! (confidence 5) Statistics Read error : 0 Skipped (treated as error) : 0 Edge jitter error (maybe fixed) : 0 Atom jitter error (maybe fixed) : 0 Drift error (maybe fixed) : 0 Dropped bytes error (maybe fixed) : 0 Duplicated bytes error (maybe fixed) : 0 Inconsistency in error sectors : 0

Track 09 Filename : /Users/staticnumeric/Music/The OneUps - The OneUps Volume 2 - 2008[FLAC]/2-09 -The OneUps Volume 2- Chrono Trigger.flac

CRC32 hash (test run) : 11A48931 CRC32 hash : 11A48931 CRC32 hash (skip zero) : 7C3A4FAB AccurateRip signature : F61F84A1 ->Accurately ripped! (confidence 5) Statistics Read error : 0 Skipped (treated as error) : 0 Edge jitter error (maybe fixed) : 0 Atom jitter error (maybe fixed) : 0 Drift error (maybe fixed) : 0 Dropped bytes error (maybe fixed) : 0 Duplicated bytes error (maybe fixed) : 0 Inconsistency in error sectors : 0

Track 10 Filename : /Users/staticnumeric/Music/The OneUps - The OneUps Volume 2 - 2008[FLAC]/2-10 -The OneUps Volume 2- Mystic Cave Zone.flac

CRC32 hash (test run) : 055EA5DD CRC32 hash : 055EA5DD CRC32 hash (skip zero) : 10E6F212 AccurateRip signature : 9867BB1E ->Accurately ripped! (confidence 5) Statistics Read error : 0 Skipped (treated as error) : 0 Edge jitter error (maybe fixed) : 0 Atom jitter error (maybe fixed) : 0 Drift error (maybe fixed) : 0 Dropped bytes error (maybe fixed) : 0 Duplicated bytes error (maybe fixed) : 0 Inconsistency in error sectors : 0

Track 11 Filename : /Users/staticnumeric/Music/The OneUps - The OneUps Volume 2 - 2008[FLAC]/2-11 -The OneUps Volume 2- Sagat.flac

CRC32 hash (test run) : 68AB26E4 CRC32 hash : 68AB26E4 CRC32 hash (skip zero) : 839D45D7 AccurateRip signature : C5760331 ->Accurately ripped! (confidence 5) Statistics Read error : 0 Skipped (treated as error) : 0 Edge jitter error (maybe fixed) : 0 Atom jitter error (maybe fixed) : 0 Drift error (maybe fixed) : 0 Dropped bytes error (maybe fixed) : 0 Duplicated bytes error (maybe fixed) : 0 Inconsistency in error sectors : 0

Track 12 Filename : /Users/staticnumeric/Music/The OneUps - The OneUps Volume 2 - 2008[FLAC]/2-12 -The OneUps Volume 2- Shadow Man.flac

CRC32 hash (test run) : 52D41AFC CRC32 hash : 52D41AFC CRC32 hash (skip zero) : 7FD2347B AccurateRip signature : A6B49925 ->Accurately ripped! (confidence 5) Statistics Read error : 0 Skipped (treated as error) : 0 Edge jitter error (maybe fixed) : 0 Atom jitter error (maybe fixed) : 0 Drift error (maybe fixed) : 0 Dropped bytes error (maybe fixed) : 0 Duplicated bytes error (maybe fixed) : 0 Inconsistency in error sectors : 0

Track 13 Filename : /Users/staticnumeric/Music/The OneUps - The OneUps Volume 2 - 2008[FLAC]/2-13 -The OneUps Volume 2- African Mines.flac

CRC32 hash (test run) : 133E8BAF CRC32 hash : 133E8BAF CRC32 hash (skip zero) : F266FF51 AccurateRip signature : 7FF63337 ->Accurately ripped! (confidence 5) Statistics Read error : 0 Skipped (treated as error) : 0 Edge jitter error (maybe fixed) : 0 Atom jitter error (maybe fixed) : 0 Drift error (maybe fixed) : 0 Dropped bytes error (maybe fixed) : 0 Duplicated bytes error (maybe fixed) : 0 Inconsistency in error sectors : 0

No errors occurred

End of status report
 
X Lossless Decoder version 20090320 (105.1)

XLD extraction logfile from 2009-05-06 21:46:34 -0500

The OneUps / The OneUps Volume 2

Used drive : HL-DT-ST DVDRW GSA-S10N (revision BP10)

Use cdparanoia mode : YES (CDParanoia III 10.2 engine)Disable audio cache : OK for the drive with cache less than 2750KBMake use of C2 pointers : NORead offset correction : 667Max retry count : 100

TOC of the extracted CD Track | Start | Length | Start sector | End sector --------------------------------------------------------- 1 | 00:00:00 | 02:29:45 | 0 | 11219 2 | 02:29:45 | 04:01:12 | 11220 | 29306 3 | 06:30:57 | 04:32:25 | 29307 | 49731 4 | 11:03:07 | 03:38:50 | 49732 | 66131 5 | 14:41:57 | 06:23:39 | 66132 | 94895 6 | 21:05:21 | 02:35:33 | 94896 | 106553 7 | 23:40:54 | 05:21:11 | 106554 | 130639 8 | 29:01:65 | 03:46:34 | 130640 | 147623 9 | 32:48:24 | 04:57:62 | 147624 | 169960 10 | 37:46:11 | 05:26:38 | 169961 | 194448 11 | 43:12:49 | 03:21:07 | 194449 | 209530 12 | 46:33:56 | 05:48:28 | 209531 | 235658 13 | 52:22:09 | 10:55:49 | 235659 | 284832

Track 01 Filename : /Users/staticnumeric/Music/The OneUps - The OneUps Volume 2 - 2008[FLAC]/2-01 -The OneUps Volume 2- Title BGM.flac

CRC32 hash (test run) : AFCA0F85 CRC32 hash : AFCA0F85 CRC32 hash (skip zero) : F6865C25 AccurateRip signature : 35B3F9F9 ->Accurately ripped! (confidence 5) Statistics Read error : 0 Skipped (treated as error) : 0 Edge jitter error (maybe fixed) : 0 Atom jitter error (maybe fixed) : 0 Drift error (maybe fixed) : 0 Dropped bytes error (maybe fixed) : 0 Duplicated bytes error (maybe fixed) : 0 Inconsistency in error sectors : 0

Track 02 Filename : /Users/staticnumeric/Music/The OneUps - The OneUps Volume 2 - 2008[FLAC]/2-02 -The OneUps Volume 2- Terra.flac

CRC32 hash (test run) : 250BFB65 CRC32 hash : 250BFB65 CRC32 hash (skip zero) : 9E3A694B AccurateRip signature : 390A8EC8 ->Accurately ripped! (confidence 5) Statistics Read error : 0 Skipped (treated as error) : 0 Edge jitter error (maybe fixed) : 0 Atom jitter error (maybe fixed) : 0 Drift error (maybe fixed) : 0 Dropped bytes error (maybe fixed) : 0 Duplicated bytes error (maybe fixed) : 0 Inconsistency in error sectors : 0

Track 03 Filename : /Users/staticnumeric/Music/The OneUps - The OneUps Volume 2 - 2008[FLAC]/2-03 -The OneUps Volume 2- Alien Break Down.flac

CRC32 hash (test run) : 3F0AA08B CRC32 hash : 3F0AA08B CRC32 hash (skip zero) : 778D7476 AccurateRip signature : 85E42AEB ->Accurately ripped! (confidence 5) Statistics Read error : 0 Skipped (treated as error) : 0 Edge jitter error (maybe fixed) : 0 Atom jitter error (maybe fixed) : 0 Drift error (maybe fixed) : 0 Dropped bytes error (maybe fixed) : 0 Duplicated bytes error (maybe fixed) : 0 Inconsistency in error sectors : 0

Track 04 Filename : /Users/staticnumeric/Music/The OneUps - The OneUps Volume 2 - 2008[FLAC]/2-04 -The OneUps Volume 2- Professor Oyama's Laboratory.flac

CRC32 hash (test run) : 3752BB33 CRC32 hash : 3752BB33 CRC32 hash (skip zero) : 95EE6195 AccurateRip signature : 666A5B8C ->Accurately ripped! (confidence 5) Statistics Read error : 0 Skipped (treated as error) : 0 Edge jitter error (maybe fixed) : 0 Atom jitter error (maybe fixed) : 0 Drift error (maybe fixed) : 0 Dropped bytes error (maybe fixed) : 0 Duplicated bytes error (maybe fixed) : 0 Inconsistency in error sectors : 0

Track 05 Filename : /Users/staticnumeric/Music/The OneUps - The OneUps Volume 2 - 2008[FLAC]/2-05 -The OneUps Volume 2- Fortuna.flac

CRC32 hash (test run) : D6398F58 CRC32 hash : D6398F58 CRC32 hash (skip zero) : 75440EF2 AccurateRip signature : CA86DE9C ->Accurately ripped! (confidence 5) Statistics Read error : 0 Skipped (treated as error) : 0 Edge jitter error (maybe fixed) : 0 Atom jitter error (maybe fixed) : 0 Drift error (maybe fixed) : 0 Dropped bytes error (maybe fixed) : 0 Duplicated bytes error (maybe fixed) : 0 Inconsistency in error sectors : 0

Track 06 Filename : /Users/staticnumeric/Music/The OneUps - The OneUps Volume 2 - 2008[FLAC]/2-06 -The OneUps Volume 2- The Silence of the Daylight.flac

CRC32 hash (test run) : F89EE97B CRC32 hash : F89EE97B CRC32 hash (skip zero) : 724E0F49 AccurateRip signature : A6DF2CCD ->Accurately ripped! (confidence 5) Statistics Read error : 0 Skipped (treated as error) : 0 Edge jitter error (maybe fixed) : 0 Atom jitter error (maybe fixed) : 0 Drift error (maybe fixed) : 0 Dropped bytes error (maybe fixed) : 0 Duplicated bytes error (maybe fixed) : 0 Inconsistency in error sectors : 0

Track 07 Filename : /Users/staticnumeric/Music/The OneUps - The OneUps Volume 2 - 2008[FLAC]/2-07 -The OneUps Volume 2- Dungeon Medley.flac

CRC32 hash (test run) : 8EC353F2 CRC32 hash : 8EC353F2 CRC32 hash (skip zero) : FBEF2E16 AccurateRip signature : B30C7186 ->Accurately ripped! (confidence 5) Statistics Read error : 0 Skipped (treated as error) : 0 Edge jitter error (maybe fixed) : 0 Atom jitter error (maybe fixed) : 0 Drift error (maybe fixed) : 0 Dropped bytes error (maybe fixed) : 0 Duplicated bytes error (maybe fixed) : 0 Inconsistency in error sectors : 0

Track 08 Filename : /Users/staticnumeric/Music/The OneUps - The OneUps Volume 2 - 2008[FLAC]/2-08 -The OneUps Volume 2- Underground BGM.flac

CRC32 hash (test run) : 72AA89FE CRC32 hash : 72AA89FE CRC32 hash (skip zero) : 3C891778 AccurateRip signature : 75D9010D ->Accurately ripped! (confidence 5) Statistics Read error : 0 Skipped (treated as error) : 0 Edge jitter error (maybe fixed) : 0 Atom jitter error (maybe fixed) : 0 Drift error (maybe fixed) : 0 Dropped bytes error (maybe fixed) : 0 Duplicated bytes error (maybe fixed) : 0 Inconsistency in error sectors : 0

Track 09 Filename : /Users/staticnumeric/Music/The OneUps - The OneUps Volume 2 - 2008[FLAC]/2-09 -The OneUps Volume 2- Chrono Trigger.flac

CRC32 hash (test run) : 11A48931 CRC32 hash : 11A48931 CRC32 hash (skip zero) : 7C3A4FAB AccurateRip signature : F61F84A1 ->Accurately ripped! (confidence 5) Statistics Read error : 0 Skipped (treated as error) : 0 Edge jitter error (maybe fixed) : 0 Atom jitter error (maybe fixed) : 0 Drift error (maybe fixed) : 0 Dropped bytes error (maybe fixed) : 0 Duplicated bytes error (maybe fixed) : 0 Inconsistency in error sectors : 0

Track 10 Filename : /Users/staticnumeric/Music/The OneUps - The OneUps Volume 2 - 2008[FLAC]/2-10 -The OneUps Volume 2- Mystic Cave Zone.flac

CRC32 hash (test run) : 055EA5DD CRC32 hash : 055EA5DD CRC32 hash (skip zero) : 10E6F212 AccurateRip signature : 9867BB1E ->Accurately ripped! (confidence 5) Statistics Read error : 0 Skipped (treated as error) : 0 Edge jitter error (maybe fixed) : 0 Atom jitter error (maybe fixed) : 0 Drift error (maybe fixed) : 0 Dropped bytes error (maybe fixed) : 0 Duplicated bytes error (maybe fixed) : 0 Inconsistency in error sectors : 0

Track 11 Filename : /Users/staticnumeric/Music/The OneUps - The OneUps Volume 2 - 2008[FLAC]/2-11 -The OneUps Volume 2- Sagat.flac

CRC32 hash (test run) : 68AB26E4 CRC32 hash : 68AB26E4 CRC32 hash (skip zero) : 839D45D7 AccurateRip signature : C5760331 ->Accurately ripped! (confidence 5) Statistics Read error : 0 Skipped (treated as error) : 0 Edge jitter error (maybe fixed) : 0 Atom jitter error (maybe fixed) : 0 Drift error (maybe fixed) : 0 Dropped bytes error (maybe fixed) : 0 Duplicated bytes error (maybe fixed) : 0 Inconsistency in error sectors : 0

Track 12 Filename : /Users/staticnumeric/Music/The OneUps - The OneUps Volume 2 - 2008[FLAC]/2-12 -The OneUps Volume 2- Shadow Man.flac

CRC32 hash (test run) : 52D41AFC CRC32 hash : 52D41AFC CRC32 hash (skip zero) : 7FD2347B AccurateRip signature : A6B49925 ->Accurately ripped! (confidence 5) Statistics Read error : 0 Skipped (treated as error) : 0 Edge jitter error (maybe fixed) : 0 Atom jitter error (maybe fixed) : 0 Drift error (maybe fixed) : 0 Dropped bytes error (maybe fixed) : 0 Duplicated bytes error (maybe fixed) : 0 Inconsistency in error sectors : 0

Track 13 Filename : /Users/staticnumeric/Music/The OneUps - The OneUps Volume 2 - 2008[FLAC]/2-13 -The OneUps Volume 2- African Mines.flac

CRC32 hash (test run) : 133E8BAF CRC32 hash : 133E8BAF CRC32 hash (skip zero) : F266FF51 AccurateRip signature : 7FF63337 ->Accurately ripped! (confidence 5) Statistics Read error : 0 Skipped (treated as error) : 0 Edge jitter error (maybe fixed) : 0 Atom jitter error (maybe fixed) : 0 Drift error (maybe fixed) : 0 Dropped bytes error (maybe fixed) : 0 Duplicated bytes error (maybe fixed) : 0 Inconsistency in error sectors : 0

No errors occurred

End of status report
 
TITLE "The OneUps Volume 2"PERFORMER "The OneUps"REM GENRE "Jazz"REM DATE "2008-09-02"FILE "1-01 Title Screen.wav" WAVE TRACK 01 AUDIO TITLE "Title Screen" INDEX 01 00:00:00FILE "1-02 Punch Out!!.wav" WAVE TRACK 02 AUDIO TITLE "Punch Out!!" INDEX 01 00:00:00FILE "1-03 Green Hill Zone.wav" WAVE TRACK 03 AUDIO TITLE "Green Hill Zone" INDEX 01 00:00:00FILE "1-04 Music A (Korobeiniki).wav" WAVE TRACK 04 AUDIO TITLE "Music A (Korobeiniki)" INDEX 01 00:00:00FILE "1-05 Into the Thick of It.wav" WAVE TRACK 05 AUDIO TITLE "Into the Thick of It" INDEX 01 00:00:00FILE "1-06 Air Man.wav" WAVE TRACK 06 AUDIO TITLE "Air Man" INDEX 01 00:00:00FILE "1-07 Mii Channel.wav" WAVE TRACK 07 AUDIO TITLE "Mii Channel" INDEX 01 00:00:00FILE "1-08 Boomer Kuwanger.wav" WAVE TRACK 08 AUDIO TITLE "Boomer Kuwanger" INDEX 01 00:00:00FILE "1-09 Brinstar.wav" WAVE TRACK 09 AUDIO TITLE "Brinstar" INDEX 01 00:00:00FILE "1-10 Funky Goblin.wav" WAVE TRACK 10 AUDIO TITLE "Funky Goblin" INDEX 01 00:00:00FILE "1-11 Time of the Falling Rain.wav" WAVE TRACK 11 AUDIO TITLE "Time of the Falling Rain" INDEX 01 00:00:00FILE "1-12 Vega.wav" WAVE TRACK 12 AUDIO TITLE "Vega" INDEX 01 00:00:00FILE "1-13 Prelude.wav" WAVE TRACK 13 AUDIO TITLE "Prelude" INDEX 01 00:00:00
 
TITLE "The OneUps Volume 2"PERFORMER "The OneUps"REM GENRE "Jazz"REM DATE "2008-09-02"FILE "2-01 Title BGM.wav" WAVE TRACK 01 AUDIO TITLE "Title BGM" INDEX 01 00:00:00FILE "2-02 Terra.wav" WAVE TRACK 02 AUDIO TITLE "Terra" INDEX 01 00:00:00FILE "2-03 Alien Break Down.wav" WAVE TRACK 03 AUDIO TITLE "Alien Break Down" INDEX 01 00:00:00FILE "2-04 Professor Oyama's Laboratory.wav" WAVE TRACK 04 AUDIO TITLE "Professor Oyama's Laboratory" INDEX 01 00:00:00FILE "2-05 Fortuna.wav" WAVE TRACK 05 AUDIO TITLE "Fortuna" INDEX 01 00:00:00FILE "2-06 The Silence of the Daylight.wav" WAVE TRACK 06 AUDIO TITLE "The Silence of the Daylight" INDEX 01 00:00:00FILE "2-07 Dungeon Medley.wav" WAVE TRACK 07 AUDIO TITLE "Dungeon Medley" INDEX 01 00:00:00FILE "2-08 Underground BGM.wav" WAVE TRACK 08 AUDIO TITLE "Underground BGM" INDEX 01 00:00:00FILE "2-09 Chrono Trigger.wav" WAVE TRACK 09 AUDIO TITLE "Chrono Trigger" INDEX 01 00:00:00FILE "2-10 Mystic Cave Zone.wav" WAVE TRACK 10 AUDIO TITLE "Mystic Cave Zone" INDEX 01 00:00:00FILE "2-11 Sagat.wav" WAVE TRACK 11 AUDIO TITLE "Sagat" INDEX 01 00:00:00FILE "2-12 Shadow Man.wav" WAVE TRACK 12 AUDIO TITLE "Shadow Man" INDEX 01 00:00:00FILE "2-13 African Mines.wav" WAVE TRACK 13 AUDIO TITLE "African Mines" INDEX 01 00:00:00
01 Title Screen [1:46]
02 Mario Circuit [5:09]
03 Donut Plains [3:07]
04 Ghost Valley [3:19]
05 Bowser Castle [3:23]
06 Choco Island [3:04]
07 Something About Koopa Beach [4:28]
08 Vanilla Lake [3:15]
09 Battle Mode [3:09]
10 Rainbow Road [5:42]
Also available digitally.

The OneUps are:
Anthony Lofton: Keys, Tenor Saxophone
Tim Yarbrough: Electric Guitar
William Reyes: Electric Nylon String Guitar, Electric Guitar
Mustin: Bass, Piano
Jared Dunn: Drums, Synthesizers
All music arranged and performed by The OneUps
Artwork by Will Collins for Archetype Productions
Recorded at East Hall Recording, The Listen Laboratory, and OneUp Studios.
Mixed by Mustin
Additional mixing by Dale North
Produced by Mustin
 
Exact Audio Copy V0.99 prebeta 5 from 4. May 2009

EAC extraction logfile from 23. May 2010, 16:57

The OneUps / Super Mario Kart Album

Used drive : SONY DVD RW DRU-820A Adapter: 2 ID: 1

Read mode : SecureUtilize accurate stream : YesDefeat audio cache : YesMake use of C2 pointers : No

Read offset correction : 102Overread into Lead-In and Lead-Out : NoFill up missing offset samples with silence : YesDelete leading and trailing silent blocks : NoNull samples used in CRC calculations : YesUsed interface : Native Win32 interface for Win NT & 2000Gap handling : Appended to previous track

Used output format : User Defined EncoderSelected bitrate : 128 kBit/sQuality : HighAdd ID3 tag : NoCommand line compressor : C:\Program Files (x86)\Exact Audio Copy\Flac\flac.exeAdditional command line options : -V -8 -T "artist=%a" -T "title=%t" -T "album=%g" -T "date=%y" -T "tracknumber=%n" -T "genre=%m" %s

TOC of the extracted CD

Track | Start | Length | Start sector | End sector --------------------------------------------------------- 1 | 0:00.00 | 1:48.47 | 0 | 8146 2 | 1:48.47 | 5:11.28 | 8147 | 31499 3 | 7:00.00 | 3:09.43 | 31500 | 45717 4 | 10:09.43 | 3:21.66 | 45718 | 60858 5 | 13:31.34 | 3:25.57 | 60859 | 76290 6 | 16:57.16 | 3:06.00 | 76291 | 90240 7 | 20:03.16 | 4:30.08 | 90241 | 110498 8 | 24:33.24 | 3:17.08 | 110499 | 125281 9 | 27:50.32 | 3:11.73 | 125282 | 139679 10 | 31:02.30 | 5:38.41 | 139680 | 165070

Track 1

Filename D:\Music\EAC Rips\The OneUps - 2010 - Super Mario Kart Album\01 - Title Screen.wav

Pre-gap length 0:00:02.00

Peak level 99.0 % Track quality 100.0 % Test CRC A83AF68A Copy CRC A83AF68A Track not present in AccurateRip database Copy OK

Track 2

Filename D:\Music\EAC Rips\The OneUps - 2010 - Super Mario Kart Album\02 - Mario Circuit.wav

Peak level 100.0 % Track quality 100.0 % Test CRC A42F590A Copy CRC A42F590A Track not present in AccurateRip database Copy OK

Track 3

Filename D:\Music\EAC Rips\The OneUps - 2010 - Super Mario Kart Album\03 - Donut Plains.wav

Peak level 100.0 % Track quality 99.9 % Test CRC 034E3B54 Copy CRC 034E3B54 Track not present in AccurateRip database Copy OK

Track 4

Filename D:\Music\EAC Rips\The OneUps - 2010 - Super Mario Kart Album\04 - Ghost Valley.wav

Peak level 100.0 % Track quality 99.9 % Test CRC BF83ECD7 Copy CRC BF83ECD7 Track not present in AccurateRip database Copy OK

Track 5

Filename D:\Music\EAC Rips\The OneUps - 2010 - Super Mario Kart Album\05 - Bowser Castle.wav

Peak level 99.2 % Track quality 100.0 % Test CRC 33E8FDAE Copy CRC 33E8FDAE Track not present in AccurateRip database Copy OK

Track 6

Filename D:\Music\EAC Rips\The OneUps - 2010 - Super Mario Kart Album\06 - Choco Island.wav

Peak level 100.0 % Track quality 100.0 % Test CRC E49C1AE4 Copy CRC E49C1AE4 Track not present in AccurateRip database Copy OK

Track 7

Filename D:\Music\EAC Rips\The OneUps - 2010 - Super Mario Kart Album\07 - Something About Koopa Beach.wav

Peak level 100.0 % Track quality 100.0 % Test CRC C72A2AF4 Copy CRC C72A2AF4 Track not present in AccurateRip database Copy OK

Track 8

Filename D:\Music\EAC Rips\The OneUps - 2010 - Super Mario Kart Album\08 - Vanilla Lake.wav

Peak level 100.0 % Track quality 100.0 % Test CRC 3698B078 Copy CRC 3698B078 Track not present in AccurateRip database Copy OK

Track 9

Filename D:\Music\EAC Rips\The OneUps - 2010 - Super Mario Kart Album\09 - Battle Mode.wav

Peak level 100.0 % Track quality 100.0 % Test CRC 9EDDD3BE Copy CRC 9EDDD3BE Track not present in AccurateRip database Copy OK

Track 10

Filename D:\Music\EAC Rips\The OneUps - 2010 - Super Mario Kart Album\10 - Rainbow Road.wav

Peak level 100.0 % Track quality 100.0 % Test CRC DF8FF1CD Copy CRC DF8FF1CD Track not present in AccurateRip database Copy OK

None of the tracks are present in the AccurateRip database

No errors occurred

End of status report
 
REM GENRE JazzREM DATE 2010REM DISCID 6708980AREM COMMENT "ExactAudioCopy v0.99pb5"PERFORMER "The OneUps"TITLE "Super Mario Kart Album"FILE "01 Title Screen.wav" WAVE TRACK 01 AUDIO TITLE "Title Screen" PERFORMER "The OneUps" FLAGS DCP INDEX 01 00:00:00FILE "02 Mario Circuit.wav" WAVE TRACK 02 AUDIO TITLE "Mario Circuit" PERFORMER "The OneUps" FLAGS DCP INDEX 01 00:00:00FILE "03 Donut Plains.wav" WAVE TRACK 03 AUDIO TITLE "Donut Plains" PERFORMER "The OneUps" FLAGS DCP INDEX 01 00:00:00FILE "04 Ghost Valley.wav" WAVE TRACK 04 AUDIO TITLE "Ghost Valley" PERFORMER "The OneUps" FLAGS DCP INDEX 01 00:00:00FILE "05 Bowser Castle.wav" WAVE TRACK 05 AUDIO TITLE "Bowser Castle" PERFORMER "The OneUps" FLAGS DCP INDEX 01 00:00:00FILE "06 Choco Island.wav" WAVE TRACK 06 AUDIO TITLE "Choco Island" PERFORMER "The OneUps" FLAGS DCP INDEX 01 00:00:00FILE "07 Something About Koopa Beach.wav" WAVE TRACK 07 AUDIO TITLE "Something About Koopa Beach" PERFORMER "The OneUps" FLAGS DCP INDEX 01 00:00:00FILE "08 Vanilla Lake.wav" WAVE TRACK 08 AUDIO TITLE "Vanilla Lake" PERFORMER "The OneUps" FLAGS DCP INDEX 01 00:00:00FILE "09 Battle Mode.wav" WAVE TRACK 09 AUDIO TITLE "Battle Mode" PERFORMER "The OneUps" FLAGS DCP INDEX 01 00:00:00FILE "10 Rainbow Road.wav" WAVE TRACK 10 AUDIO TITLE "Rainbow Road" PERFORMER "The OneUps" FLAGS DCP INDEX 01 00:00:00
01 Curse of the Funk (This Place is Dead Anyway) [5:03]
02 Bill and Lance, Soldier Trance (Lower Me Into the Steel) [5:46]
03 Space Warrior Sound Machine [6:42]
04 Mountain Fortress Delta VII [5:52]
05 Space Bloq Soviet Fun Time Puzzle Game (I Must Break Them) [4:19]
06 Ain't No Love Like Lewanda's [4:17]
A collection of cosmic creations concocted for the most cognitive cochleae capable of conscious comprehension - re-imagined, re-arranged and re-recorded by The OneUps

Released 18 January 2011
The OneUps are:
Leads: T.Y.
Rhythms: VCR
Synth Bass: Mr. M
Beats: JBooty
Recorded by Chris Moore at East Hall Recording (www.EastHall.com)
Mixed and Mastered by Frank van 't Ende
Artwork Designed by Will Collins for Archetype Productions
"The OneUps" logo designed by Mykola Dosenko
Directed by Jared Dunn
PRODUCED BY MUSTIN™

Track info:
01 - From the "Castlevania III: Dracula's Curse" video game
Composed by Yukie Morimoto
02 - From the "Contra" video game
Composed by Hidenori Maezawa
03 - From the "Super Metroid" video game
Composed by Kenji Yamamoto
04 - From "The Legend of Zelda: A Link to the Past" video game
Composed by Koji Kondo
05 - From the "Tetris" video game
06 - From the "ToeJam & Earl in Panic on Funkotron" video game
Composed by John Baker
 
AUDIOCHECKER v1.2 - by Dester - [email protected]~~~~~~~~~~~~~~~~~

1 -===- H:\МУЗЫКА\VIDEO GAME METAL\The OneUps (The OneUp Mushrooms)\2011 - Intergalactic Redux [OUS-009]\01 Curse of the Funk (This Place is Dead Anyway).flac Extracted successfully Conclusion: This track looks like CDDA with probability 100%

2 -===- H:\МУЗЫКА\VIDEO GAME METAL\The OneUps (The OneUp Mushrooms)\2011 - Intergalactic Redux [OUS-009]\02 Bill and Lance, Soldier Trance (Lower Me Into the Steel).flac Extracted successfully Conclusion: This track looks like CDDA with probability 100%

3 -===- H:\МУЗЫКА\VIDEO GAME METAL\The OneUps (The OneUp Mushrooms)\2011 - Intergalactic Redux [OUS-009]\03 Space Warrior Sound Machine.flac Extracted successfully Conclusion: This track looks like CDDA with probability 100%

4 -===- H:\МУЗЫКА\VIDEO GAME METAL\The OneUps (The OneUp Mushrooms)\2011 - Intergalactic Redux [OUS-009]\04 Mountain Fortress Delta VII.flac Extracted successfully Conclusion: This track looks like CDDA with probability 100%

5 -===- H:\МУЗЫКА\VIDEO GAME METAL\The OneUps (The OneUp Mushrooms)\2011 - Intergalactic Redux [OUS-009]\05 Space Bloq Soviet Fun Time Puzzle Song (I Must Break Them).flac Extracted successfully Conclusion: This track looks like CDDA with probability 100%

6 -===- H:\МУЗЫКА\VIDEO GAME METAL\The OneUps (The OneUp Mushrooms)\2011 - Intergalactic Redux [OUS-009]\06 Ain't No Love Like Lewanda's.flac Extracted successfully Conclusion: This track looks like CDDA with probability 100%
The OneUps are a musical collective hailing from Fayetteville, Arkansas, widely praised for their intricate, and eclectic approach to the art of game music. Stylistically diverse, yet meticulously skilled, the group has evolved over the past decade into one of the most dominant acts in the video game music scene.

With well over 10,000 CDs sold and having performed nationwide -- including a very memorable performance at Penny Arcade Expo in 2008 -- The OneUps have garnered critical acclaim from popular gaming publications such as GameInformer and EGM. The band has also been featured, and interviewed by numerous online publications such as Destructoid, and MSNBC.

While the band has changed its line-up over the years since its inception in 2000, each iteration has allowed them to explore a variety of genre from Funk to Jazz Fusion, and more recently, vocal Hip-Hop. Their latest effort, the Super Mario Kart Album, is currently available for purchase through Bandcamp, AmazonMP3, and iTunes.
Mustin
Tim Yarbrough
William Reyes
Anthony Lofton
Jared Dunn
Nathan McLeod
Greg Kennedy
Matthew "Moose" Bridges
Chris Strom
Dale North
David Embree


Трекер:  [ 03-Фев-2012 20:18 ]

  

Скачать .torrent

Размер .torrent файла 23 KB


Размер: 1.42 GB
Хэш (hash) релиза: 7d7a17a2466484561f1e563933bba0a175848986

bot

Топик был перенесен в форум Саундтреки к аниме (lossless)

Перенес Galfimbul

Хотите добавить комментарий к записи скачать торрент The OneUps

!Обратная связь