Expediente Misterio National Geographic HDTV 720p AC3 5.1 | Moja rodzinka / My Family | Paranormal Lockdown S01 Season 1 Complete 1080p 720p HDTV x264

Скачать через торрент музыку Entertainment System - 3 альбома - 2006-2008, FLAC бесплатно без регистрации torrent

Статистика раздачи
Размер:  758 MB   |    Зарегистрирован:  6 лет 5 месяцев   |    .torrent скачан:  48 раз   |   
Раздают:  1  
   
загрузка...
 
Автор Сообщение

Galfimbul

avatar Galfimbul


3 альбомаЖанр: Score / Arrangement, Instrumental Video Game Rock, Metal
Год выпуска диска: 2006-2008
Аудиокодек: FLAC (*.flac)
Тип рипа: tracks+.cue
Битрейт аудио: lossless
Продолжительность: 1:56:42
Источник: скачано с
сайт-источник/ник/другое: What.CD (lusciousboom)
Наличие сканов в содержимом раздачи: да
Треклист:
01. Mega Man 2 - Wily's Castle [3:34]
02. Street Fighter 2 - Title, Ken's Theme [4:43]
03. Punch-Out!! - Password, Fight! [3:00]
04. Fire Emblem - Battle, Main Theme [3:29]
05. Sonic 2 - Chemical Plant Zone [2:47]
06. Mega Man 3 - Wily's Castle [3:00]
07. Metroid - Brinstar [2:22]
08. Metroid 2 - SR388 [2:01]
09. Super Metroid - Theme, Hurry! [2:32]
10. Castlevania 2 - Bloody Tears [5:26]

Композиторы: Takashi Tateishi (01); Yoko Shimomura (02); Yukio Kaneoka, Akito Nakatsuka, Kenji Yamamoto (03); Yuka Tsujiyoko (04); Masato Nakamura (05); Yasuaki Fujita (06); Hirokazu Tanaka (07); Ryohji Yoshitomi (08); Kenji Yamamoto, Minako Hamano (09); Kenichi Matsubara (10)
 
Exact Audio Copy V0.99 prebeta 3 from 28. July 2007

EAC extraction logfile from 14. February 2009, 20:41

Entertainment System / The Computer Always Cheats

Used drive : SAMSUNG DVD-ROM SD-616E Adapter: 1 ID: 0

Read mode : SecureUtilize accurate stream : YesDefeat audio cache : YesMake use of C2 pointers : No

Read offset correction : 12Overread into Lead-In and Lead-Out : NoFill up missing offset samples with silence : YesDelete leading and trailing silent blocks : NoNull samples used in CRC calculations : YesUsed interface : Installed external ASPI interfaceGap handling : Appended to previous track

Used output format : User Defined EncoderSelected bitrate : 768 kBit/sQuality : HighAdd ID3 tag : NoCommand line compressor : C:\Program Files\Exact Audio Copy\FLAC\FLAC.EXEAdditional command line options : -V -8 -T "artist=%a" -T "title=%t" -T "album=%g" -T "date=%y" -T "tracknumber=%n" -T "genre=%m" %s

TOC of the extracted CD

Track | Start | Length | Start sector | End sector --------------------------------------------------------- 1 | 0:00.00 | 3:35.37 | 0 | 16161 2 | 3:35.37 | 4:43.45 | 16162 | 37431 3 | 8:19.07 | 3:01.00 | 37432 | 51006 4 | 11:20.07 | 3:29.43 | 51007 | 66724 5 | 14:49.50 | 2:48.03 | 66725 | 79327 6 | 17:37.53 | 3:01.12 | 79328 | 92914 7 | 20:38.65 | 2:23.27 | 92915 | 103666 8 | 23:02.17 | 2:01.66 | 103667 | 112807 9 | 25:04.08 | 2:33.15 | 112808 | 124297 10 | 27:37.23 | 5:26.37 | 124298 | 148784

Track 1

Filename C:\windows\profiles\cogsworth\Desktop\Entertainment System\01 - Mega Man 2 - Wiley's Castle.wav

Pre-gap length 0:00:02.00

Peak level 100.0 % Track quality 99.9 % Test CRC C58B3DF9 Copy CRC C58B3DF9 Track not present in AccurateRip database Copy OK

Track 2

Filename C:\windows\profiles\cogsworth\Desktop\Entertainment System\02 - Street Fighter 2 - Title, Ken's Theme.wav

Pre-gap length 0:00:02.00

Peak level 100.0 % Track quality 99.9 % Test CRC 6EAB9E88 Copy CRC 6EAB9E88 Track not present in AccurateRip database Copy OK

Track 3

Filename C:\windows\profiles\cogsworth\Desktop\Entertainment System\03 - Punch Out!! - Password, Fight!.wav

Pre-gap length 0:00:02.00

Peak level 100.0 % Track quality 99.9 % Test CRC 076E1278 Copy CRC 076E1278 Track not present in AccurateRip database Copy OK

Track 4

Filename C:\windows\profiles\cogsworth\Desktop\Entertainment System\04 - Fire Emblem - Battle, Main Theme.wav

Pre-gap length 0:00:02.00

Peak level 100.0 % Track quality 100.0 % Test CRC 14BEDCA7 Copy CRC 14BEDCA7 Track not present in AccurateRip database Copy OK

Track 5

Filename C:\windows\profiles\cogsworth\Desktop\Entertainment System\05 - Sonic 2 - Chemical Plant Zone.wav

Pre-gap length 0:00:02.00

Peak level 100.0 % Track quality 100.0 % Test CRC A17BD863 Copy CRC A17BD863 Track not present in AccurateRip database Copy OK

Track 6

Filename C:\windows\profiles\cogsworth\Desktop\Entertainment System\06 - Mega Man 3 - Wiley's Castle.wav

Pre-gap length 0:00:02.00

Peak level 100.0 % Track quality 100.0 % Test CRC 5EF312BE Copy CRC 5EF312BE Track not present in AccurateRip database Copy OK

Track 7

Filename C:\windows\profiles\cogsworth\Desktop\Entertainment System\07 - Metroid - Brinstar.wav

Pre-gap length 0:00:02.00

Peak level 100.0 % Track quality 100.0 % Test CRC B7952CC9 Copy CRC B7952CC9 Track not present in AccurateRip database Copy OK

Track 8

Filename C:\windows\profiles\cogsworth\Desktop\Entertainment System\08 - Metroid 2 - SR388.wav

Pre-gap length 0:00:02.00

Peak level 100.0 % Track quality 99.9 % Test CRC 75CEE0FF Copy CRC 75CEE0FF Track not present in AccurateRip database Copy OK

Track 9

Filename C:\windows\profiles\cogsworth\Desktop\Entertainment System\09 - Super Metroid - Theme, Hurry!.wav

Pre-gap length 0:00:02.00

Peak level 100.0 % Track quality 100.0 % Test CRC C0A80592 Copy CRC C0A80592 Track not present in AccurateRip database Copy OK

Track 10

Filename C:\windows\profiles\cogsworth\Desktop\Entertainment System\10 - Castlevania 2 - Bloody Tears.wav

Pre-gap length 0:00:02.00

Peak level 100.0 % Track quality 100.0 % Test CRC A4EF5428 Copy CRC A4EF5428 Track not present in AccurateRip database Copy OK

None of the tracks are present in the AccurateRip database

No errors occurred

End of status report
 
REM GENRE VideogameREM DATE 2006REM DISCID 7B07BF0AREM COMMENT "ExactAudioCopy v0.99pb3"PERFORMER "Entertainment System"TITLE "The Computer Always Cheats"FILE "01. Mega Man 2 - Wily's Castle.wav" WAVE TRACK 01 AUDIO TITLE "Mega Man 2 - Wily's Castle" PERFORMER "Entertainment System" INDEX 01 00:00:00 TRACK 02 AUDIO TITLE "Street Fighter 2 - Title, Ken's Theme" PERFORMER "Entertainment System" INDEX 00 03:33:37FILE "02. Street Fighter 2 - Title, Ken's Theme.wav" WAVE INDEX 01 00:00:00 TRACK 03 AUDIO TITLE "Punch Out!! - Password, Fight!" PERFORMER "Entertainment System" INDEX 00 04:41:45FILE "03. Punch Out!! - Password, Fight!.wav" WAVE INDEX 01 00:00:00 TRACK 04 AUDIO TITLE "Fire Emblem - Battle, Main Theme" PERFORMER "Entertainment System" INDEX 00 02:59:00FILE "04. Fire Emblem - Battle, Main Theme.wav" WAVE INDEX 01 00:00:00 TRACK 05 AUDIO TITLE "Sonic 2 - Chemical Plant Zone" PERFORMER "Entertainment System" INDEX 00 03:27:43FILE "05. Sonic 2 - Chemical Plant Zone.wav" WAVE INDEX 01 00:00:00 TRACK 06 AUDIO TITLE "Mega Man 3 - Wily's Castle" PERFORMER "Entertainment System" INDEX 00 02:46:03FILE "06. Mega Man 3 - Wily's Castle.wav" WAVE INDEX 01 00:00:00 TRACK 07 AUDIO TITLE "Metroid - Brinstar" PERFORMER "Entertainment System" INDEX 00 02:59:12FILE "07. Metroid - Brinstar.wav" WAVE INDEX 01 00:00:00 TRACK 08 AUDIO TITLE "Metroid 2 - SR388" PERFORMER "Entertainment System" INDEX 00 02:21:27FILE "08. Metroid 2 - SR388.wav" WAVE INDEX 01 00:00:00 TRACK 09 AUDIO TITLE "Super Metroid - Theme, Hurry!" PERFORMER "Entertainment System" INDEX 00 01:59:66FILE "09. Super Metroid - Theme, Hurry!.wav" WAVE INDEX 01 00:00:00 TRACK 10 AUDIO TITLE "Castlevania 2 - Bloody Tears" PERFORMER "Entertainment System" INDEX 00 02:31:15FILE "10. Castlevania 2 - Bloody Tears.wav" WAVE INDEX 01 00:00:00
01. F-ZERO (Mute City, Big Blue, Port Town) [4:24]
02. TMNT IV (Sewer Surfin') [2:42]
03. GOLDENEYE 007 (Frigate) [4:10]
04. KID ICAROID (Kid Icarus - Stage 1, Final Stage, Metroid - Title) [4:59]
05. LITTLE SAMSON (Golem's Theme) [2:57]
06. MEGA MAN 3 (Magnet Man, Top Man) [4:53]
07. DUCKTALES (The Moon) [1:41]
08. KIRBYS DREAMLAND 3 (Canyon) [2:21]
09. DISNEY (Darkwing Duck, Rescue Rangers, Ducktales) [3:57]
10. MEGA MAN II (Bubble Man) [3:13]
11. ARKANOID (high score) [1:33]
12. LIFE FORCE (Power of Anger) [3:15]
13. TETRIS (Type A, B, C & DX) [4:37]

Композиторы: Yumiko Kanki, Naoto Ishida, Kazuhiko Uehara, Harumi Ueko, Graeme Norgate, Grant Kirkhope, Hirokazu Tanaka, Kazuhide Sasuga, Bunbun (Yasuaki Fujita), Jun Ishikawa, Junko Tamiya, Ogeretsu Kun (Takashi Tateishi), Hisayoshi Ogura, Hidenori Maezawa
 
Exact Audio Copy V0.99 prebeta 3 from 28. July 2007

EAC extraction logfile from 17. February 2009, 20:58

Entertainment System / Super Entertainment System

Used drive : SAMSUNG DVD-ROM SD-616E Adapter: 1 ID: 0

Read mode : SecureUtilize accurate stream : YesDefeat audio cache : YesMake use of C2 pointers : No

Read offset correction : 12Overread into Lead-In and Lead-Out : NoFill up missing offset samples with silence : YesDelete leading and trailing silent blocks : NoNull samples used in CRC calculations : YesUsed interface : Installed external ASPI interfaceGap handling : Appended to previous track

Used output format : User Defined EncoderSelected bitrate : 768 kBit/sQuality : HighAdd ID3 tag : NoCommand line compressor : C:\Program Files\Exact Audio Copy\FLAC\FLAC.EXEAdditional command line options : -V -8 -T "artist=%a" -T "title=%t" -T "album=%g" -T "date=%y" -T "tracknumber=%n" -T "genre=%m" %s

TOC of the extracted CD

Track | Start | Length | Start sector | End sector --------------------------------------------------------- 1 | 0:00.00 | 4:24.69 | 0 | 19868 2 | 4:24.69 | 2:42.14 | 19869 | 32032 3 | 7:07.08 | 4:10.50 | 32033 | 50832 4 | 11:17.58 | 4:59.38 | 50833 | 73295 5 | 16:17.21 | 2:57.22 | 73296 | 86592 6 | 19:14.43 | 4:53.40 | 86593 | 108607 7 | 24:08.08 | 1:41.42 | 108608 | 116224 8 | 25:49.50 | 2:21.17 | 116225 | 126816 9 | 28:10.67 | 3:57.05 | 126817 | 144596 10 | 32:07.72 | 3:13.32 | 144597 | 159103 11 | 35:21.29 | 1:33.51 | 159104 | 166129 12 | 36:55.05 | 3:15.04 | 166130 | 180758 13 | 40:10.09 | 4:37.09 | 180759 | 201542

Track 1

Filename C:\windows\profiles\cogsworth\Desktop\01 - Mute City, Big Blue (F-Zero).wav

Pre-gap length 0:00:02.00

Peak level 100.0 % Track quality 100.0 % Test CRC BB74AF3F Copy CRC BB74AF3F Track not present in AccurateRip database Copy OK

Track 2

Filename C:\windows\profiles\cogsworth\Desktop\02 - Sewer Surfin' (TMNT IV).wav

Pre-gap length 0:00:02.00

Peak level 100.0 % Track quality 100.0 % Test CRC E98BF123 Copy CRC E98BF123 Track not present in AccurateRip database Copy OK

Track 3

Filename C:\windows\profiles\cogsworth\Desktop\03 - Frigate (Goldeneye 007).wav

Peak level 100.0 % Track quality 100.0 % Test CRC 76A0060C Copy CRC 76A0060C Track not present in AccurateRip database Copy OK

Track 4

Filename C:\windows\profiles\cogsworth\Desktop\04 - Kid Icaroid (Kid Icarus & Metroid).wav

Pre-gap length 0:00:02.00

Peak level 100.0 % Track quality 99.9 % Test CRC 7E006F77 Copy CRC 7E006F77 Track not present in AccurateRip database Copy OK

Track 5

Filename C:\windows\profiles\cogsworth\Desktop\05 - Golem's Theme (Little Samson).wav

Pre-gap length 0:00:02.00

Peak level 100.0 % Track quality 99.9 % Test CRC 49F9720B Copy CRC 49F9720B Track not present in AccurateRip database Copy OK

Track 6

Filename C:\windows\profiles\cogsworth\Desktop\06 - Magnets & Tops (Mega Man 3).wav

Pre-gap length 0:00:02.00

Peak level 100.0 % Track quality 99.9 % Test CRC CF9EB92C Copy CRC CF9EB92C Track not present in AccurateRip database Copy OK

Track 7

Filename C:\windows\profiles\cogsworth\Desktop\07 - The Moon (DuckTales).wav

Pre-gap length 0:00:02.00

Peak level 100.0 % Track quality 100.0 % Test CRC 5A263DEB Copy CRC 5A263DEB Track not present in AccurateRip database Copy OK

Track 8

Filename C:\windows\profiles\cogsworth\Desktop\08 - Canyon (Kirby's Dreamland 3).wav

Pre-gap length 0:00:02.00

Peak level 99.8 % Track quality 100.0 % Test CRC 051AC344 Copy CRC 051AC344 Track not present in AccurateRip database Copy OK

Track 9

Filename C:\windows\profiles\cogsworth\Desktop\09 - Darkwing Rescue Ducks (Disney).wav

Pre-gap length 0:00:02.00

Peak level 100.0 % Track quality 100.0 % Test CRC 21B9AEEF Copy CRC 21B9AEEF Track not present in AccurateRip database Copy OK

Track 10

Filename C:\windows\profiles\cogsworth\Desktop\10 - Bubble Man (Mega Man 2).wav

Pre-gap length 0:00:02.00

Peak level 100.0 % Track quality 100.0 % Test CRC 7D1C6040 Copy CRC 7D1C6040 Track not present in AccurateRip database Copy OK

Track 11

Filename C:\windows\profiles\cogsworth\Desktop\11 - High Score (Arkanoid).wav

Pre-gap length 0:00:02.00

Peak level 100.0 % Track quality 100.0 % Test CRC BD131A51 Copy CRC BD131A51 Track not present in AccurateRip database Copy OK

Track 12

Filename C:\windows\profiles\cogsworth\Desktop\12 - Power of Anger (Life Force).wav

Pre-gap length 0:00:02.00

Peak level 100.0 % Track quality 100.0 % Test CRC B9400C9B Copy CRC B9400C9B Track not present in AccurateRip database Copy OK

Track 13

Filename C:\windows\profiles\cogsworth\Desktop\13 - A, B, C, DX (Tetris).wav

Pre-gap length 0:00:02.00

Peak level 100.0 % Track quality 100.0 % Test CRC 337EA36F Copy CRC 337EA36F Track not present in AccurateRip database Copy OK

None of the tracks are present in the AccurateRip database

No errors occurred

End of status report
 
REM GENRE VideogameREM DATE 2008REM DISCID B50A7F0DREM COMMENT "ExactAudioCopy v0.99pb3"PERFORMER "Entertainment System"TITLE "Super Entertainment System"FILE "01. F-ZERO (Mute City, Big Blue, Port Town).wav" WAVE TRACK 01 AUDIO TITLE "F-ZERO (Mute City, Big Blue, Port Town)" PERFORMER "Entertainment System" FLAGS DCP INDEX 01 00:00:00 TRACK 02 AUDIO TITLE "TMNT IV (Sewer Surfin')" PERFORMER "Entertainment System" FLAGS DCP INDEX 00 04:22:69FILE "02. TMNT IV (Sewer Surfin').wav" WAVE INDEX 01 00:00:00FILE "03. GOLDENEYE 007 (Frigate).wav" WAVE TRACK 03 AUDIO TITLE "GOLDENEYE 007 (Frigate)" PERFORMER "Entertainment System" FLAGS DCP INDEX 01 00:00:00 TRACK 04 AUDIO TITLE "KID ICAROID (Kid Icarus - Stage 1, Final Stage, Metroid - Title)" PERFORMER "Entertainment System" FLAGS DCP INDEX 00 04:08:50FILE "04. KID ICAROID (Kid Icarus - Stage 1, Final Stage, Metroid - Title).wav" WAVE INDEX 01 00:00:00 TRACK 05 AUDIO TITLE "LITTLE SAMSON (Golem's Theme)" PERFORMER "Entertainment System" FLAGS DCP INDEX 00 04:57:38FILE "05. LITTLE SAMSON (Golem's Theme).wav" WAVE INDEX 01 00:00:00 TRACK 06 AUDIO TITLE "MEGA MAN 3 (Magnet Man, Top Man)" PERFORMER "Entertainment System" FLAGS DCP INDEX 00 02:55:22FILE "06. MEGA MAN 3 (Magnet Man, Top Man).wav" WAVE INDEX 01 00:00:00 TRACK 07 AUDIO TITLE "DUCKTALES (The Moon)" PERFORMER "Entertainment System" FLAGS DCP INDEX 00 04:51:40FILE "07. DUCKTALES (The Moon).wav" WAVE INDEX 01 00:00:00 TRACK 08 AUDIO TITLE "KIRBYS DREAMLAND 3 (Canyon)" PERFORMER "Entertainment System" FLAGS DCP INDEX 00 01:39:42FILE "08. KIRBYS DREAMLAND 3 (Canyon).wav" WAVE INDEX 01 00:00:00 TRACK 09 AUDIO TITLE "DISNEY (Darkwing Duck, Rescue Rangers, Ducktales)" PERFORMER "Entertainment System" FLAGS DCP INDEX 00 02:19:17FILE "09. DISNEY (Darkwing Duck, Rescue Rangers, Ducktales).wav" WAVE INDEX 01 00:00:00 TRACK 10 AUDIO TITLE "MEGA MAN II (Bubble Man)" PERFORMER "Entertainment System" FLAGS DCP INDEX 00 03:55:05FILE "10. MEGA MAN II (Bubble Man).wav" WAVE INDEX 01 00:00:00 TRACK 11 AUDIO TITLE "ARKANOID (high score)" PERFORMER "Entertainment System" FLAGS DCP INDEX 00 03:11:32FILE "11. ARKANOID (high score).wav" WAVE INDEX 01 00:00:00 TRACK 12 AUDIO TITLE "LIFE FORCE (Power of Anger)" PERFORMER "Entertainment System" FLAGS DCP INDEX 00 01:31:51FILE "12. LIFE FORCE (Power of Anger).wav" WAVE INDEX 01 00:00:00 TRACK 13 AUDIO TITLE "TETRIS (Type A, B, C & DX)" PERFORMER "Entertainment System" FLAGS DCP INDEX 00 03:13:04FILE "13. TETRIS (Type A, B, C & DX).wav" WAVE INDEX 01 00:00:00
01. STARFOX (Corneria, Asteroids) [3:31]
02. MEGA MAN X (Prologue Stage, Spark Mandrill) [2:53]
03. CONTRA (Snowfields) [2:00]
04. BATTLETOADS IN BATTLEMANIACS (Ragnarok Canyon) [3:17]
05. PIPE DREAM (Music 1) [2:11]
06. RIVER CITY RANSOM (Boss, Password, Warehouse, Status Screen) [2:58]
07. SPACE HARRIER (Main Theme) [3:20]
08. HEAVY ARTILLERY (1943 - Stage 1, Metal Gear - Jungle, Bionic Commando - Area 1) [4:46]
09. EARTHBOUND (Gigyas) [3:20]
10. FINAL FANTASY (FF VI - Terra's Theme, FF Tactics - Trisections, FF VII - Fighting, FF IV - Prologue) [6:47]
11. FIRE EMBLEM (Bonus) [3:46]

Композиторы: Hajime Hirasawa (01); Setsuo Yamamoto, Makoto Tomozawa, Yuki Iwai, Yuko Takehara, Toshihiko Horiyama (02); Hidenori Maezawa (03); David Wise (04); Kris Hatlelid (05); Kazuo Sawa (06); Hiroshi Miyauchi (07); Junko Tamiya (08 1943, Bionic Commando); Kazuki Muraoka (08 Metal Gear); Hirokazu Tanaka (09); Nobuo Uematsu (10 Final Fantasy IV, Final Fantasy VI, Final Fantasy VII); Hitoshi Sakamoto (10 Final Fantasy Tactics); Yuka Tsujiyoko (11)
 
Exact Audio Copy V0.99 prebeta 3 from 28. July 2007

EAC extraction logfile from 14. February 2009, 21:27

Entertainment System / Entertainment System 64

Used drive : SAMSUNG DVD-ROM SD-616E Adapter: 1 ID: 0

Read mode : SecureUtilize accurate stream : YesDefeat audio cache : YesMake use of C2 pointers : No

Read offset correction : 12Overread into Lead-In and Lead-Out : NoFill up missing offset samples with silence : YesDelete leading and trailing silent blocks : NoNull samples used in CRC calculations : YesUsed interface : Installed external ASPI interfaceGap handling : Appended to previous track

Used output format : User Defined EncoderSelected bitrate : 768 kBit/sQuality : HighAdd ID3 tag : NoCommand line compressor : C:\Program Files\Exact Audio Copy\FLAC\FLAC.EXEAdditional command line options : -V -8 -T "artist=%a" -T "title=%t" -T "album=%g" -T "date=%y" -T "tracknumber=%n" -T "genre=%m" %s

TOC of the extracted CD

Track | Start | Length | Start sector | End sector --------------------------------------------------------- 1 | 0:00.00 | 3:31.07 | 0 | 15831 2 | 3:31.07 | 2:53.09 | 15832 | 28815 3 | 6:24.16 | 2:00.32 | 28816 | 37847 4 | 8:24.48 | 3:17.08 | 37848 | 52630 5 | 11:41.56 | 2:10.43 | 52631 | 62423 6 | 13:52.24 | 2:58.37 | 62424 | 75810 7 | 16:50.61 | 3:20.07 | 75811 | 90817 8 | 20:10.68 | 4:46.22 | 90818 | 112289 9 | 24:57.15 | 3:20.33 | 112290 | 127322 10 | 28:17.48 | 6:47.62 | 127323 | 157909 11 | 35:05.35 | 3:46.35 | 157910 | 174894

Track 1

Filename C:\windows\profiles\cogsworth\Desktop\Entertainment System\Entertainment System 64\01 - Starfox - Corneria, Asteroids.wav

Pre-gap length 0:00:02.00

Peak level 98.9 % Track quality 100.0 % Test CRC 56D4B9C3 Copy CRC 56D4B9C3 Track not present in AccurateRip database Copy OK

Track 2

Filename C:\windows\profiles\cogsworth\Desktop\Entertainment System\Entertainment System 64\02 - Megaman X - Prologue Stage, Spark, Mandrill.wav

Pre-gap length 0:00:02.00

Peak level 98.9 % Track quality 100.0 % Test CRC C09D60C8 Copy CRC C09D60C8 Track not present in AccurateRip database Copy OK

Track 3

Filename C:\windows\profiles\cogsworth\Desktop\Entertainment System\Entertainment System 64\03 - Contra - Snowfields.wav

Pre-gap length 0:00:02.00

Peak level 98.8 % Track quality 100.0 % Test CRC B2A49C12 Copy CRC B2A49C12 Track not present in AccurateRip database Copy OK

Track 4

Filename C:\windows\profiles\cogsworth\Desktop\Entertainment System\Entertainment System 64\04 - Battletoads In Battlemaniacs - Ragnarok Canyon.wav

Pre-gap length 0:00:01.00

Peak level 98.9 % Track quality 100.0 % Test CRC 32C7CA09 Copy CRC 32C7CA09 Track not present in AccurateRip database Copy OK

Track 5

Filename C:\windows\profiles\cogsworth\Desktop\Entertainment System\Entertainment System 64\05 - Pipe Dream - Music 1.wav

Peak level 98.8 % Track quality 100.0 % Test CRC 4860D1D2 Copy CRC 4860D1D2 Track not present in AccurateRip database Copy OK

Track 6

Filename C:\windows\profiles\cogsworth\Desktop\Entertainment System\Entertainment System 64\06 - River City Ransom - Password, Warehouse, Status Screen.wav

Pre-gap length 0:00:02.00

Peak level 98.9 % Track quality 100.0 % Test CRC 0F8238D9 Copy CRC 0F8238D9 Track not present in AccurateRip database Copy OK

Track 7

Filename C:\windows\profiles\cogsworth\Desktop\Entertainment System\Entertainment System 64\07 - Space Harrier - Main Theme.wav

Pre-gap length 0:00:02.00

Peak level 98.9 % Track quality 100.0 % Test CRC 655155F8 Copy CRC 655155F8 Track not present in AccurateRip database Copy OK

Track 8

Filename C:\windows\profiles\cogsworth\Desktop\Entertainment System\Entertainment System 64\08 - Heavy Artillery - 1943 - Stage 1, Metal Gear - Jungle, Bionic Commando - Area 1.wav

Peak level 98.8 % Track quality 100.0 % Test CRC 712C44DF Copy CRC 712C44DF Track not present in AccurateRip database Copy OK

Track 9

Filename C:\windows\profiles\cogsworth\Desktop\Entertainment System\Entertainment System 64\09 - Earthbound - Gigyas.wav

Pre-gap length 0:00:01.00

Peak level 98.9 % Track quality 100.0 % Test CRC 28A9E74C Copy CRC 28A9E74C Track not present in AccurateRip database Copy OK

Track 10

Filename C:\windows\profiles\cogsworth\Desktop\Entertainment System\Entertainment System 64\10 - Final Fantasy - FF VI - Terra's Theme, FF Tactics - Trisection, FF VII - Fighting, FF IV - Prologue.wav

Pre-gap length 0:00:04.00

Peak level 98.8 % Track quality 100.0 % Test CRC AD1DC985 Copy CRC AD1DC985 Track not present in AccurateRip database Copy OK

Track 11

Filename C:\windows\profiles\cogsworth\Desktop\Entertainment System\Entertainment System 64\11 - Track11.wav

Pre-gap length 0:01:00.00

Peak level 98.9 % Track quality 99.9 % Test CRC 674E472B Copy CRC 674E472B Track not present in AccurateRip database Copy OK

None of the tracks are present in the AccurateRip database

No errors occurred

End of status report
 
REM GENRE VideogameREM DATE 2008REM DISCID 81091B0BREM COMMENT "ExactAudioCopy v0.99pb3"PERFORMER "Entertainment System"TITLE "Entertainment System 64"FILE "01. STARFOX (Corneria, Asteroids).wav" WAVE TRACK 01 AUDIO TITLE "STARFOX (Corneria, Asteroids)" PERFORMER "Entertainment System" FLAGS DCP INDEX 01 00:00:00 TRACK 02 AUDIO TITLE "MEGA MAN X (Prologue Stage, Spark Mandrill)" PERFORMER "Entertainment System" FLAGS DCP INDEX 00 03:29:07FILE "02. MEGA MAN X (Prologue Stage, Spark Mandrill).wav" WAVE INDEX 01 00:00:00 TRACK 03 AUDIO TITLE "CONTRA (Snowfields)" PERFORMER "Entertainment System" FLAGS DCP INDEX 00 02:51:09FILE "03. CONTRA (Snowfields).wav" WAVE INDEX 01 00:00:00 TRACK 04 AUDIO TITLE "BATTLETOADS IN BATTLEMANIACS (Ragnarok Canyon)" PERFORMER "Entertainment System" FLAGS DCP INDEX 00 01:59:32FILE "04. BATTLETOADS IN BATTLEMANIACS (Ragnarok Canyon).wav" WAVE INDEX 01 00:00:00FILE "05. PIPE DREAM (Music 1).wav" WAVE TRACK 05 AUDIO TITLE "PIPE DREAM (Music 1)" PERFORMER "Entertainment System" FLAGS DCP INDEX 01 00:00:00 TRACK 06 AUDIO TITLE "RIVER CITY RANSOM (Boss, Password, Warehouse, Status Screen)" PERFORMER "Entertainment System" FLAGS DCP INDEX 00 02:08:43FILE "06. RIVER CITY RANSOM (Boss, Password, Warehouse, Status Screen).wav" WAVE INDEX 01 00:00:00 TRACK 07 AUDIO TITLE "SPACE HARRIER (Main Theme)" PERFORMER "Entertainment System" FLAGS DCP INDEX 00 02:56:37FILE "07. SPACE HARRIER (Main Theme).wav" WAVE INDEX 01 00:00:00FILE "08. HEAVY ARTILLERY (1943 - Stage 1, Metal Gear - Jungle, Bionic Commando - Area 1).wav" WAVE TRACK 08 AUDIO TITLE "HEAVY ARTILLERY (1943 - Stage 1, Metal Gear - Jungle, Bionic Commando - Area 1)" PERFORMER "Entertainment System" FLAGS DCP INDEX 01 00:00:00 TRACK 09 AUDIO TITLE "EARTHBOUND (Gigyas)" PERFORMER "Entertainment System" FLAGS DCP INDEX 00 04:45:22FILE "09. EARTHBOUND (Gigyas).wav" WAVE INDEX 01 00:00:00 TRACK 10 AUDIO TITLE "FINAL FANTASY (FF VI - Terra's Theme, FF Tactics - Trisections, FF VII - Fighting, FF IV - Prologue)" PERFORMER "Entertainment System" FLAGS DCP INDEX 00 03:16:33FILE "10. FINAL FANTASY (FF VI - Terra's Theme, FF Tactics - Trisections, FF VII - Fighting, FF IV - Prologue).wav" WAVE INDEX 01 00:00:00 TRACK 11 AUDIO TITLE "FIRE EMBLEM (Bonus Track)" PERFORMER "Entertainment System" FLAGS DCP INDEX 00 05:47:62FILE "11. FIRE EMBLEM (Bonus Track).wav" WAVE INDEX 01 00:00:00
It was January 11th, 2005, a cold and windy Wednesday when the game was first released in North America. On a whim it was picked up and brought unopened to a cramped office-turned-apartment in Annapolis, MD. For three days straight, playing in shifts never stopping, the three founding members of the band that would later be known as Entertainment System played and beat Resident Evil 4 in one sitting. Living off of Boston Market and pure will, the time spent toppling giant monsters and blasting zombies in the head in a strange sleep depraved daze galvinized an already long running friendship into a brotherhood that sticks to this day. The late night gaming and Megaman 2, Wily Stage 1 jamming sessions that followed quickly lead them to take a trip to Philadelphia where they would see the forefathers of the Video Game Music (VGM) scene, the Advantage. After this seminal video game rock pilgrimage they were set in their hearts and minds to realize their own vision for video game rock and Entertainment System (ES) was born.

By the time ES was a young 7 months old they had learned enough material to release their first full length album, "The Computer Always Cheats". Recorded in a friends basement over the course of a few months, and with a few selections being arranged and learned as the recording process was underway, The Computer Always Cheats was a bit rough to say to least. Nevertheless, Entertainment System's particular blend of fresh arrangements, original patch sections, wailing solos, and fan friendly song choices was evident in even the first incarnation of their now impressive discography.

While pushing hard to break into the VGM scene ES began playing more shows with other VGM tribute bands like This Place Is Haunted, Year 200X, and Powerglove. After playing a VGM event hosted by This Place Is Haunted in State College PA entitled "Video Game Armageddon", ES was inspired to put on a VGM showcase of their own. Thus, in 2006, 8 Bit Genocide hit Baltimore, MD like an atom bomb. It was such a success that ES committed to making the video game art and music show an annual event.

In the early days of ES the roster went through many changes, the bass position spent years either being un-manned or attempted by dudes who didn't quite workout. The harmony guitar position also had its ups and downs as the original harmony guitarist quit and came back and quit and came back, then quit for good and...you get the idea. This ebb and flow of members even birthed a power trio version of ES that played out for a short time. Eventually the community of talented musicians in Baltimore were able to provide ES a gifted harmony guitarist named Rex Anderson and a hammer of a bass player named Jeff Hammer. With the two new members locked in ES was ready to release their sophomore offering, "SUPER Entertainment System". This album was much more ambitious and boasted a larger track listing as well as a bevy of complex arrangements and a slightly heavier sound. "Super" was met with many hurdles during the recording process, going through 2 separate studios and loads of holds ups. Finally, however, ES found a studio that would be their home away from home in the years to come, Nice Package Studios in Towson, MD.

Armed with a new line up and song selection that was sure to wow and in some cases baffle the VGM scene "SUPER Entertainment System" was released to a more than accepting fan-base at 16 Bit Genocide in 2007. It was around this time that ES as a whole had begun migrating to the city of Baltimore where they could secure higher profile shows and really dig deep into the local music scene.

In the winter doldrums at the beginning of 2008 ES went through yet another lineup change as founding member and dear friend Matt "the Dong" Pie and bassist Jeff Hammer left the band. Faced with the task of releasing their 3rd full length release set to drop at 32 Bit Genocide that upcoming summer the boys in ES had little time to recruit a new drummer and bassist. Once again Baltimore's bottomless talent pool provided ES with two new members who would lend their talents to Entertainment System's third release "Entertainment System 64". ES now had the thumping power of Tyler Merchant on bass and the quick drum styling of Andrew Porter on drums.

Entertainment System 64 proved to be the most work intensive and complex collection of songs yet to be tackled by the boys in ES. The months leading to 32 Bit Gen and the release of ES64 was jam packed with a hectic schedule of shows, rehearsals, convention dates, and studio sessions but in the end resulted in Entertainment Systems strongest album to date. Once again ES pulled through and offered a solid album with more fan favorites as well as a few obscure rarities.

Following the Release of ES64 and 32 Bit Gen, ES set out on their first U.S. tour along with VGM brothers in arms The Megas. The Megtainment tour spanned 9 cites in 10 days. 10 days of drunkenness, long nights, old friends, great shows, bad shows and everything in between. While sharing the dates with The Megas many a video game debate came about, one in particular about the merits of the soundtrack to Megaman 1 ended up sparking the idea of a collaborative effort between the Los Angeles based Megas and Baltimore boys of ES. The proposition was that ES would supply the instrumentation and the Megas would put forth their Megaman inspired original lyrics. So, on August 24th 2008 at 64 Bit Gen Gamer Fest, the Megatainment EP was released. Musically, Megatainment was on par with ES64 but the Megas epic lyrics telling the story of robot rebellion and the endless battles between Dr. Light and Dr.Wily had given the Megatainment EP a new fresh sound that had yet to be heard from ES as they had never included lyrics.

Shortly after the Megatainment EP was released there had been some talk from the fans about expanding the track listing to include three more songs that featured music inspired by Cutman, Gutsman and a mish mash medley of various screen select and mini boss battle music. But with news that two of Entertainment System's newer members Rex and Andy would be leaving the band soon it didn't seem practical to put in further work on an EP that had already taken a little under 2 years to get done. So, Rex and Andy went their seperate ways to pursue new ventures. ES then set their sights on their new full length album, Rock N' Roll Cereal.

Over the years pretty much every video game tribute/remix act has taken a swing at covering selections from 2 of the most well known and loved video game franchises ever, The Legend of Zelda and Super Mario Bros. Entertainment System wanted to take a differant approach, all or most acts to cover music from these games typically covered the main themes from each game and including them as almost an obligitory slection on their albums. ES wanted to to give these games and the incredible music that lie within the tribute it deserved so instead of doing one or two selections from the games decided to do an entire album featuring the music of both games to be titled after the Nintendo cereal that featured two cereals in one box, the fruity Legend of Zelda cereal, and the berry flavored Mario Bros. cereal, and so Rock N' Roll Cereal was born. One half Legend of Zelda and the other half Mario Bros. 10 songs in all the new album would be the fifth full length recording put forth by ES, but first they would need to recruit yet another drummer and harmony guitarist.

The harmony guitarist position had never been an easy one to fill in the past but for some reason the rock gods aligned the planets and gave ES the talents of Jon Smeltzer. A born metal head and former Game Stop employee, he more than seemed right for the job. The position of drummer was filled by an old friend of Entertainment Systems by the incredible Brandon Wildman. wielding a monstrous drum kit with miles of skills to boot his tech heavy and versatile style was a perfect fit.

Once again ES had been reborn stronger than ever and armed with a new album set to drop at magfest 9 in 2011.
Chris Baines - Lead Guitar
John DeCampos - Rhythm Guitar
Jon Smeltzer - Harmony Guitar
Tyler Merchant - Bass
Brandon Wildman - Drums


Трекер:  [ 03-Фев-2012 20:17 ]

  

Скачать .torrent

Размер .torrent файла 21 KB


Размер: 758 MB
Хэш (hash) релиза: d2f8cf8a70fe48fc333bab4e0cb4c90cc3ec0b10

bot

Топик был перенесен в форум Саундтреки к аниме (lossless)

Перенес Galfimbul

Хотите добавить комментарий к записи скачать торрент Entertainment System - 3 альбома - 2006-2008, FLAC

!Обратная связь