Electronic Classical | HD Strain: Strategic Armored Infantry (dub) (2018) | Portraits

Скачать через торрент музыку Capcom Music Generation Family Computer Soundtracks Rockman 1~6 бесплатно без регистрации torrent

Статистика раздачи
Размер:  968 MB   |    Зарегистрирован:  6 лет 5 месяцев   |    .torrent скачан:  36 раз   |   
Раздают:  1  
   
загрузка...
 
Автор Сообщение

Galfimbul

avatar Galfimbul


Capcom Music Generation Family Computer Soundtracks Rockman 1~6
Capcom Music Generation NES Music Complete Works Mega Man 1~6
Жанр: Score, 8-Bit
Год выпуска диска: 2002
Издатель (лейбл): Suleputer
Номер по каталогу: CPCA-1064~6
Аудиокодек: FLAC (*.flac)
Тип рипа: tracks+.cue
Битрейт аудио: lossless
Продолжительность: 2:38:43
Источник: скачано с
сайт-источник/ник/другое: What.CD (JudgeIto)
Наличие сканов в содержимом раздачи: да
Треклист:
01 STAGE SELECT 0:13
02 GAME START 0:08
03 CUTMAN STAGE 1:25
04 GUTSMAN STAGE 0:59
05 ICEMAN STAGE 1:05
06 BOMBMAN STAGE 1:13
07 FIREMAN STAGE 1:00
08 ELECMAN STAGE 1:25
09 BOSS 0:22
10 STAGE CLEAR 0:08
11 Dr.WILY UFO SE 0:12
12 Dr.WILY STAGE 1 1:09
13 Dr.WILY STAGE 2 0:51
14 Dr.WILY STAGE BOSS 0:30
15 ALL STAGE CLEAR 0:18
16 ENDING 1:35
17 GAME OVER 0:06
18 SE 0:54
19 OPENING 0:42
20 TITLE 0:46
21 PASS WORD 0:18
22 STAGE SELECT 0:17
23 GAME START 0:10
24 METALMAN STAGE 1:22
25 AIRMAN STAGE 1:36
26 BUBBLEMAN STAGE 1:20
27 QUICKMAN STAGE 1:21
28 CRASHMAN STAGE 2:26
29 FLASHMAN STAGE 1:23
30 HEATMAN STAGE 0:57
31 WOODMAN STAGE 1:17
32 STAGE CLEAR 0:08
33 GET A WEAPON 0:16
34 Dr.WILY UFO SE 0:15
35 Dr.WILY MAP 0:10
36 Dr.WILY STAGE 1 2:35
37 Dr.WILY STAGE 2 2:38
38 LAST STAGE 0:16
39 BOSS 0:38
40 CLEAR DEMO 0:18
41 ALL STAGE CLEAR 0:11
42 ENDING 1:10
43 STAFF ROLL 1:50
44 GAME OVER 0:07
45 SE 0:55
 
Exact Audio Copy V0.99 prebeta 4 from 23. January 2008

EAC extraction logfile from 9. March 2009, 18:44

Capcom / Capcom Music Generation Family Computer Soundtracks Rockman 1~6 Disc 1

Used drive : Optiarc DVD RW AD-7200A Adapter: 0 ID: 0

Read mode : SecureUtilize accurate stream : YesDefeat audio cache : YesMake use of C2 pointers : No

Read offset correction : 48Overread into Lead-In and Lead-Out : NoFill up missing offset samples with silence : YesDelete leading and trailing silent blocks : NoNull samples used in CRC calculations : YesUsed interface : Native Win32 interface for Win NT & 2000Gap handling : Appended to previous track

Used output format : User Defined EncoderSelected bitrate : 128 kBit/sQuality : HighAdd ID3 tag : NoCommand line compressor : F:\Program Files\FLAC\flac.exeAdditional command line options : -V -8 -T "artist=%a" -T "title=%t" -T "album=%g" -T "date=%y" -T "tracknumber=%n" -T "genre=%m" %s

TOC of the extracted CD

Track | Start | Length | Start sector | End sector --------------------------------------------------------- 1 | 0:00.00 | 0:12.44 | 0 | 943 2 | 0:12.44 | 0:08.35 | 944 | 1578 3 | 0:21.04 | 1:25.08 | 1579 | 7961 4 | 1:46.12 | 0:58.66 | 7962 | 12377 5 | 2:45.03 | 1:04.72 | 12378 | 17249 6 | 3:50.00 | 1:12.43 | 17250 | 22692 7 | 5:02.43 | 1:00.19 | 22693 | 27211 8 | 6:02.62 | 1:24.56 | 27212 | 33567 9 | 7:27.43 | 0:22.20 | 33568 | 35237 10 | 7:49.63 | 0:08.09 | 35238 | 35846 11 | 7:57.72 | 0:11.64 | 35847 | 36735 12 | 8:09.61 | 1:08.69 | 36736 | 41904 13 | 9:18.55 | 0:51.04 | 41905 | 45733 14 | 10:09.59 | 0:30.31 | 45734 | 48014 15 | 10:40.15 | 0:17.50 | 48015 | 49339 16 | 10:57.65 | 1:34.49 | 49340 | 56438 17 | 12:32.39 | 0:06.34 | 56439 | 56922 18 | 12:38.73 | 0:53.46 | 56923 | 60943 19 | 13:32.44 | 0:42.07 | 60944 | 64100 20 | 14:14.51 | 0:46.37 | 64101 | 67587 21 | 15:01.13 | 0:18.01 | 67588 | 68938 22 | 15:19.14 | 0:16.60 | 68939 | 70198 23 | 15:35.74 | 0:10.06 | 70199 | 70954 24 | 15:46.05 | 1:22.16 | 70955 | 77120 25 | 17:08.21 | 1:35.49 | 77121 | 84294 26 | 18:43.70 | 1:19.58 | 84295 | 90277 27 | 20:03.53 | 1:21.35 | 90278 | 96387 28 | 21:25.13 | 2:26.05 | 96388 | 107342 29 | 23:51.18 | 1:22.46 | 107343 | 113538 30 | 25:13.64 | 0:57.01 | 113539 | 117814 31 | 26:10.65 | 1:17.14 | 117815 | 123603 32 | 27:28.04 | 0:07.43 | 123604 | 124171 33 | 27:35.47 | 0:15.39 | 124172 | 125335 34 | 27:51.11 | 0:15.24 | 125336 | 126484 35 | 28:06.35 | 0:10.18 | 126485 | 127252 36 | 28:16.53 | 2:35.13 | 127253 | 138890 37 | 30:51.66 | 2:37.51 | 138891 | 150716 38 | 33:29.42 | 0:15.59 | 150717 | 151900 39 | 33:45.26 | 0:37.63 | 151901 | 154738 40 | 34:23.14 | 0:18.31 | 154739 | 156119 41 | 34:41.45 | 0:10.63 | 156120 | 156932 42 | 34:52.33 | 1:10.17 | 156933 | 162199 43 | 36:02.50 | 1:50.00 | 162200 | 170449 44 | 37:52.50 | 0:06.68 | 170450 | 170967 45 | 37:59.43 | 0:54.60 | 170968 | 175077

Track 1

Filename F:\Documents and Settings\Jack\My Documents\My Music\01 - Stage Select.wav

Pre-gap length 0:00:02.00

Peak level 84.4 % Track quality 100.0 % Test CRC 7A3C4513 Copy CRC 7A3C4513 Accurately ripped (confidence 4) [AE0F2378] Copy OK

Track 2

Filename F:\Documents and Settings\Jack\My Documents\My Music\02 - Game Start.wav

Pre-gap length 0:00:01.45

Peak level 87.3 % Track quality 100.0 % Test CRC D5B2502F Copy CRC D5B2502F Accurately ripped (confidence 4) [5234F52D] Copy OK

Track 3

Filename F:\Documents and Settings\Jack\My Documents\My Music\03 - Cutman Stage.wav

Pre-gap length 0:00:01.45

Peak level 66.0 % Track quality 100.0 % Test CRC 52F93EE5 Copy CRC 52F93EE5 Accurately ripped (confidence 4) [A429279D] Copy OK

Track 4

Filename F:\Documents and Settings\Jack\My Documents\My Music\04 - Gutsman Stage.wav

Pre-gap length 0:00:01.45

Peak level 92.1 % Track quality 100.0 % Test CRC F048C2F5 Copy CRC F048C2F5 Accurately ripped (confidence 4) [8FA7336C] Copy OK

Track 5

Filename F:\Documents and Settings\Jack\My Documents\My Music\05 - Iceman Stage.wav

Pre-gap length 0:00:01.45

Peak level 93.3 % Track quality 100.0 % Test CRC 16572D06 Copy CRC 16572D06 Accurately ripped (confidence 4) [D1B6C113] Copy OK

Track 6

Filename F:\Documents and Settings\Jack\My Documents\My Music\06 - Bombman Stage.wav

Pre-gap length 0:00:01.45

Peak level 94.4 % Track quality 100.0 % Test CRC 4AE272E5 Copy CRC 4AE272E5 Accurately ripped (confidence 4) [7CFD1BAD] Copy OK

Track 7

Filename F:\Documents and Settings\Jack\My Documents\My Music\07 - Fireman Stage.wav

Pre-gap length 0:00:01.45

Peak level 94.4 % Track quality 100.0 % Test CRC 0C9EE255 Copy CRC 0C9EE255 Accurately ripped (confidence 4) [E6416C93] Copy OK

Track 8

Filename F:\Documents and Settings\Jack\My Documents\My Music\08 - Elecman Stage.wav

Pre-gap length 0:00:01.45

Peak level 83.4 % Track quality 100.0 % Test CRC B6A2A362 Copy CRC B6A2A362 Accurately ripped (confidence 4) [EE36E75C] Copy OK

Track 9

Filename F:\Documents and Settings\Jack\My Documents\My Music\09 - Boss.wav

Pre-gap length 0:00:01.45

Peak level 80.4 % Track quality 100.0 % Test CRC 4C9ACFCA Copy CRC 4C9ACFCA Accurately ripped (confidence 4) [82F2C935] Copy OK

Track 10

Filename F:\Documents and Settings\Jack\My Documents\My Music\10 - Stage Clear.wav

Pre-gap length 0:00:01.45

Peak level 87.1 % Track quality 100.0 % Test CRC 605A06D7 Copy CRC 605A06D7 Accurately ripped (confidence 4) [A9404C32] Copy OK

Track 11

Filename F:\Documents and Settings\Jack\My Documents\My Music\11 - Dr.Wily UFO SE.wav

Pre-gap length 0:00:01.45

Peak level 50.7 % Track quality 100.0 % Test CRC CBD34C9D Copy CRC CBD34C9D Accurately ripped (confidence 4) [F677BFC3] Copy OK

Track 12

Filename F:\Documents and Settings\Jack\My Documents\My Music\12 - Dr.Wily Stage 1.wav

Pre-gap length 0:00:01.45

Peak level 81.6 % Track quality 100.0 % Test CRC 1A803F8D Copy CRC 1A803F8D Accurately ripped (confidence 4) [F6A85816] Copy OK

Track 13

Filename F:\Documents and Settings\Jack\My Documents\My Music\13 - Dr.Wily Stage 2.wav

Pre-gap length 0:00:01.45

Peak level 79.3 % Track quality 100.0 % Test CRC FB11AE7F Copy CRC FB11AE7F Accurately ripped (confidence 4) [FBA9077D] Copy OK

Track 14

Filename F:\Documents and Settings\Jack\My Documents\My Music\14 - Dr.Wily Stage Boss.wav

Pre-gap length 0:00:01.45

Peak level 81.0 % Track quality 100.0 % Test CRC 3618B5EC Copy CRC 3618B5EC Accurately ripped (confidence 4) [D78F71A4] Copy OK

Track 15

Filename F:\Documents and Settings\Jack\My Documents\My Music\15 - All Stage Clear.wav

Pre-gap length 0:00:01.45

Peak level 94.4 % Track quality 100.0 % Test CRC 3EEED2EB Copy CRC 3EEED2EB Accurately ripped (confidence 4) [8FDF1B25] Copy OK

Track 16

Filename F:\Documents and Settings\Jack\My Documents\My Music\16 - Ending.wav

Pre-gap length 0:00:01.45

Peak level 87.5 % Track quality 99.8 % Test CRC 22E87EBF Copy CRC 22E87EBF Accurately ripped (confidence 4) [D71F6DE9] Copy OK

Track 17

Filename F:\Documents and Settings\Jack\My Documents\My Music\17 - Game Over.wav

Peak level 90.9 % Track quality 100.0 % Test CRC 50197F95 Copy CRC 50197F95 Track not present in AccurateRip database Copy OK

Track 18

Filename F:\Documents and Settings\Jack\My Documents\My Music\18 - SE.wav

Pre-gap length 0:00:01.45

Peak level 50.1 % Track quality 100.0 % Test CRC 0839CF40 Copy CRC 0839CF40 Track not present in AccurateRip database Copy OK

Track 19

Filename F:\Documents and Settings\Jack\My Documents\My Music\19 - Opening.wav

Pre-gap length 0:00:02.45

Peak level 87.5 % Track quality 100.0 % Test CRC 401A46B5 Copy CRC 401A46B5 Accurately ripped (confidence 4) [A9D2E693] Copy OK

Track 20

Filename F:\Documents and Settings\Jack\My Documents\My Music\20 - Title.wav

Peak level 84.1 % Track quality 99.7 % Test CRC 21A3C8A6 Copy CRC 21A3C8A6 Accurately ripped (confidence 4) [5E1901BA] Copy OK

Track 21

Filename F:\Documents and Settings\Jack\My Documents\My Music\21 - Pass Word.wav

Pre-gap length 0:00:01.45

Peak level 87.5 % Track quality 100.0 % Test CRC 3AE6CBF6 Copy CRC 3AE6CBF6 Accurately ripped (confidence 4) [3A6400ED] Copy OK

Track 22

Filename F:\Documents and Settings\Jack\My Documents\My Music\22 - Stage Select.wav

Pre-gap length 0:00:01.45

Peak level 90.7 % Track quality 100.0 % Test CRC 2832FEE5 Copy CRC 2832FEE5 Accurately ripped (confidence 4) [808C0F59] Copy OK

Track 23

Filename F:\Documents and Settings\Jack\My Documents\My Music\23 - Game Start.wav

Pre-gap length 0:00:01.45

Peak level 87.3 % Track quality 100.0 % Test CRC 6437947D Copy CRC 6437947D Accurately ripped (confidence 4) [3ECCC8A7] Copy OK

Track 24

Filename F:\Documents and Settings\Jack\My Documents\My Music\24 - Metalman Stage.wav

Pre-gap length 0:00:01.45

Peak level 94.4 % Track quality 100.0 % Test CRC 401E2383 Copy CRC 401E2383 Accurately ripped (confidence 4) [A2337B90] Copy OK

Track 25

Filename F:\Documents and Settings\Jack\My Documents\My Music\25 - Airman Stage.wav

Pre-gap length 0:00:01.45

Peak level 94.4 % Track quality 99.8 % Test CRC 748BD940 Copy CRC 748BD940 Accurately ripped (confidence 4) [2B588C6A] Copy OK

Track 26

Filename F:\Documents and Settings\Jack\My Documents\My Music\26 - Bubbleman Stage.wav

Pre-gap length 0:00:01.45

Peak level 94.4 % Track quality 100.0 % Test CRC B4D327DA Copy CRC B4D327DA Accurately ripped (confidence 4) [914BEA25] Copy OK

Track 27

Filename F:\Documents and Settings\Jack\My Documents\My Music\27 - Quickman Stage.wav

Pre-gap length 0:00:01.45

Peak level 94.4 % Track quality 100.0 % Test CRC 7CEF4B9B Copy CRC 7CEF4B9B Accurately ripped (confidence 4) [579F5209] Copy OK

Track 28

Filename F:\Documents and Settings\Jack\My Documents\My Music\28 - Crashman Stage.wav

Pre-gap length 0:00:01.45

Peak level 86.9 % Track quality 100.0 % Test CRC B37E10FC Copy CRC B37E10FC Accurately ripped (confidence 4) [4F77BD12] Copy OK

Track 29

Filename F:\Documents and Settings\Jack\My Documents\My Music\29 - Flashman Stage.wav

Pre-gap length 0:00:01.45

Peak level 92.2 % Track quality 100.0 % Test CRC 9EA86B5C Copy CRC 9EA86B5C Accurately ripped (confidence 4) [C282C74F] Copy OK

Track 30

Filename F:\Documents and Settings\Jack\My Documents\My Music\30 - Heatman Stage.wav

Pre-gap length 0:00:01.45

Peak level 94.4 % Track quality 100.0 % Test CRC 2FC9DE60 Copy CRC 2FC9DE60 Accurately ripped (confidence 4) [52FC78E0] Copy OK

Track 31

Filename F:\Documents and Settings\Jack\My Documents\My Music\31 - Woodman Stage.wav

Pre-gap length 0:00:01.45

Peak level 94.4 % Track quality 100.0 % Test CRC AD055EA2 Copy CRC AD055EA2 Accurately ripped (confidence 4) [4D47E9BC] Copy OK

Track 32

Filename F:\Documents and Settings\Jack\My Documents\My Music\32 - Stage Clear.wav

Pre-gap length 0:00:01.45

Peak level 88.9 % Track quality 100.0 % Test CRC 42A8523F Copy CRC 42A8523F Track not present in AccurateRip database Copy OK

Track 33

Filename F:\Documents and Settings\Jack\My Documents\My Music\33 - Get A Weapon.wav

Pre-gap length 0:00:01.45

Peak level 95.6 % Track quality 100.0 % Test CRC DF301D81 Copy CRC DF301D81 Accurately ripped (confidence 4) [AF6D836C] Copy OK

Track 34

Filename F:\Documents and Settings\Jack\My Documents\My Music\34 - Dr.Wily UFO SE.wav

Pre-gap length 0:00:01.45

Peak level 52.2 % Track quality 100.0 % Test CRC 3D90EB05 Copy CRC 3D90EB05 Accurately ripped (confidence 4) [2DD88C53] Copy OK

Track 35

Filename F:\Documents and Settings\Jack\My Documents\My Music\35 - Dr.Wily Map.wav

Peak level 94.4 % Track quality 100.0 % Test CRC 2C645EE7 Copy CRC 2C645EE7 Accurately ripped (confidence 4) [A1AD8042] Copy OK

Track 36

Filename F:\Documents and Settings\Jack\My Documents\My Music\36 - Dr.Wily Stage 1.wav

Pre-gap length 0:00:01.45

Peak level 94.4 % Track quality 100.0 % Test CRC 87F8D647 Copy CRC 87F8D647 Accurately ripped (confidence 4) [8CBB6B8C] Copy OK

Track 37

Filename F:\Documents and Settings\Jack\My Documents\My Music\37 - Dr.Wily Stage 2.wav

Pre-gap length 0:00:01.45

Peak level 88.8 % Track quality 100.0 % Test CRC 36C21948 Copy CRC 36C21948 Accurately ripped (confidence 4) [32811547] Copy OK

Track 38

Filename F:\Documents and Settings\Jack\My Documents\My Music\38 - Last Stage.wav

Pre-gap length 0:00:01.45

Peak level 50.8 % Track quality 100.0 % Test CRC 1430AABC Copy CRC 1430AABC Accurately ripped (confidence 4) [DDBEFBA9] Copy OK

Track 39

Filename F:\Documents and Settings\Jack\My Documents\My Music\39 - Boss.wav

Pre-gap length 0:00:01.45

Peak level 94.4 % Track quality 99.7 % Test CRC DFFA854A Copy CRC DFFA854A Accurately ripped (confidence 4) [B957C8F6] Copy OK

Track 40

Filename F:\Documents and Settings\Jack\My Documents\My Music\40 - Clear Demo.wav

Pre-gap length 0:00:01.45

Peak level 53.2 % Track quality 100.0 % Test CRC 2D796227 Copy CRC 2D796227 Accurately ripped (confidence 4) [424407E6] Copy OK

Track 41

Filename F:\Documents and Settings\Jack\My Documents\My Music\41 - All Stage Clear.wav

Pre-gap length 0:00:01.45

Peak level 75.4 % Track quality 100.0 % Test CRC 68F85454 Copy CRC 68F85454 Accurately ripped (confidence 4) [A9A5ED38] Copy OK

Track 42

Filename F:\Documents and Settings\Jack\My Documents\My Music\42 - Ending.wav

Pre-gap length 0:00:01.45

Peak level 76.2 % Track quality 100.0 % Test CRC 7029C4C2 Copy CRC 7029C4C2 Accurately ripped (confidence 4) [98146C33] Copy OK

Track 43

Filename F:\Documents and Settings\Jack\My Documents\My Music\43 - Staff Roll.wav

Peak level 75.8 % Track quality 100.0 % Test CRC E8F4CD4C Copy CRC E8F4CD4C Accurately ripped (confidence 4) [98DCD3DC] Copy OK

Track 44

Filename F:\Documents and Settings\Jack\My Documents\My Music\44 - Game Over.wav

Peak level 79.1 % Track quality 100.0 % Test CRC EE0DC068 Copy CRC EE0DC068 Track not present in AccurateRip database Copy OK

Track 45

Filename F:\Documents and Settings\Jack\My Documents\My Music\45 - SE.wav

Pre-gap length 0:00:02.45

Peak level 56.2 % Track quality 99.8 % Test CRC 6368462B Copy CRC 6368462B Track not present in AccurateRip database Copy OK

40 track(s) accurately ripped 5 track(s) not present in the AccurateRip database

Some tracks could not be verified as accurate

No errors occurred

End of status report
 
REM GENRE GameREM DATE 2002REM DISCID 4D091E2DREM COMMENT "ExactAudioCopy v0.99pb4"PERFORMER "Capcom"TITLE "Capcom Music Generation Family Computer Soundtracks Rockman 1~6 Disc 1"FILE "01 - Stage Select.wav" WAVE TRACK 01 AUDIO TITLE "Stage Select" PERFORMER "Mega Man" INDEX 01 00:00:00 TRACK 02 AUDIO TITLE "Game Start" PERFORMER "Mega Man" INDEX 00 00:10:74FILE "02 - Game Start.wav" WAVE INDEX 01 00:00:00 TRACK 03 AUDIO TITLE "Cutman Stage" PERFORMER "Mega Man" INDEX 00 00:06:65FILE "03 - Cutman Stage.wav" WAVE INDEX 01 00:00:00 TRACK 04 AUDIO TITLE "Gutsman Stage" PERFORMER "Mega Man" INDEX 00 01:23:38FILE "04 - Gutsman Stage.wav" WAVE INDEX 01 00:00:00 TRACK 05 AUDIO TITLE "Iceman Stage" PERFORMER "Mega Man" INDEX 00 00:57:21FILE "05 - Iceman Stage.wav" WAVE INDEX 01 00:00:00 TRACK 06 AUDIO TITLE "Bombman Stage" PERFORMER "Mega Man" INDEX 00 01:03:27FILE "06 - Bombman Stage.wav" WAVE INDEX 01 00:00:00 TRACK 07 AUDIO TITLE "Fireman Stage" PERFORMER "Mega Man" INDEX 00 01:10:73FILE "07 - Fireman Stage.wav" WAVE INDEX 01 00:00:00 TRACK 08 AUDIO TITLE "Elecman Stage" PERFORMER "Mega Man" INDEX 00 00:58:49FILE "08 - Elecman Stage.wav" WAVE INDEX 01 00:00:00 TRACK 09 AUDIO TITLE "Boss" PERFORMER "Mega Man" INDEX 00 01:23:11FILE "09 - Boss.wav" WAVE INDEX 01 00:00:00 TRACK 10 AUDIO TITLE "Stage Clear" PERFORMER "Mega Man" INDEX 00 00:20:50FILE "10 - Stage Clear.wav" WAVE INDEX 01 00:00:00 TRACK 11 AUDIO TITLE "Dr.Wily UFO SE" PERFORMER "Mega Man" INDEX 00 00:06:39FILE "11 - Dr.Wily UFO SE.wav" WAVE INDEX 01 00:00:00 TRACK 12 AUDIO TITLE "Dr.Wily Stage 1" PERFORMER "Mega Man" INDEX 00 00:10:19FILE "12 - Dr.Wily Stage 1.wav" WAVE INDEX 01 00:00:00 TRACK 13 AUDIO TITLE "Dr.Wily Stage 2" PERFORMER "Mega Man" INDEX 00 01:07:24FILE "13 - Dr.Wily Stage 2.wav" WAVE INDEX 01 00:00:00 TRACK 14 AUDIO TITLE "Dr.Wily Stage Boss" PERFORMER "Mega Man" INDEX 00 00:49:34FILE "14 - Dr.Wily Stage Boss.wav" WAVE INDEX 01 00:00:00 TRACK 15 AUDIO TITLE "All Stage Clear" PERFORMER "Mega Man" INDEX 00 00:28:61FILE "15 - All Stage Clear.wav" WAVE INDEX 01 00:00:00 TRACK 16 AUDIO TITLE "Ending" PERFORMER "Mega Man" INDEX 00 00:16:05FILE "16 - Ending.wav" WAVE INDEX 01 00:00:00FILE "17 - Game Over.wav" WAVE TRACK 17 AUDIO TITLE "Game Over" PERFORMER "Mega Man" INDEX 01 00:00:00 TRACK 18 AUDIO TITLE "SE" PERFORMER "Mega Man" INDEX 00 00:04:64FILE "18 - SE.wav" WAVE INDEX 01 00:00:00 TRACK 19 AUDIO TITLE "Opening" PERFORMER "Mega Man 2" INDEX 00 00:51:01FILE "19 - Opening.wav" WAVE INDEX 01 00:00:00FILE "20 - Title.wav" WAVE TRACK 20 AUDIO TITLE "Title" PERFORMER "Mega Man 2" INDEX 01 00:00:00 TRACK 21 AUDIO TITLE "Pass Word" PERFORMER "Mega Man 2" INDEX 00 00:44:67FILE "21 - Pass Word.wav" WAVE INDEX 01 00:00:00 TRACK 22 AUDIO TITLE "Stage Select" PERFORMER "Mega Man 2" INDEX 00 00:16:31FILE "22 - Stage Select.wav" WAVE INDEX 01 00:00:00 TRACK 23 AUDIO TITLE "Game Start" PERFORMER "Mega Man 2" INDEX 00 00:15:15FILE "23 - Game Start.wav" WAVE INDEX 01 00:00:00 TRACK 24 AUDIO TITLE "Metalman Stage" PERFORMER "Mega Man 2" INDEX 00 00:08:36FILE "24 - Metalman Stage.wav" WAVE INDEX 01 00:00:00 TRACK 25 AUDIO TITLE "Airman Stage" PERFORMER "Mega Man 2" INDEX 00 01:20:46FILE "25 - Airman Stage.wav" WAVE INDEX 01 00:00:00 TRACK 26 AUDIO TITLE "Bubbleman Stage" PERFORMER "Mega Man 2" INDEX 00 01:34:04FILE "26 - Bubbleman Stage.wav" WAVE INDEX 01 00:00:00 TRACK 27 AUDIO TITLE "Quickman Stage" PERFORMER "Mega Man 2" INDEX 00 01:18:13FILE "27 - Quickman Stage.wav" WAVE INDEX 01 00:00:00 TRACK 28 AUDIO TITLE "Crashman Stage" PERFORMER "Mega Man 2" INDEX 00 01:19:65FILE "28 - Crashman Stage.wav" WAVE INDEX 01 00:00:00 TRACK 29 AUDIO TITLE "Flashman Stage" PERFORMER "Mega Man 2" INDEX 00 02:24:35FILE "29 - Flashman Stage.wav" WAVE INDEX 01 00:00:00 TRACK 30 AUDIO TITLE "Heatman Stage" PERFORMER "Mega Man 2" INDEX 00 01:21:01FILE "30 - Heatman Stage.wav" WAVE INDEX 01 00:00:00 TRACK 31 AUDIO TITLE "Woodman Stage" PERFORMER "Mega Man 2" INDEX 00 00:55:31FILE "31 - Woodman Stage.wav" WAVE INDEX 01 00:00:00 TRACK 32 AUDIO TITLE "Stage Clear" PERFORMER "Mega Man 2" INDEX 00 01:15:44FILE "32 - Stage Clear.wav" WAVE INDEX 01 00:00:00 TRACK 33 AUDIO TITLE "Get A Weapon" PERFORMER "Mega Man 2" INDEX 00 00:05:73FILE "33 - Get A Weapon.wav" WAVE INDEX 01 00:00:00 TRACK 34 AUDIO TITLE "Dr.Wily UFO SE" PERFORMER "Mega Man 2" INDEX 00 00:13:69FILE "34 - Dr.Wily UFO SE.wav" WAVE INDEX 01 00:00:00FILE "35 - Dr.Wily Map.wav" WAVE TRACK 35 AUDIO TITLE "Dr.Wily Map" PERFORMER "Mega Man 2" INDEX 01 00:00:00 TRACK 36 AUDIO TITLE "Dr.Wily Stage 1" PERFORMER "Mega Man 2" INDEX 00 00:08:48FILE "36 - Dr.Wily Stage 1.wav" WAVE INDEX 01 00:00:00 TRACK 37 AUDIO TITLE "Dr.Wily Stage 2" PERFORMER "Mega Man 2" INDEX 00 02:33:43FILE "37 - Dr.Wily Stage 2.wav" WAVE INDEX 01 00:00:00 TRACK 38 AUDIO TITLE "Last Stage" PERFORMER "Mega Man 2" INDEX 00 02:36:06FILE "38 - Last Stage.wav" WAVE INDEX 01 00:00:00 TRACK 39 AUDIO TITLE "Boss" PERFORMER "Mega Man 2" INDEX 00 00:14:14FILE "39 - Boss.wav" WAVE INDEX 01 00:00:00 TRACK 40 AUDIO TITLE "Clear Demo" PERFORMER "Mega Man 2" INDEX 00 00:36:18FILE "40 - Clear Demo.wav" WAVE INDEX 01 00:00:00 TRACK 41 AUDIO TITLE "All Stage Clear" PERFORMER "Mega Man 2" INDEX 00 00:16:61FILE "41 - All Stage Clear.wav" WAVE INDEX 01 00:00:00 TRACK 42 AUDIO TITLE "Ending" PERFORMER "Mega Man 2" INDEX 00 00:09:18FILE "42 - Ending.wav" WAVE INDEX 01 00:00:00FILE "43 - Staff Roll.wav" WAVE TRACK 43 AUDIO TITLE "Staff Roll" PERFORMER "Mega Man 2" INDEX 01 00:00:00FILE "44 - Game Over.wav" WAVE TRACK 44 AUDIO TITLE "Game Over" PERFORMER "Mega Man 2" INDEX 01 00:00:00 TRACK 45 AUDIO TITLE "SE" PERFORMER "Mega Man 2" INDEX 00 00:04:23FILE "45 - SE.wav" WAVE INDEX 01 00:00:00
01 NEW CHARACTER 0:14
02 TITLE 1:23
03 PASS WORD 0:30
04 STAGE SELECT 0:24
05 GAME START 0:08
06 NEEDLEMAN STAGE 2:12
07 MAGNETMAN STAGE 1:18
08 GEMINIMAN STAGE 1:56
09 HARDMAN STAGE 1:39
10 TOPMAN STAGE 1:41
11 SNAKEMAN STAGE 1:26
12 SPARKMAN STAGE 1:09
13 SHADOWMAN STAGE 2:03
14 BOSS 1:04
15 STAGE CLEAR 0:06
16 GET A WEAPON 0:56
17 Dr.WILY STAGE MAP 0:20
18 Dr.WILY STAGE 1 1:40
19 Dr.WILY STAGE 2 1:23
20 Dr.WILY STAGE 3 1:28
21 Dr.WILY STAGE BOSS 0:43
22 ALL STAGE CLEAR 0:08
23 ENDING 3:38
24 STAFF ROLL 2:17
25 SE 0:52
26 OPENING 0:43
27 OPENING2 0:27
28 TITLE 0:59
29 PASS WORD 0:15
30 STAGE SELECT 0:30
31 GAME START 0:09
32 BRIGHTMAN STAGE 1:15
33 TOADMAN STAGE 1:14
34 DRILLMAN STAGE 1:34
35 PHARAOHMAN STAGE 1:19
36 RINGMAN STAGE 1:15
37 DUSTMAN STAGE 1:12
38 DIVEMAN STAGE 1:32
39 SKULLMAN STAGE 1:38
40 BOSS 0:36
41 STAGE CLEAR 0:05
42 GET A WEAPON 0:14
43 Dr.COSSACK STAGE MAP 0:10
44 Dr.COSSACK STAGE 1 1:12
45 Dr.COSSACK STAGE 2 2:00
46 Dr.WILY STAGE MAP 0:09
47 Dr.WILY STAGE 1 1:31
48 Dr.WILY STAGE 2 1:47
49 LAST BOSS 0:29
50 ALL STAGE CLEAR 0:12
51 ENDING 1:53
52 STAFF ROLL 1:47
53 GAME OVER 0:06
54 SE 1:18
55 GET ITEMS 0:05
 
Exact Audio Copy V0.99 prebeta 4 from 23. January 2008

EAC extraction logfile from 9. March 2009, 21:12

Capcom / Capcom Music Generation Family Computer Soundtracks Rockman 1~6 Disc 2

Used drive : Optiarc DVD RW AD-7200A Adapter: 0 ID: 0

Read mode : SecureUtilize accurate stream : YesDefeat audio cache : YesMake use of C2 pointers : No

Read offset correction : 48Overread into Lead-In and Lead-Out : NoFill up missing offset samples with silence : YesDelete leading and trailing silent blocks : NoNull samples used in CRC calculations : YesUsed interface : Native Win32 interface for Win NT & 2000Gap handling : Appended to previous track

Used output format : User Defined EncoderSelected bitrate : 128 kBit/sQuality : HighAdd ID3 tag : NoCommand line compressor : F:\Program Files\FLAC\flac.exeAdditional command line options : -V -8 -T "artist=%a" -T "title=%t" -T "album=%g" -T "date=%y" -T "tracknumber=%n" -T "genre=%m" %s

TOC of the extracted CD

Track | Start | Length | Start sector | End sector --------------------------------------------------------- 1 | 0:00.00 | 0:13.73 | 0 | 1047 2 | 0:13.73 | 1:22.54 | 1048 | 7251 3 | 1:36.52 | 0:29.44 | 7252 | 9470 4 | 2:06.21 | 0:24.09 | 9471 | 11279 5 | 2:30.30 | 0:08.06 | 11280 | 11885 6 | 2:38.36 | 2:11.55 | 11886 | 21765 7 | 4:50.16 | 1:17.47 | 21766 | 27587 8 | 6:07.63 | 1:56.10 | 27588 | 36297 9 | 8:03.73 | 1:39.14 | 36298 | 43736 10 | 9:43.12 | 1:41.33 | 43737 | 51344 11 | 11:24.45 | 1:26.03 | 51345 | 57797 12 | 12:50.48 | 1:09.00 | 57798 | 62972 13 | 13:59.48 | 2:03.24 | 62973 | 72221 14 | 16:02.72 | 1:03.49 | 72222 | 76995 15 | 17:06.46 | 0:05.41 | 76996 | 77411 16 | 17:12.12 | 0:55.62 | 77412 | 81598 17 | 18:07.74 | 0:19.66 | 81599 | 83089 18 | 18:27.65 | 1:40.25 | 83090 | 90614 19 | 20:08.15 | 1:22.51 | 90615 | 96815 20 | 21:30.66 | 1:27.62 | 96816 | 103402 21 | 22:58.53 | 0:43.21 | 103403 | 106648 22 | 23:41.74 | 0:08.11 | 106649 | 107259 23 | 23:50.10 | 3:37.69 | 107260 | 123603 24 | 27:28.04 | 2:17.15 | 123604 | 133893 25 | 29:45.19 | 0:52.00 | 133894 | 137793 26 | 30:37.19 | 0:42.51 | 137794 | 140994 27 | 31:19.70 | 0:27.36 | 140995 | 143055 28 | 31:47.31 | 0:59.12 | 143056 | 147492 29 | 32:46.43 | 0:14.43 | 147493 | 148585 30 | 33:01.11 | 0:29.73 | 148586 | 150833 31 | 33:31.09 | 0:08.54 | 150834 | 151487 32 | 33:39.63 | 1:14.73 | 151488 | 157110 33 | 34:54.61 | 1:13.61 | 157111 | 162646 34 | 36:08.47 | 1:34.22 | 162647 | 169718 35 | 37:42.69 | 1:18.46 | 169719 | 175614 36 | 39:01.40 | 1:15.05 | 175615 | 181244 37 | 40:16.45 | 1:11.56 | 181245 | 186625 38 | 41:28.26 | 1:32.10 | 186626 | 193535 39 | 43:00.36 | 1:38.24 | 193536 | 200909 40 | 44:38.60 | 0:36.13 | 200910 | 203622 41 | 45:14.73 | 0:05.34 | 203623 | 204031 42 | 45:20.32 | 0:14.21 | 204032 | 205102 43 | 45:34.53 | 0:10.18 | 205103 | 205870 44 | 45:44.71 | 1:12.37 | 205871 | 211307 45 | 46:57.33 | 2:00.19 | 211308 | 220326 46 | 48:57.52 | 0:08.55 | 220327 | 220981 47 | 49:06.32 | 1:31.14 | 220982 | 227820 48 | 50:37.46 | 1:46.58 | 227821 | 235828 49 | 52:24.29 | 0:28.49 | 235829 | 237977 50 | 52:53.03 | 0:12.25 | 237978 | 238902 51 | 53:05.28 | 1:53.20 | 238903 | 247397 52 | 54:58.48 | 1:46.38 | 247398 | 255385 53 | 56:45.11 | 0:06.37 | 255386 | 255872 54 | 56:51.48 | 1:18.14 | 255873 | 261736 55 | 58:09.62 | 0:05.34 | 261737 | 262145

Track 1

Filename F:\Documents and Settings\Jack\My Documents\My Music\01 - New Character.wav

Pre-gap length 0:00:02.00

Peak level 15.7 % Track quality 100.0 % Test CRC CB6E5DCB Copy CRC CB6E5DCB Accurately ripped (confidence 4) [27239ACC] Copy OK

Track 2

Filename F:\Documents and Settings\Jack\My Documents\My Music\02 - Title.wav

Pre-gap length 0:00:00.45

Peak level 93.0 % Track quality 100.0 % Test CRC 60955A18 Copy CRC 60955A18 Accurately ripped (confidence 4) [BD03A2BA] Copy OK

Track 3

Filename F:\Documents and Settings\Jack\My Documents\My Music\03 - Pass Word.wav

Pre-gap length 0:00:01.45

Peak level 72.1 % Track quality 100.0 % Test CRC D6CBBFAE Copy CRC D6CBBFAE Accurately ripped (confidence 4) [2EEB1E73] Copy OK

Track 4

Filename F:\Documents and Settings\Jack\My Documents\My Music\04 - Stage Select.wav

Pre-gap length 0:00:01.45

Peak level 94.4 % Track quality 100.0 % Test CRC E6A56FDD Copy CRC E6A56FDD Accurately ripped (confidence 4) [C2EB0892] Copy OK

Track 5

Filename F:\Documents and Settings\Jack\My Documents\My Music\05 - Game Start.wav

Pre-gap length 0:00:01.45

Peak level 73.8 % Track quality 100.0 % Test CRC A462B1F8 Copy CRC A462B1F8 Accurately ripped (confidence 4) [22735BA6] Copy OK

Track 6

Filename F:\Documents and Settings\Jack\My Documents\My Music\06 - Needleman Stage.wav

Pre-gap length 0:00:01.45

Peak level 94.4 % Track quality 100.0 % Test CRC F0319A48 Copy CRC F0319A48 Accurately ripped (confidence 4) [D75AB4A0] Copy OK

Track 7

Filename F:\Documents and Settings\Jack\My Documents\My Music\07 - Magnetman Stage.wav

Pre-gap length 0:00:01.45

Peak level 94.4 % Track quality 100.0 % Test CRC B7B7FAE3 Copy CRC B7B7FAE3 Accurately ripped (confidence 4) [2742B120] Copy OK

Track 8

Filename F:\Documents and Settings\Jack\My Documents\My Music\08 - Geminiman Stage.wav

Pre-gap length 0:00:01.45

Peak level 94.4 % Track quality 100.0 % Test CRC C643B878 Copy CRC C643B878 Accurately ripped (confidence 4) [723B5605] Copy OK

Track 9

Filename F:\Documents and Settings\Jack\My Documents\My Music\09 - Hardman Stage.wav

Pre-gap length 0:00:01.45

Peak level 94.4 % Track quality 100.0 % Test CRC D9E026F2 Copy CRC D9E026F2 Accurately ripped (confidence 4) [C83CD795] Copy OK

Track 10

Filename F:\Documents and Settings\Jack\My Documents\My Music\10 - Topman Stage.wav

Pre-gap length 0:00:01.45

Peak level 94.4 % Track quality 100.0 % Test CRC 6FF13901 Copy CRC 6FF13901 Accurately ripped (confidence 4) [6CF198ED] Copy OK

Track 11

Filename F:\Documents and Settings\Jack\My Documents\My Music\11 - Snakeman Stage.wav

Pre-gap length 0:00:01.45

Peak level 94.4 % Track quality 100.0 % Test CRC 2AC26042 Copy CRC 2AC26042 Accurately ripped (confidence 4) [B3458631] Copy OK

Track 12

Filename F:\Documents and Settings\Jack\My Documents\My Music\12 - Sparkman Stage.wav

Pre-gap length 0:00:01.45

Peak level 94.4 % Track quality 100.0 % Test CRC 17EE7C4F Copy CRC 17EE7C4F Accurately ripped (confidence 4) [AFF28F0B] Copy OK

Track 13

Filename F:\Documents and Settings\Jack\My Documents\My Music\13 - Shadowman Stage.wav

Pre-gap length 0:00:01.45

Peak level 94.4 % Track quality 100.0 % Test CRC C8E76F67 Copy CRC C8E76F67 Accurately ripped (confidence 4) [77E2BAA5] Copy OK

Track 14

Filename F:\Documents and Settings\Jack\My Documents\My Music\14 - Boss.wav

Pre-gap length 0:00:01.45

Peak level 83.9 % Track quality 100.0 % Test CRC D6E8A4AB Copy CRC D6E8A4AB Accurately ripped (confidence 4) [A2E3A524] Copy OK

Track 15

Filename F:\Documents and Settings\Jack\My Documents\My Music\15 - Stage Clear.wav

Pre-gap length 0:00:01.45

Peak level 77.3 % Track quality 100.0 % Test CRC 7CB8B702 Copy CRC 7CB8B702 Track not present in AccurateRip database Copy OK

Track 16

Filename F:\Documents and Settings\Jack\My Documents\My Music\16 - Get A Weapon.wav

Pre-gap length 0:00:00.45

Peak level 84.1 % Track quality 100.0 % Test CRC D9FBB7D0 Copy CRC D9FBB7D0 Accurately ripped (confidence 4) [895CD05E] Copy OK

Track 17

Filename F:\Documents and Settings\Jack\My Documents\My Music\17 - Dr.Wily Stage Map.wav

Pre-gap length 0:00:01.45

Peak level 86.5 % Track quality 100.0 % Test CRC 069DD177 Copy CRC 069DD177 Accurately ripped (confidence 4) [828DBD71] Copy OK

Track 18

Filename F:\Documents and Settings\Jack\My Documents\My Music\18 - Dr.Wily Stage 1.wav

Pre-gap length 0:00:01.45

Peak level 93.6 % Track quality 100.0 % Test CRC 1AD1F1EF Copy CRC 1AD1F1EF Accurately ripped (confidence 4) [0AE8ED70] Copy OK

Track 19

Filename F:\Documents and Settings\Jack\My Documents\My Music\19 - Dr.Wily Stage 2.wav

Pre-gap length 0:00:01.45

Peak level 81.6 % Track quality 99.8 % Test CRC BC95C564 Copy CRC BC95C564 Accurately ripped (confidence 4) [E1CFAFF5] Copy OK

Track 20

Filename F:\Documents and Settings\Jack\My Documents\My Music\20 - Dr.Wily Stage 3.wav

Pre-gap length 0:00:01.45

Peak level 83.6 % Track quality 100.0 % Test CRC 3227A502 Copy CRC 3227A502 Accurately ripped (confidence 4) [A2E26263] Copy OK

Track 21

Filename F:\Documents and Settings\Jack\My Documents\My Music\21 - Dr.Wily Stage Boss.wav

Pre-gap length 0:00:01.45

Peak level 94.4 % Track quality 100.0 % Test CRC 18344488 Copy CRC 18344488 Accurately ripped (confidence 4) [2F5BB724] Copy OK

Track 22

Filename F:\Documents and Settings\Jack\My Documents\My Music\22 - All Stage Clear.wav

Pre-gap length 0:00:01.45

Peak level 74.2 % Track quality 100.0 % Test CRC B67AA60C Copy CRC B67AA60C Track not present in AccurateRip database Copy OK

Track 23

Filename F:\Documents and Settings\Jack\My Documents\My Music\23 - Ending.wav

Pre-gap length 0:00:02.45

Peak level 67.0 % Track quality 100.0 % Test CRC 8A25F7DB Copy CRC 8A25F7DB Accurately ripped (confidence 4) [5E849465] Copy OK

Track 24

Filename F:\Documents and Settings\Jack\My Documents\My Music\24 - Staff Roll.wav

Pre-gap length 0:00:01.45

Peak level 94.4 % Track quality 100.0 % Test CRC A5BDD8EB Copy CRC A5BDD8EB Accurately ripped (confidence 4) [D7D0246A] Copy OK

Track 25

Filename F:\Documents and Settings\Jack\My Documents\My Music\25 - SE.wav

Pre-gap length 0:00:02.45

Peak level 37.5 % Track quality 100.0 % Test CRC B70B4697 Copy CRC B70B4697 Track not present in AccurateRip database Copy OK

Track 26

Filename F:\Documents and Settings\Jack\My Documents\My Music\26 - Opening.wav

Pre-gap length 0:00:02.45

Peak level 79.9 % Track quality 100.0 % Test CRC 3E28E6BB Copy CRC 3E28E6BB Accurately ripped (confidence 4) [A0C77227] Copy OK

Track 27

Filename F:\Documents and Settings\Jack\My Documents\My Music\27 - Opening 2.wav

Pre-gap length 0:00:02.45

Peak level 82.6 % Track quality 100.0 % Test CRC 08D7C68F Copy CRC 08D7C68F Accurately ripped (confidence 4) [A00FB167] Copy OK

Track 28

Filename F:\Documents and Settings\Jack\My Documents\My Music\28 - Title.wav

Pre-gap length 0:00:01.45

Peak level 94.4 % Track quality 100.0 % Test CRC FEC9711D Copy CRC FEC9711D Accurately ripped (confidence 4) [4C90280A] Copy OK

Track 29

Filename F:\Documents and Settings\Jack\My Documents\My Music\29 - Pass Word.wav

Pre-gap length 0:00:01.45

Peak level 81.5 % Track quality 99.2 % Test CRC 890E50B7 Copy CRC 890E50B7 Accurately ripped (confidence 4) [5E944BB7] Copy OK

Track 30

Filename F:\Documents and Settings\Jack\My Documents\My Music\30 - Stage Select.wav

Pre-gap length 0:00:01.45

Peak level 89.9 % Track quality 100.0 % Test CRC EE361887 Copy CRC EE361887 Accurately ripped (confidence 4) [E00E0F26] Copy OK

Track 31

Filename F:\Documents and Settings\Jack\My Documents\My Music\31 - Game Start.wav

Pre-gap length 0:00:01.45

Peak level 78.1 % Track quality 100.0 % Test CRC 7C159C9C Copy CRC 7C159C9C Accurately ripped (confidence 4) [6B54DE5F] Copy OK

Track 32

Filename F:\Documents and Settings\Jack\My Documents\My Music\32 - Brightman Stage.wav

Pre-gap length 0:00:01.45

Peak level 94.4 % Track quality 100.0 % Test CRC 17264C58 Copy CRC 17264C58 Accurately ripped (confidence 4) [5900D722] Copy OK

Track 33

Filename F:\Documents and Settings\Jack\My Documents\My Music\33 - Toadman Stage.wav

Pre-gap length 0:00:01.45

Peak level 94.4 % Track quality 100.0 % Test CRC 42592B78 Copy CRC 42592B78 Accurately ripped (confidence 4) [D70903E6] Copy OK

Track 34

Filename F:\Documents and Settings\Jack\My Documents\My Music\34 - Drillman Stage.wav

Pre-gap length 0:00:01.45

Peak level 93.5 % Track quality 99.8 % Test CRC 72CAA71E Copy CRC 72CAA71E Accurately ripped (confidence 4) [2EA7E317] Copy OK

Track 35

Filename F:\Documents and Settings\Jack\My Documents\My Music\35 - Pharaohman Stage.wav

Pre-gap length 0:00:01.45

Peak level 94.4 % Track quality 100.0 % Test CRC 0FE1421B Copy CRC 0FE1421B Accurately ripped (confidence 4) [D8040892] Copy OK

Track 36

Filename F:\Documents and Settings\Jack\My Documents\My Music\36 - Ringman Stage.wav

Pre-gap length 0:00:01.45

Peak level 93.1 % Track quality 99.8 % Test CRC ECFBF1CA Copy CRC ECFBF1CA Accurately ripped (confidence 4) [5B6DEF67] Copy OK

Track 37

Filename F:\Documents and Settings\Jack\My Documents\My Music\37 - Dustman Stage.wav

Pre-gap length 0:00:01.45

Peak level 93.8 % Track quality 100.0 % Test CRC B68EBD62 Copy CRC B68EBD62 Accurately ripped (confidence 4) [DA9E0140] Copy OK

Track 38

Filename F:\Documents and Settings\Jack\My Documents\My Music\38 - Diveman Stage.wav

Pre-gap length 0:00:01.45

Peak level 94.4 % Track quality 100.0 % Test CRC 892BA06B Copy CRC 892BA06B Accurately ripped (confidence 4) [8DC2474E] Copy OK

Track 39

Filename F:\Documents and Settings\Jack\My Documents\My Music\39 - Skullman Stage.wav

Pre-gap length 0:00:01.45

Peak level 94.4 % Track quality 100.0 % Test CRC 8EF09FCC Copy CRC 8EF09FCC Accurately ripped (confidence 4) [6052EEEE] Copy OK

Track 40

Filename F:\Documents and Settings\Jack\My Documents\My Music\40 - Boss.wav

Pre-gap length 0:00:01.45

Peak level 94.4 % Track quality 99.7 % Test CRC 6F7B850E Copy CRC 6F7B850E Accurately ripped (confidence 4) [6B73CEDE] Copy OK

Track 41

Filename F:\Documents and Settings\Jack\My Documents\My Music\41 - Stage Clear.wav

Pre-gap length 0:00:01.45

Peak level 76.9 % Track quality 100.0 % Test CRC 513FA0AB Copy CRC 513FA0AB Track not present in AccurateRip database Copy OK

Track 42

Filename F:\Documents and Settings\Jack\My Documents\My Music\42 - Get A Weapon.wav

Pre-gap length 0:00:00.45

Peak level 82.7 % Track quality 99.2 % Test CRC 68764B47 Copy CRC 68764B47 Accurately ripped (confidence 3) [D3F3A830] Copy OK

Track 43

Filename F:\Documents and Settings\Jack\My Documents\My Music\43 - Dr.Cossack Stage Map.wav

Pre-gap length 0:00:01.45

Peak level 87.3 % Track quality 100.0 % Test CRC E82ACAC1 Copy CRC E82ACAC1 Accurately ripped (confidence 3) [82231FD0] Copy OK

Track 44

Filename F:\Documents and Settings\Jack\My Documents\My Music\44 - Dr.Cossack Stage 1.wav

Pre-gap length 0:00:01.45

Peak level 94.4 % Track quality 100.0 % Test CRC 65283CCB Copy CRC 65283CCB Accurately ripped (confidence 4) [109C5724] Copy OK

Track 45

Filename F:\Documents and Settings\Jack\My Documents\My Music\45 - Dr.Cossack Stage 2.wav

Pre-gap length 0:00:01.45

Peak level 84.1 % Track quality 100.0 % Test CRC 88F5D604 Copy CRC 88F5D604 Accurately ripped (confidence 4) [9B246FD9] Copy OK

Track 46

Filename F:\Documents and Settings\Jack\My Documents\My Music\46 - Dr.Wily Stage Map.wav

Pre-gap length 0:00:01.45

Peak level 80.2 % Track quality 100.0 % Test CRC 7FD55782 Copy CRC 7FD55782 Accurately ripped (confidence 4) [F26C27ED] Copy OK

Track 47

Filename F:\Documents and Settings\Jack\My Documents\My Music\47 - Dr.Wily Stage 1.wav

Pre-gap length 0:00:01.45

Peak level 94.4 % Track quality 100.0 % Test CRC C5DB6FE3 Copy CRC C5DB6FE3 Accurately ripped (confidence 4) [318BC59D] Copy OK

Track 48

Filename F:\Documents and Settings\Jack\My Documents\My Music\48 - Dr.Wily Stage 2.wav

Pre-gap length 0:00:01.45

Peak level 74.9 % Track quality 100.0 % Test CRC 8E7B05E9 Copy CRC 8E7B05E9 Accurately ripped (confidence 4) [05E19A04] Copy OK

Track 49

Filename F:\Documents and Settings\Jack\My Documents\My Music\49 - Last Boss.wav

Pre-gap length 0:00:01.45

Peak level 94.4 % Track quality 100.0 % Test CRC 50AC1626 Copy CRC 50AC1626 Accurately ripped (confidence 4) [9F025171] Copy OK

Track 50

Filename F:\Documents and Settings\Jack\My Documents\My Music\50 - All Stage Clear.wav

Pre-gap length 0:00:01.45

Peak level 84.4 % Track quality 100.0 % Test CRC 06F3CC0E Copy CRC 06F3CC0E Accurately ripped (confidence 4) [DBB7EB09] Copy OK

Track 51

Filename F:\Documents and Settings\Jack\My Documents\My Music\51 - Ending.wav

Pre-gap length 0:00:01.45

Peak level 83.4 % Track quality 100.0 % Test CRC D81C23FD Copy CRC D81C23FD Accurately ripped (confidence 4) [F3DE69B1] Copy OK

Track 52

Filename F:\Documents and Settings\Jack\My Documents\My Music\52 - Staff Roll.wav

Pre-gap length 0:00:01.45

Peak level 74.9 % Track quality 100.0 % Test CRC 7A570DD0 Copy CRC 7A570DD0 Accurately ripped (confidence 4) [7EB4BEA2] Copy OK

Track 53

Filename F:\Documents and Settings\Jack\My Documents\My Music\53 - Game Over.wav

Pre-gap length 0:00:01.45

Peak level 85.3 % Track quality 100.0 % Test CRC C85A63D7 Copy CRC C85A63D7 Track not present in AccurateRip database Copy OK

Track 54

Filename F:\Documents and Settings\Jack\My Documents\My Music\54 - SE.wav

Pre-gap length 0:00:01.45

Peak level 37.5 % Track quality 100.0 % Test CRC 5DE1D7ED Copy CRC 5DE1D7ED Accurately ripped (confidence 4) [5EA31A9B] Copy OK

Track 55

Filename F:\Documents and Settings\Jack\My Documents\My Music\55 - Get Items.wav

Pre-gap length 0:00:01.45

Peak level 89.6 % Track quality 100.0 % Test CRC C8DD7E28 Copy CRC C8DD7E28 Track not present in AccurateRip database Copy OK

49 track(s) accurately ripped 6 track(s) not present in the AccurateRip database

Some tracks could not be verified as accurate

No errors occurred

End of status report
 
REM GENRE GameREM DATE 2002REM DISCID 1B0DA737REM COMMENT "ExactAudioCopy v0.99pb4"PERFORMER "Capcom"TITLE "Capcom Music Generation Family Computer Soundtracks Rockman 1~6 Disc 2"FILE "01 - New Character.wav" WAVE TRACK 01 AUDIO TITLE "New Character" PERFORMER "Mega Man 3" INDEX 01 00:00:00 TRACK 02 AUDIO TITLE "Title" PERFORMER "Mega Man 3" INDEX 00 00:13:28FILE "02 - Title.wav" WAVE INDEX 01 00:00:00 TRACK 03 AUDIO TITLE "Pass Word" PERFORMER "Mega Man 3" INDEX 00 01:21:09FILE "03 - Pass Word.wav" WAVE INDEX 01 00:00:00 TRACK 04 AUDIO TITLE "Stage Select" PERFORMER "Mega Man 3" INDEX 00 00:27:74FILE "04 - Stage Select.wav" WAVE INDEX 01 00:00:00 TRACK 05 AUDIO TITLE "Game Start" PERFORMER "Mega Man 3" INDEX 00 00:22:39FILE "05 - Game Start.wav" WAVE INDEX 01 00:00:00 TRACK 06 AUDIO TITLE "Needleman Stage" PERFORMER "Mega Man 3" INDEX 00 00:06:36FILE "06 - Needleman Stage.wav" WAVE INDEX 01 00:00:00 TRACK 07 AUDIO TITLE "Magnetman Stage" PERFORMER "Mega Man 3" INDEX 00 02:10:10FILE "07 - Magnetman Stage.wav" WAVE INDEX 01 00:00:00 TRACK 08 AUDIO TITLE "Geminiman Stage" PERFORMER "Mega Man 3" INDEX 00 01:16:02FILE "08 - Geminiman Stage.wav" WAVE INDEX 01 00:00:00 TRACK 09 AUDIO TITLE "Hardman Stage" PERFORMER "Mega Man 3" INDEX 00 01:54:40FILE "09 - Hardman Stage.wav" WAVE INDEX 01 00:00:00 TRACK 10 AUDIO TITLE "Topman Stage" PERFORMER "Mega Man 3" INDEX 00 01:37:44FILE "10 - Topman Stage.wav" WAVE INDEX 01 00:00:00 TRACK 11 AUDIO TITLE "Snakeman Stage" PERFORMER "Mega Man 3" INDEX 00 01:39:63FILE "11 - Snakeman Stage.wav" WAVE INDEX 01 00:00:00 TRACK 12 AUDIO TITLE "Sparkman Stage" PERFORMER "Mega Man 3" INDEX 00 01:24:33FILE "12 - Sparkman Stage.wav" WAVE INDEX 01 00:00:00 TRACK 13 AUDIO TITLE "Shadowman Stage" PERFORMER "Mega Man 3" INDEX 00 01:07:30FILE "13 - Shadowman Stage.wav" WAVE INDEX 01 00:00:00 TRACK 14 AUDIO TITLE "Boss" PERFORMER "Mega Man 3" INDEX 00 02:01:54FILE "14 - Boss.wav" WAVE INDEX 01 00:00:00 TRACK 15 AUDIO TITLE "Stage Clear" PERFORMER "Mega Man 3" INDEX 00 01:02:04FILE "15 - Stage Clear.wav" WAVE INDEX 01 00:00:00 TRACK 16 AUDIO TITLE "Get A Weapon" PERFORMER "Mega Man 3" INDEX 00 00:04:71FILE "16 - Get A Weapon.wav" WAVE INDEX 01 00:00:00 TRACK 17 AUDIO TITLE "Dr.Wily Stage Map" PERFORMER "Mega Man 3" INDEX 00 00:54:17FILE "17 - Dr.Wily Stage Map.wav" WAVE INDEX 01 00:00:00 TRACK 18 AUDIO TITLE "Dr.Wily Stage 1" PERFORMER "Mega Man 3" INDEX 00 00:18:21FILE "18 - Dr.Wily Stage 1.wav" WAVE INDEX 01 00:00:00 TRACK 19 AUDIO TITLE "Dr.Wily Stage 2" PERFORMER "Mega Man 3" INDEX 00 01:38:55FILE "19 - Dr.Wily Stage 2.wav" WAVE INDEX 01 00:00:00 TRACK 20 AUDIO TITLE "Dr.Wily Stage 3" PERFORMER "Mega Man 3" INDEX 00 01:21:06FILE "20 - Dr.Wily Stage 3.wav" WAVE INDEX 01 00:00:00 TRACK 21 AUDIO TITLE "Dr.Wily Stage Boss" PERFORMER "Mega Man 3" INDEX 00 01:26:17FILE "21 - Dr.Wily Stage Boss.wav" WAVE INDEX 01 00:00:00 TRACK 22 AUDIO TITLE "All Stage Clear" PERFORMER "Mega Man 3" INDEX 00 00:41:51FILE "22 - All Stage Clear.wav" WAVE INDEX 01 00:00:00 TRACK 23 AUDIO TITLE "Ending" PERFORMER "Mega Man 3" INDEX 00 00:05:41FILE "23 - Ending.wav" WAVE INDEX 01 00:00:00 TRACK 24 AUDIO TITLE "Staff Roll" PERFORMER "Mega Man 3" INDEX 00 03:36:24FILE "24 - Staff Roll.wav" WAVE INDEX 01 00:00:00 TRACK 25 AUDIO TITLE "SE" PERFORMER "Mega Man 3" INDEX 00 02:14:45FILE "25 - SE.wav" WAVE INDEX 01 00:00:00 TRACK 26 AUDIO TITLE "Opening" PERFORMER "Mega Man 4" INDEX 00 00:49:30FILE "26 - Opening.wav" WAVE INDEX 01 00:00:00 TRACK 27 AUDIO TITLE "Opening 2" PERFORMER "Mega Man 4" INDEX 00 00:40:06FILE "27 - Opening 2.wav" WAVE INDEX 01 00:00:00 TRACK 28 AUDIO TITLE "Title" PERFORMER "Mega Man 4" INDEX 00 00:25:66FILE "28 - Title.wav" WAVE INDEX 01 00:00:00 TRACK 29 AUDIO TITLE "Pass Word" PERFORMER "Mega Man 4" INDEX 00 00:57:42FILE "29 - Pass Word.wav" WAVE INDEX 01 00:00:00 TRACK 30 AUDIO TITLE "Stage Select" PERFORMER "Mega Man 4" INDEX 00 00:12:73FILE "30 - Stage Select.wav" WAVE INDEX 01 00:00:00 TRACK 31 AUDIO TITLE "Game Start" PERFORMER "Mega Man 4" INDEX 00 00:28:28FILE "31 - Game Start.wav" WAVE INDEX 01 00:00:00 TRACK 32 AUDIO TITLE "Brightman Stage" PERFORMER "Mega Man 4" INDEX 00 00:07:09FILE "32 - Brightman Stage.wav" WAVE INDEX 01 00:00:00 TRACK 33 AUDIO TITLE "Toadman Stage" PERFORMER "Mega Man 4" INDEX 00 01:13:28FILE "33 - Toadman Stage.wav" WAVE INDEX 01 00:00:00 TRACK 34 AUDIO TITLE "Drillman Stage" PERFORMER "Mega Man 4" INDEX 00 01:12:16FILE "34 - Drillman Stage.wav" WAVE INDEX 01 00:00:00 TRACK 35 AUDIO TITLE "Pharaohman Stage" PERFORMER "Mega Man 4" INDEX 00 01:32:52FILE "35 - Pharaohman Stage.wav" WAVE INDEX 01 00:00:00 TRACK 36 AUDIO TITLE "Ringman Stage" PERFORMER "Mega Man 4" INDEX 00 01:17:01FILE "36 - Ringman Stage.wav" WAVE INDEX 01 00:00:00 TRACK 37 AUDIO TITLE "Dustman Stage" PERFORMER "Mega Man 4" INDEX 00 01:13:35FILE "37 - Dustman Stage.wav" WAVE INDEX 01 00:00:00 TRACK 38 AUDIO TITLE "Diveman Stage" PERFORMER "Mega Man 4" INDEX 00 01:10:11FILE "38 - Diveman Stage.wav" WAVE INDEX 01 00:00:00 TRACK 39 AUDIO TITLE "Skullman Stage" PERFORMER "Mega Man 4" INDEX 00 01:30:40FILE "39 - Skullman Stage.wav" WAVE INDEX 01 00:00:00 TRACK 40 AUDIO TITLE "Boss" PERFORMER "Mega Man 4" INDEX 00 01:36:54FILE "40 - Boss.wav" WAVE INDEX 01 00:00:00 TRACK 41 AUDIO TITLE "Stage Clear" PERFORMER "Mega Man 4" INDEX 00 00:34:43FILE "41 - Stage Clear.wav" WAVE INDEX 01 00:00:00 TRACK 42 AUDIO TITLE "Get A Weapon" PERFORMER "Mega Man 4" INDEX 00 00:04:64FILE "42 - Get A Weapon.wav" WAVE INDEX 01 00:00:00 TRACK 43 AUDIO TITLE "Dr.Cossack Stage Map" PERFORMER "Mega Man 4" INDEX 00 00:12:51FILE "43 - Dr.Cossack Stage Map.wav" WAVE INDEX 01 00:00:00 TRACK 44 AUDIO TITLE "Dr.Cossack Stage 1" PERFORMER "Mega Man 4" INDEX 00 00:08:48FILE "44 - Dr.Cossack Stage 1.wav" WAVE INDEX 01 00:00:00 TRACK 45 AUDIO TITLE "Dr.Cossack Stage 2" PERFORMER "Mega Man 4" INDEX 00 01:10:67FILE "45 - Dr.Cossack Stage 2.wav" WAVE INDEX 01 00:00:00 TRACK 46 AUDIO TITLE "Dr.Wily Stage Map" PERFORMER "Mega Man 4" INDEX 00 01:58:49FILE "46 - Dr.Wily Stage Map.wav" WAVE INDEX 01 00:00:00 TRACK 47 AUDIO TITLE "Dr.Wily Stage 1" PERFORMER "Mega Man 4" INDEX 00 00:07:10FILE "47 - Dr.Wily Stage 1.wav" WAVE INDEX 01 00:00:00 TRACK 48 AUDIO TITLE "Dr.Wily Stage 2" PERFORMER "Mega Man 4" INDEX 00 01:29:44FILE "48 - Dr.Wily Stage 2.wav" WAVE INDEX 01 00:00:00 TRACK 49 AUDIO TITLE "Last Boss" PERFORMER "Mega Man 4" INDEX 00 01:45:13FILE "49 - Last Boss.wav" WAVE INDEX 01 00:00:00 TRACK 50 AUDIO TITLE "All Stage Clear" PERFORMER "Mega Man 4" INDEX 00 00:27:04FILE "50 - All Stage Clear.wav" WAVE INDEX 01 00:00:00 TRACK 51 AUDIO TITLE "Ending" PERFORMER "Mega Man 4" INDEX 00 00:10:55FILE "51 - Ending.wav" WAVE INDEX 01 00:00:00 TRACK 52 AUDIO TITLE "Staff Roll" PERFORMER "Mega Man 4" INDEX 00 01:51:50FILE "52 - Staff Roll.wav" WAVE INDEX 01 00:00:00 TRACK 53 AUDIO TITLE "Game Over" PERFORMER "Mega Man 4" INDEX 00 01:44:68FILE "53 - Game Over.wav" WAVE INDEX 01 00:00:00 TRACK 54 AUDIO TITLE "SE" PERFORMER "Mega Man 4" INDEX 00 00:04:67FILE "54 - SE.wav" WAVE INDEX 01 00:00:00 TRACK 55 AUDIO TITLE "Get Items" PERFORMER "Mega Man 4" INDEX 00 01:16:44FILE "55 - Get Items.wav" WAVE INDEX 01 00:00:00
01 OPENING 0:38
02 TITLE 0:53
03 PASS WORD 0:26
04 STAGE SELECT 0:22
05 GAME START 0:08
06 GRAVITYMAN STAGE 2:36
07 WAVEMAN STAGE 2:00
08 STONEMAN STAGE 1:25
09 GYROMAN STAGE 1:36
10 STARMAN STAGE 1:41
11 CHARGEMAN STAGE 2:18
12 NAPALMMAN STAGE 1:42
13 CRYSTALMAN STAGE 1:38
14 BOSS 1:16
15 STAGE CLEAR 0:06
16 GET A WEAPON 0:12
17 DARKMAN STAGE MAP 0:10
18 DARKMAN STAGE 1:58
19 Dr.WILY STAGE MAP 0:10
20 Dr.WILY STAGE 2:25
21 LAST BOSS 2:13
22 ALL STAGE CLEAR 0:08
23 ESCAPE 0:25
24 ENDING 2:38
25 GAME OVER 0:07
26 SE 1:33
27 CAPCOM LOGO 0:39
28 TITLE 0:25
29 PASS WORD 0:30
30 STAGE SELECT 0:32
31 GAME START 0:08
32 BLIZZARDMAN STAGE 1:46
33 CENTAURMAN STAGE 1:28
34 FLAMEMAN STAGE 1:58
35 KNIGHTMAN STAGE 2:10
36 PLANTMAN STAGE 1:35
37 TOMAHAWKMAN STAGE 1:56
38 WINDMAN STAGE 2:03
39 YAMATOMAN STAGE 1:48
40 BOSS 0:59
41 STAGE CLEAR 0:06
42 GET A WEAPON 0:22
43 Mr.X STAGE MAP 0:10
44 Mr.X STAGE 1:37
45 Dr.WILY STAGE MAP 0:10
46 Dr.WILY STAGE 1:43
47 LAST BOSS 0:53
48 ALL STAGE CLEAR 0:07
49 ENDING 4:47
50 GAME OVER 0:07
51 MEGA MAN 6 - OPENING 0:42
52 SE 2:09
 
Exact Audio Copy V0.99 prebeta 4 from 23. January 2008

EAC extraction logfile from 9. March 2009, 22:01

Capcom / Capcom Music Generation Family Computer Soundtracks Rockman 1~6 Disc 3

Used drive : _NEC DVD+RW ND-2100AD Adapter: 0 ID: 1

Read mode : SecureUtilize accurate stream : YesDefeat audio cache : YesMake use of C2 pointers : No

Read offset correction : 48Overread into Lead-In and Lead-Out : NoFill up missing offset samples with silence : YesDelete leading and trailing silent blocks : NoNull samples used in CRC calculations : YesUsed interface : Native Win32 interface for Win NT & 2000Gap handling : Appended to previous track

Used output format : User Defined EncoderSelected bitrate : 128 kBit/sQuality : HighAdd ID3 tag : NoCommand line compressor : F:\Program Files\FLAC\flac.exeAdditional command line options : -V -8 -T "artist=%a" -T "title=%t" -T "album=%g" -T "date=%y" -T "tracknumber=%n" -T "genre=%m" %s

TOC of the extracted CD

Track | Start | Length | Start sector | End sector --------------------------------------------------------- 1 | 0:00.00 | 0:37.41 | 0 | 2815 2 | 0:37.41 | 0:52.51 | 2816 | 6766 3 | 1:30.17 | 0:25.54 | 6767 | 8695 4 | 1:55.71 | 0:21.41 | 8696 | 10311 5 | 2:17.37 | 0:08.15 | 10312 | 10926 6 | 2:25.52 | 2:35.72 | 10927 | 22623 7 | 5:01.49 | 1:59.53 | 22624 | 31601 8 | 7:01.27 | 1:25.21 | 31602 | 37997 9 | 8:26.48 | 1:35.63 | 37998 | 45185 10 | 10:02.36 | 1:40.58 | 45186 | 52743 11 | 11:43.19 | 2:18.13 | 52744 | 63106 12 | 14:01.32 | 1:41.70 | 63107 | 70751 13 | 15:43.27 | 1:37.50 | 70752 | 78076 14 | 17:21.02 | 1:16.26 | 78077 | 83802 15 | 18:37.28 | 0:05.55 | 83803 | 84232 16 | 18:43.08 | 0:12.23 | 84233 | 85155 17 | 18:55.31 | 0:09.58 | 85156 | 85888 18 | 19:05.14 | 1:57.45 | 85889 | 94708 19 | 21:02.59 | 0:09.41 | 94709 | 95424 20 | 21:12.25 | 2:25.02 | 95425 | 106301 21 | 23:37.27 | 2:13.34 | 106302 | 116310 22 | 25:50.61 | 0:07.49 | 116311 | 116884 23 | 25:58.35 | 0:24.46 | 116885 | 118730 24 | 26:23.06 | 2:37.66 | 118731 | 130571 25 | 29:00.72 | 0:07.37 | 130572 | 131133 26 | 29:08.34 | 1:33.25 | 131134 | 138133 27 | 30:41.59 | 0:39.32 | 138134 | 141090 28 | 31:21.16 | 0:24.68 | 141091 | 142958 29 | 31:46.09 | 0:30.12 | 142959 | 145220 30 | 32:16.21 | 0:32.05 | 145221 | 147625 31 | 32:48.26 | 0:08.24 | 147626 | 148249 32 | 32:56.50 | 1:46.20 | 148250 | 156219 33 | 34:42.70 | 1:27.70 | 156220 | 162814 34 | 36:10.65 | 1:58.13 | 162815 | 171677 35 | 38:09.03 | 2:09.64 | 171678 | 181416 36 | 40:18.67 | 1:35.02 | 181417 | 188543 37 | 41:53.69 | 1:56.34 | 188544 | 197277 38 | 43:50.28 | 2:02.70 | 197278 | 206497 39 | 45:53.23 | 1:48.36 | 206498 | 214633 40 | 47:41.59 | 0:58.41 | 214634 | 219024 41 | 48:40.25 | 0:05.56 | 219025 | 219455 42 | 48:46.06 | 0:21.69 | 219456 | 221099 43 | 49:08.00 | 0:09.44 | 221100 | 221818 44 | 49:17.44 | 1:36.45 | 221819 | 229063 45 | 50:54.14 | 0:09.42 | 229064 | 229780 46 | 51:03.56 | 1:43.25 | 229781 | 237530 47 | 52:47.06 | 0:53.24 | 237531 | 241529 48 | 53:40.30 | 0:07.26 | 241530 | 242080 49 | 53:47.56 | 4:47.27 | 242081 | 263632 50 | 58:35.08 | 0:07.37 | 263633 | 264194 51 | 58:42.45 | 0:42.05 | 264195 | 267349 52 | 59:24.50 | 2:09.37 | 267350 | 277061

Track 1

Filename F:\Documents and Settings\Jack\My Documents\My Music\01 - Opening.wav

Pre-gap length 0:00:02.00

Peak level 85.3 % Track quality 100.0 % Test CRC 3757DDFC Copy CRC 3757DDFC Accurately ripped (confidence 3) [6E89D3CB] Copy OK

Track 2

Filename F:\Documents and Settings\Jack\My Documents\My Music\02 - Title.wav

Pre-gap length 0:00:01.45

Peak level 87.3 % Track quality 100.0 % Test CRC 78EE5DC5 Copy CRC 78EE5DC5 Accurately ripped (confidence 3) [0E4235BF] Copy OK

Track 3

Filename F:\Documents and Settings\Jack\My Documents\My Music\03 - Pass Word.wav

Pre-gap length 0:00:01.45

Peak level 87.3 % Track quality 100.0 % Test CRC E0B3F339 Copy CRC E0B3F339 Accurately ripped (confidence 3) [50551A66] Copy OK

Track 4

Filename F:\Documents and Settings\Jack\My Documents\My Music\04 - Stage Select.wav

Pre-gap length 0:00:01.45

Peak level 83.5 % Track quality 99.5 % Test CRC 2EF4E9A8 Copy CRC 2EF4E9A8 Accurately ripped (confidence 3) [6D54146A] Copy OK

Track 5

Filename F:\Documents and Settings\Jack\My Documents\My Music\05 - Game Start.wav

Pre-gap length 0:00:01.45

Peak level 81.6 % Track quality 100.0 % Test CRC 4F9099B1 Copy CRC 4F9099B1 Accurately ripped (confidence 3) [914852ED] Copy OK

Track 6

Filename F:\Documents and Settings\Jack\My Documents\My Music\06 - Gravityman Stage.wav

Pre-gap length 0:00:01.45

Peak level 94.7 % Track quality 100.0 % Test CRC 1426F8F5 Copy CRC 1426F8F5 Accurately ripped (confidence 3) [C17EE97C] Copy OK

Track 7

Filename F:\Documents and Settings\Jack\My Documents\My Music\07 - Waveman Stage.wav

Pre-gap length 0:00:01.45

Peak level 88.6 % Track quality 100.0 % Test CRC 50185703 Copy CRC 50185703 Accurately ripped (confidence 3) [37C712C9] Copy OK

Track 8

Filename F:\Documents and Settings\Jack\My Documents\My Music\08 - Stoneman Stage.wav

Pre-gap length 0:00:01.45

Peak level 90.6 % Track quality 100.0 % Test CRC 933F5752 Copy CRC 933F5752 Accurately ripped (confidence 3) [B35182BA] Copy OK

Track 9

Filename F:\Documents and Settings\Jack\My Documents\My Music\09 - Gyroman Stage.wav

Pre-gap length 0:00:01.45

Peak level 84.5 % Track quality 100.0 % Test CRC D11023F4 Copy CRC D11023F4 Accurately ripped (confidence 3) [C933B434] Copy OK

Track 10

Filename F:\Documents and Settings\Jack\My Documents\My Music\10 - Starman Stage.wav

Pre-gap length 0:00:01.45

Peak level 80.5 % Track quality 100.0 % Test CRC 3C2447BC Copy CRC 3C2447BC Accurately ripped (confidence 3) [425CB314] Copy OK

Track 11

Filename F:\Documents and Settings\Jack\My Documents\My Music\11 - Chargeman Stage.wav

Pre-gap length 0:00:01.45

Peak level 100.0 % Track quality 100.0 % Test CRC D004B3C0 Copy CRC D004B3C0 Accurately ripped (confidence 3) [9C94741E] Copy OK

Track 12

Filename F:\Documents and Settings\Jack\My Documents\My Music\12 - Napalmman Stage.wav

Pre-gap length 0:00:01.45

Peak level 86.2 % Track quality 99.8 % Test CRC A3FA0C63 Copy CRC A3FA0C63 Accurately ripped (confidence 3) [E7BD7D34] Copy OK

Track 13

Filename F:\Documents and Settings\Jack\My Documents\My Music\13 - Crystalman Stage.wav

Pre-gap length 0:00:01.45

Peak level 99.3 % Track quality 100.0 % Test CRC 548F68CC Copy CRC 548F68CC Accurately ripped (confidence 3) [F1179A7F] Copy OK

Track 14

Filename F:\Documents and Settings\Jack\My Documents\My Music\14 - Boss.wav

Pre-gap length 0:00:01.45

Peak level 85.3 % Track quality 100.0 % Test CRC 2160601D Copy CRC 2160601D Accurately ripped (confidence 3) [03AFA559] Copy OK

Track 15

Filename F:\Documents and Settings\Jack\My Documents\My Music\15 - Stage Clear.wav

Pre-gap length 0:00:01.45

Peak level 71.5 % Track quality 100.0 % Test CRC 02A8C48B Copy CRC 02A8C48B Track not present in AccurateRip database Copy OK

Track 16

Filename F:\Documents and Settings\Jack\My Documents\My Music\16 - Get A Weapon.wav

Pre-gap length 0:00:01.45

Peak level 94.2 % Track quality 99.1 % Test CRC EA583554 Copy CRC EA583554 Accurately ripped (confidence 3) [487E1005] Copy OK

Track 17

Filename F:\Documents and Settings\Jack\My Documents\My Music\17 - Darkman Stage Map.wav

Pre-gap length 0:00:01.45

Peak level 84.5 % Track quality 100.0 % Test CRC 1621DAA8 Copy CRC 1621DAA8 Accurately ripped (confidence 3) [0B7786B6] Copy OK

Track 18

Filename F:\Documents and Settings\Jack\My Documents\My Music\18 - Darkman Stage.wav

Pre-gap length 0:00:01.45

Peak level 100.0 % Track quality 100.0 % Test CRC 4C13AAFA Copy CRC 4C13AAFA Accurately ripped (confidence 3) [9230A4D2] Copy OK

Track 19

Filename F:\Documents and Settings\Jack\My Documents\My Music\19 - Dr.Wily Stage Map.wav

Pre-gap length 0:00:01.45

Peak level 66.9 % Track quality 100.0 % Test CRC CBCF49C1 Copy CRC CBCF49C1 Accurately ripped (confidence 3) [37F89746] Copy OK

Track 20

Filename F:\Documents and Settings\Jack\My Documents\My Music\20 - Dr.Wily Stage.wav

Pre-gap length 0:00:01.45

Peak level 100.0 % Track quality 100.0 % Test CRC C5CE7EAD Copy CRC C5CE7EAD Accurately ripped (confidence 3) [7724018A] Copy OK

Track 21

Filename F:\Documents and Settings\Jack\My Documents\My Music\21 - Last Boss.wav

Pre-gap length 0:00:01.45

Peak level 89.8 % Track quality 99.9 % Test CRC 55A662F3 Copy CRC 55A662F3 Accurately ripped (confidence 3) [BDF89E61] Copy OK

Track 22

Filename F:\Documents and Settings\Jack\My Documents\My Music\22 - All Stage Clear.wav

Pre-gap length 0:00:01.45

Peak level 73.6 % Track quality 100.0 % Test CRC B299A06E Copy CRC B299A06E Accurately ripped (confidence 3) [285AB634] Copy OK

Track 23

Filename F:\Documents and Settings\Jack\My Documents\My Music\23 - Escape.wav

Pre-gap length 0:00:00.45

Peak level 80.6 % Track quality 100.0 % Test CRC 61B3A81B Copy CRC 61B3A81B Accurately ripped (confidence 3) [46518212] Copy OK

Track 24

Filename F:\Documents and Settings\Jack\My Documents\My Music\24 - Ending.wav

Pre-gap length 0:00:01.45

Peak level 86.9 % Track quality 100.0 % Test CRC 8C2B0BB6 Copy CRC 8C2B0BB6 Accurately ripped (confidence 3) [41963E07] Copy OK

Track 25

Filename F:\Documents and Settings\Jack\My Documents\My Music\25 - Game Over.wav

Pre-gap length 0:00:01.45

Peak level 82.2 % Track quality 100.0 % Test CRC 2BE7CE17 Copy CRC 2BE7CE17 Track not present in AccurateRip database Copy OK

Track 26

Filename F:\Documents and Settings\Jack\My Documents\My Music\26 - SE.wav

Pre-gap length 0:00:02.45

Peak level 39.8 % Track quality 100.0 % Test CRC A0C553BA Copy CRC A0C553BA Accurately ripped (confidence 3) [7FA376F5] Copy OK

Track 27

Filename F:\Documents and Settings\Jack\My Documents\My Music\27 - Capcom Logo.wav

Pre-gap length 0:00:02.45

Peak level 89.1 % Track quality 100.0 % Test CRC 924E1DB0 Copy CRC 924E1DB0 Accurately ripped (confidence 3) [54C3B8CB] Copy OK

Track 28

Filename F:\Documents and Settings\Jack\My Documents\My Music\28 - Title.wav

Pre-gap length 0:00:01.45

Peak level 89.1 % Track quality 99.5 % Test CRC B73FD881 Copy CRC B73FD881 Accurately ripped (confidence 3) [676A5BC2] Copy OK

Track 29

Filename F:\Documents and Settings\Jack\My Documents\My Music\29 - Pass Word.wav

Pre-gap length 0:00:01.45

Peak level 78.7 % Track quality 100.0 % Test CRC BACD7509 Copy CRC BACD7509 Accurately ripped (confidence 3) [50E19CF4] Copy OK

Track 30

Filename F:\Documents and Settings\Jack\My Documents\My Music\30 - Stage Select.wav

Pre-gap length 0:00:01.45

Peak level 84.3 % Track quality 100.0 % Test CRC 817F6369 Copy CRC 817F6369 Accurately ripped (confidence 3) [3BDC903C] Copy OK

Track 31

Filename F:\Documents and Settings\Jack\My Documents\My Music\31 - Game Start.wav

Pre-gap length 0:00:01.45

Peak level 89.1 % Track quality 100.0 % Test CRC 134121BD Copy CRC 134121BD Accurately ripped (confidence 3) [3F1DB9A4] Copy OK

Track 32

Filename F:\Documents and Settings\Jack\My Documents\My Music\32 - Blizzardman Stage.wav

Pre-gap length 0:00:01.45

Peak level 89.1 % Track quality 99.8 % Test CRC 0727B76A Copy CRC 0727B76A Accurately ripped (confidence 3) [E09DB63D] Copy OK

Track 33

Filename F:\Documents and Settings\Jack\My Documents\My Music\33 - Centaurman Stage.wav

Pre-gap length 0:00:01.45

Peak level 93.8 % Track quality 100.0 % Test CRC D6C4C270 Copy CRC D6C4C270 Accurately ripped (confidence 3) [F9465279] Copy OK

Track 34

Filename F:\Documents and Settings\Jack\My Documents\My Music\34 - Flameman Stage.wav

Pre-gap length 0:00:01.45

Peak level 75.6 % Track quality 100.0 % Test CRC 39A5F690 Copy CRC 39A5F690 Accurately ripped (confidence 3) [87676EFA] Copy OK

Track 35

Filename F:\Documents and Settings\Jack\My Documents\My Music\35 - Knightman Stage.wav

Pre-gap length 0:00:01.45

Peak level 89.1 % Track quality 99.9 % Test CRC EB7D7BD3 Copy CRC EB7D7BD3 Accurately ripped (confidence 3) [A527FE7B] Copy OK

Track 36

Filename F:\Documents and Settings\Jack\My Documents\My Music\36 - Plantman Stage.wav

Pre-gap length 0:00:01.45

Peak level 82.1 % Track quality 100.0 % Test CRC D6E491C2 Copy CRC D6E491C2 Accurately ripped (confidence 3) [6B1AE3C6] Copy OK

Track 37

Filename F:\Documents and Settings\Jack\My Documents\My Music\37 - Tomahawkman Stage.wav

Pre-gap length 0:00:01.45

Peak level 88.8 % Track quality 100.0 % Test CRC 7481C475 Copy CRC 7481C475 Accurately ripped (confidence 3) [F68F67E1] Copy OK

Track 38

Filename F:\Documents and Settings\Jack\My Documents\My Music\38 - Windman Stage.wav

Pre-gap length 0:00:01.45

Peak level 84.9 % Track quality 100.0 % Test CRC 7C674071 Copy CRC 7C674071 Accurately ripped (confidence 3) [16BBC460] Copy OK

Track 39

Filename F:\Documents and Settings\Jack\My Documents\My Music\39 - Yamatoman Stage.wav

Pre-gap length 0:00:01.45

Peak level 85.4 % Track quality 100.0 % Test CRC 3BE19863 Copy CRC 3BE19863 Accurately ripped (confidence 3) [46E1296E] Copy OK

Track 40

Filename F:\Documents and Settings\Jack\My Documents\My Music\40 - Boss.wav

Pre-gap length 0:00:01.45

Peak level 86.0 % Track quality 100.0 % Test CRC 2B81A3B7 Copy CRC 2B81A3B7 Accurately ripped (confidence 3) [67E7B1BE] Copy OK

Track 41

Filename F:\Documents and Settings\Jack\My Documents\My Music\41 - Stage Clear.wav

Pre-gap length 0:00:01.45

Peak level 72.5 % Track quality 100.0 % Test CRC 1AADC1EC Copy CRC 1AADC1EC Track not present in AccurateRip database Copy OK

Track 42

Filename F:\Documents and Settings\Jack\My Documents\My Music\42 - Get A Weapon.wav

Pre-gap length 0:00:01.45

Peak level 100.0 % Track quality 99.5 % Test CRC 18A4B497 Copy CRC 18A4B497 Accurately ripped (confidence 3) [CCB42D1D] Copy OK

Track 43

Filename F:\Documents and Settings\Jack\My Documents\My Music\43 - Mr.X Stage Map.wav

Pre-gap length 0:00:01.45

Peak level 80.1 % Track quality 100.0 % Test CRC 41EC399A Copy CRC 41EC399A Accurately ripped (confidence 3) [F6D55417] Copy OK

Track 44

Filename F:\Documents and Settings\Jack\My Documents\My Music\44 - Mr.X Stage.wav

Pre-gap length 0:00:01.45

Peak level 91.2 % Track quality 100.0 % Test CRC 073A98C2 Copy CRC 073A98C2 Accurately ripped (confidence 3) [4D7C749F] Copy OK

Track 45

Filename F:\Documents and Settings\Jack\My Documents\My Music\45 - Dr.Wily Stage Map.wav

Pre-gap length 0:00:01.45

Peak level 87.5 % Track quality 100.0 % Test CRC A62C1DB6 Copy CRC A62C1DB6 Accurately ripped (confidence 3) [72A3706C] Copy OK

Track 46

Filename F:\Documents and Settings\Jack\My Documents\My Music\46 - Dr.Wily Stage.wav

Pre-gap length 0:00:01.45

Peak level 92.4 % Track quality 100.0 % Test CRC E66E60D4 Copy CRC E66E60D4 Accurately ripped (confidence 3) [66D99782] Copy OK

Track 47

Filename F:\Documents and Settings\Jack\My Documents\My Music\47 - Last Boss.wav

Pre-gap length 0:00:01.45

Peak level 95.9 % Track quality 100.0 % Test CRC 47781B3A Copy CRC 47781B3A Accurately ripped (confidence 3) [7BA9195D] Copy OK

Track 48

Filename F:\Documents and Settings\Jack\My Documents\My Music\48 - All Stage Clear.wav

Pre-gap length 0:00:01.45

Peak level 86.3 % Track quality 100.0 % Test CRC B427C681 Copy CRC B427C681 Track not present in AccurateRip database Copy OK

Track 49

Filename F:\Documents and Settings\Jack\My Documents\My Music\49 - Ending.wav

Pre-gap length 0:00:01.45

Peak level 97.2 % Track quality 100.0 % Test CRC F17C651C Copy CRC F17C651C Accurately ripped (confidence 3) [63AAEABE] Copy OK

Track 50

Filename F:\Documents and Settings\Jack\My Documents\My Music\50 - Game Over.wav

Pre-gap length 0:00:01.45

Peak level 100.0 % Track quality 100.0 % Test CRC FD5ECFBD Copy CRC FD5ECFBD Track not present in AccurateRip database Copy OK

Track 51

Filename F:\Documents and Settings\Jack\My Documents\My Music\51 - Megaman 6 - Opening.wav

Pre-gap length 0:00:02.45

Peak level 98.8 % Track quality 100.0 % Test CRC 4643000A Copy CRC 4643000A Accurately ripped (confidence 3) [451438B9] Copy OK

Track 52

Filename F:\Documents and Settings\Jack\My Documents\My Music\52 - SE.wav

Pre-gap length 0:00:02.45

Peak level 39.8 % Track quality 99.9 % Test CRC EC3CC6FC Copy CRC EC3CC6FC Accurately ripped (confidence 3) [41302E05] Copy OK

47 track(s) accurately ripped 5 track(s) not present in the AccurateRip database

Some tracks could not be verified as accurate

No errors occurred

End of status report
 
REM GENRE GameREM DATE 2002REM DISCID E30E6E34REM COMMENT "ExactAudioCopy v0.99pb4"PERFORMER "Capcom"TITLE "Capcom Music Generation Family Computer Soundtracks Rockman 1~6 Disc 3"FILE "01 - Opening.wav" WAVE TRACK 01 AUDIO TITLE "Opening" PERFORMER "Mega Man 5" INDEX 01 00:00:00 TRACK 02 AUDIO TITLE "Title" PERFORMER "Mega Man 5" INDEX 00 00:35:71FILE "02 - Title.wav" WAVE INDEX 01 00:00:00 TRACK 03 AUDIO TITLE "Pass Word" PERFORMER "Mega Man 5" INDEX 00 00:51:06FILE "03 - Pass Word.wav" WAVE INDEX 01 00:00:00 TRACK 04 AUDIO TITLE "Stage Select" PERFORMER "Mega Man 5" INDEX 00 00:24:09FILE "04 - Stage Select.wav" WAVE INDEX 01 00:00:00 TRACK 05 AUDIO TITLE "Game Start" PERFORMER "Mega Man 5" INDEX 00 00:19:71FILE "05 - Game Start.wav" WAVE INDEX 01 00:00:00 TRACK 06 AUDIO TITLE "Gravityman Stage" PERFORMER "Mega Man 5" INDEX 00 00:06:45FILE "06 - Gravityman Stage.wav" WAVE INDEX 01 00:00:00 TRACK 07 AUDIO TITLE "Waveman Stage" PERFORMER "Mega Man 5" INDEX 00 02:34:27FILE "07 - Waveman Stage.wav" WAVE INDEX 01 00:00:00 TRACK 08 AUDIO TITLE "Stoneman Stage" PERFORMER "Mega Man 5" INDEX 00 01:58:08FILE "08 - Stoneman Stage.wav" WAVE INDEX 01 00:00:00 TRACK 09 AUDIO TITLE "Gyroman Stage" PERFORMER "Mega Man 5" INDEX 00 01:23:51FILE "09 - Gyroman Stage.wav" WAVE INDEX 01 00:00:00 TRACK 10 AUDIO TITLE "Starman Stage" PERFORMER "Mega Man 5" INDEX 00 01:34:18FILE "10 - Starman Stage.wav" WAVE INDEX 01 00:00:00 TRACK 11 AUDIO TITLE "Chargeman Stage" PERFORMER "Mega Man 5" INDEX 00 01:39:13FILE "11 - Chargeman Stage.wav" WAVE INDEX 01 00:00:00 TRACK 12 AUDIO TITLE "Napalmman Stage" PERFORMER "Mega Man 5" INDEX 00 02:16:43FILE "12 - Napalmman Stage.wav" WAVE INDEX 01 00:00:00 TRACK 13 AUDIO TITLE "Crystalman Stage" PERFORMER "Mega Man 5" INDEX 00 01:40:25FILE "13 - Crystalman Stage.wav" WAVE INDEX 01 00:00:00 TRACK 14 AUDIO TITLE "Boss" PERFORMER "Mega Man 5" INDEX 00 01:36:05FILE "14 - Boss.wav" WAVE INDEX 01 00:00:00 TRACK 15 AUDIO TITLE "Stage Clear" PERFORMER "Mega Man 5" INDEX 00 01:14:56FILE "15 - Stage Clear.wav" WAVE INDEX 01 00:00:00 TRACK 16 AUDIO TITLE "Get A Weapon" PERFORMER "Mega Man 5" INDEX 00 00:04:10FILE "16 - Get A Weapon.wav" WAVE INDEX 01 00:00:00 TRACK 17 AUDIO TITLE "Darkman Stage Map" PERFORMER "Mega Man 5" INDEX 00 00:10:53FILE "17 - Darkman Stage Map.wav" WAVE INDEX 01 00:00:00 TRACK 18 AUDIO TITLE "Darkman Stage" PERFORMER "Mega Man 5" INDEX 00 00:08:13FILE "18 - Darkman Stage.wav" WAVE INDEX 01 00:00:00 TRACK 19 AUDIO TITLE "Dr.Wily Stage Map" PERFORMER "Mega Man 5" INDEX 00 01:56:00FILE "19 - Dr.Wily Stage Map.wav" WAVE INDEX 01 00:00:00 TRACK 20 AUDIO TITLE "Dr.Wily Stage" PERFORMER "Mega Man 5" INDEX 00 00:07:71FILE "20 - Dr.Wily Stage.wav" WAVE INDEX 01 00:00:00 TRACK 21 AUDIO TITLE "Last Boss" PERFORMER "Mega Man 5" INDEX 00 02:23:32FILE "21 - Last Boss.wav" WAVE INDEX 01 00:00:00 TRACK 22 AUDIO TITLE "All Stage Clear" PERFORMER "Mega Man 5" INDEX 00 02:11:64FILE "22 - All Stage Clear.wav" WAVE INDEX 01 00:00:00 TRACK 23 AUDIO TITLE "Escape" PERFORMER "Mega Man 5" INDEX 00 00:07:04FILE "23 - Escape.wav" WAVE INDEX 01 00:00:00 TRACK 24 AUDIO TITLE "Ending" PERFORMER "Mega Man 5" INDEX 00 00:23:01FILE "24 - Ending.wav" WAVE INDEX 01 00:00:00 TRACK 25 AUDIO TITLE "Game Over" PERFORMER "Mega Man 5" INDEX 00 02:36:21FILE "25 - Game Over.wav" WAVE INDEX 01 00:00:00 TRACK 26 AUDIO TITLE "SE" PERFORMER "Mega Man 5" INDEX 00 00:04:67FILE "26 - SE.wav" WAVE INDEX 01 00:00:00 TRACK 27 AUDIO TITLE "Capcom Logo" PERFORMER "Mega Man 6" INDEX 00 01:30:55FILE "27 - Capcom Logo.wav" WAVE INDEX 01 00:00:00 TRACK 28 AUDIO TITLE "Title" PERFORMER "Mega Man 6" INDEX 00 00:37:62FILE "28 - Title.wav" WAVE INDEX 01 00:00:00 TRACK 29 AUDIO TITLE "Pass Word" PERFORMER "Mega Man 6" INDEX 00 00:23:23FILE "29 - Pass Word.wav" WAVE INDEX 01 00:00:00 TRACK 30 AUDIO TITLE "Stage Select" PERFORMER "Mega Man 6" INDEX 00 00:28:42FILE "30 - Stage Select.wav" WAVE INDEX 01 00:00:00 TRACK 31 AUDIO TITLE "Game Start" PERFORMER "Mega Man 6" INDEX 00 00:30:35FILE "31 - Game Start.wav" WAVE INDEX 01 00:00:00 TRACK 32 AUDIO TITLE "Blizzardman Stage" PERFORMER "Mega Man 6" INDEX 00 00:06:54FILE "32 - Blizzardman Stage.wav" WAVE INDEX 01 00:00:00 TRACK 33 AUDIO TITLE "Centaurman Stage" PERFORMER "Mega Man 6" INDEX 00 01:44:50FILE "33 - Centaurman Stage.wav" WAVE INDEX 01 00:00:00 TRACK 34 AUDIO TITLE "Flameman Stage" PERFORMER "Mega Man 6" INDEX 00 01:26:25FILE "34 - Flameman Stage.wav" WAVE INDEX 01 00:00:00 TRACK 35 AUDIO TITLE "Knightman Stage" PERFORMER "Mega Man 6" INDEX 00 01:56:43FILE "35 - Knightman Stage.wav" WAVE INDEX 01 00:00:00 TRACK 36 AUDIO TITLE "Plantman Stage" PERFORMER "Mega Man 6" INDEX 00 02:08:19FILE "36 - Plantman Stage.wav" WAVE INDEX 01 00:00:00 TRACK 37 AUDIO TITLE "Tomahawkman Stage" PERFORMER "Mega Man 6" INDEX 00 01:33:32FILE "37 - Tomahawkman Stage.wav" WAVE INDEX 01 00:00:00 TRACK 38 AUDIO TITLE "Windman Stage" PERFORMER "Mega Man 6" INDEX 00 01:54:64FILE "38 - Windman Stage.wav" WAVE INDEX 01 00:00:00 TRACK 39 AUDIO TITLE "Yamatoman Stage" PERFORMER "Mega Man 6" INDEX 00 02:01:25FILE "39 - Yamatoman Stage.wav" WAVE INDEX 01 00:00:00 TRACK 40 AUDIO TITLE "Boss" PERFORMER "Mega Man 6" INDEX 00 01:46:66FILE "40 - Boss.wav" WAVE INDEX 01 00:00:00 TRACK 41 AUDIO TITLE "Stage Clear" PERFORMER "Mega Man 6" INDEX 00 00:56:71FILE "41 - Stage Clear.wav" WAVE INDEX 01 00:00:00 TRACK 42 AUDIO TITLE "Get A Weapon" PERFORMER "Mega Man 6" INDEX 00 00:04:11FILE "42 - Get A Weapon.wav" WAVE INDEX 01 00:00:00 TRACK 43 AUDIO TITLE "Mr.X Stage Map" PERFORMER "Mega Man 6" INDEX 00 00:20:24FILE "43 - Mr.X Stage Map.wav" WAVE INDEX 01 00:00:00 TRACK 44 AUDIO TITLE "Mr.X Stage" PERFORMER "Mega Man 6" INDEX 00 00:07:74FILE "44 - Mr.X Stage.wav" WAVE INDEX 01 00:00:00 TRACK 45 AUDIO TITLE "Dr.Wily Stage Map" PERFORMER "Mega Man 6" INDEX 00 01:35:00FILE "45 - Dr.Wily Stage Map.wav" WAVE INDEX 01 00:00:00 TRACK 46 AUDIO TITLE "Dr.Wily Stage" PERFORMER "Mega Man 6" INDEX 00 00:07:72FILE "46 - Dr.Wily Stage.wav" WAVE INDEX 01 00:00:00 TRACK 47 AUDIO TITLE "Last Boss" PERFORMER "Mega Man 6" INDEX 00 01:41:55FILE "47 - Last Boss.wav" WAVE INDEX 01 00:00:00 TRACK 48 AUDIO TITLE "All Stage Clear" PERFORMER "Mega Man 6" INDEX 00 00:51:54FILE "48 - All Stage Clear.wav" WAVE INDEX 01 00:00:00 TRACK 49 AUDIO TITLE "Ending" PERFORMER "Mega Man 6" INDEX 00 00:05:56FILE "49 - Ending.wav" WAVE INDEX 01 00:00:00 TRACK 50 AUDIO TITLE "Game Over" PERFORMER "Mega Man 6" INDEX 00 04:45:57FILE "50 - Game Over.wav" WAVE INDEX 01 00:00:00 TRACK 51 AUDIO TITLE "Megaman 6 - Opening" PERFORMER "Mega Man 6" INDEX 00 00:04:67FILE "51 - Megaman 6 - Opening.wav" WAVE INDEX 01 00:00:00 TRACK 52 AUDIO TITLE "SE" PERFORMER "Mega Man 6" INDEX 00 00:39:35FILE "52 - SE.wav" WAVE INDEX 01 00:00:00
DISC1 01~18 from Mega Man
Composition & SE: Manami Matsumae (Chanchancoran Manami)

DISC1 19~45 from Mega Man 2
Composition & SE: Takashi Tateishi (Ogeretsu Kun) (except 25 by Takashi Tateishi & Manami Matsumae [Manami Ietel])

DISC2 01~25 from Mega Man 3
Composition & SE: Yasuaki Fujita (Bunbun)
except 06, 08, 24 (part) by Harumi Fujita

DISC2 26~55 from Mega Man 4
Composition & SE: Minae Fujii (Ojalin)

DISC3 01~26 from Mega Man 5
Composition & SE: Mari Yamaguchi (Mari) (except 15 [same as Mega Man 4])
Yoko Shimomura (unknown contribution)

DISC3 27~52 from Mega Man 6
Composition & SE: Yuko Takehara (Yuko) (except 41 [same as Mega Man 4])

NOTE1: Disc 3, Track 27 ("Capcom Logo") contains two tracks: "Capcom Logo" and "Opening"

NOTE2: Yoshihiro Sakaguchi is confirmed as being the sound programmer for both of the games he was involved with (Rockman 1+2)

NOTE3: Yasuaki Fujita's official workpage doesn't list Rockman 4, meaning that he did not actively contribute to the game

NOTE4: For "Airman Stage" (Disc 1, Track 25), Matsumae only composed bars 18-26; The rest is Tateishi's


Трекер:  [ 03-Фев-2012 20:17 ]

  

Скачать .torrent

Размер .torrent файла 33 KB


Размер: 968 MB
Хэш (hash) релиза: bd78966c6b266e56f2a9a175670ce1059ef754b9

bot

Топик был перенесен в форум Саундтреки к аниме (lossless)

Перенес Galfimbul

Хотите добавить комментарий к записи скачать торрент Capcom Music Generation Family Computer Soundtracks Rockman 1~6

!Обратная связь