OpenLoadHD | Alle unter einem Dach | Red Dwarf

Скачать через торрент музыку Capcom Music Generation Rockman X1~6 - 2003, FLAC бесплатно без регистрации torrent

Статистика раздачи
Размер:  2.06 GB   |    Зарегистрирован:  6 лет 5 месяцев   |    .torrent скачан:  56 раз   |   
Раздают:  1  
   
загрузка...
 
Автор Сообщение

Galfimbul

avatar Galfimbul


Capcom Music Generation Rockman X1~6
Sega Saturn, SNES, Sony PlayStation
Жанр: Score
Год выпуска диска: 2003
Издатель (лейбл): Suleputer
Номер по каталогу: CPCA-1076~80
Аудиокодек: FLAC (*.flac)
Тип рипа: tracks+.cue
Битрейт аудио: lossless
Продолжительность: 5:23:56
Источник: скачано с
сайт-источник/ник/другое: What.CD (JudgeIto)
Наличие сканов в содержимом раздачи: да
01 CAPCOM LOGO 0:07
02 TITLE 0:27
03 PASS WORD 1:26
04 OPENING STAGE 1:40
05 VAVA 1 0:27
06 VAVA 2 1:09
07 ZERO 0:49
08 DEMO 1:16
09 STAGE SELECT 1 1:08
10 STAGE START 0:09
11 LAUNCHER OCTOPULD STAGE 1:53
12 ICY PENGUIGO STAGE 1:37
13 BURNIN' NOUMANDER STAGE 2:09
14 BOOMER KUWANGER STAGE 2:30
15 STING CHAMELEAO STAGE 1:22
16 SPARK MANDRILLER STAGE 1:55
17 STORM EAGLEED STAGE 1:24
18 ARMOR ARMARGE STAGE 2:06
19 BOSS 1 0:25
20 BOSS 2 1:12
21 STAGE CLEAR 0:09
22 GET A WEAPON 0:24
23 STAGE SELECT 2 0:49
24 SIGMA STAGE 1 2:05
25 SIGMA STAGE 2 2:19
26 SIGMA STAGE 3 1:54
27 SIGMA STAGE 4 0:55
28 SIGMA 1st 0:50
29 SIGMA REBIRTH 0:10
30 SIGMA 2nd 2:02
31 Dr.RIGHT 0:45
32 ENDING 1:48
33 CAST ROLL 1:47
34 STAFF ROLL 1:58
35 SE 5:23
36 CAPCOM LOGO 0:06
37 OPENING 1:00
38 TITLE 0:19
39 PASS WORD 0:23
40 OPENING STAGE 1:25
41 ANOTHER BOSS 1 0:17
42 ANOTHER BOSS 2 0:38
43 DEMO 0:31
44 STAGE SELECT 1 0:25
45 STAGE START 0:08
46 WIRE HETIMARL STAGE 2:01
47 METAMOR MOTHMEANOS STAGE 1:50
48 FLAME STAGGER STAGE 1:34
49 MAGNE HYAKULEGGER STAGE 1:36
50 SONIC OSTREAGUE STAGE 1:34
51 BUBBLY CRABLOS STAGE 1:52
52 WHEEL ALLIGATES STAGE 1:07
53 CRISTAR MYMINE STAGE 1:39
54 BOSS 1 0:17
55 BOSS 2 1:02
56 STAGE CLEAR 0:07
57 STAGE SELECT 2 1:05
58 COUNTER HUNTER STAGE 1 1:06
59 COUNTER HUNTER STAGE 2 1:03
60 ZERO 0:38
61 SIGMA 1st 0:34
62 SIGMA 2nd 0:50
63 Dr.RIGHT 0:27
64 ENDING 1:53
65 STAFF ROLL 1:15
 
Exact Audio Copy V0.99 prebeta 4 from 23. January 2008

EAC extraction logfile from 10. February 2009, 20:30

Capcom / Rockman X1-6 Disc 1

Used drive : _NEC DVD+RW ND-2100AD Adapter: 0 ID: 1

Read mode : SecureUtilize accurate stream : YesDefeat audio cache : YesMake use of C2 pointers : No

Read offset correction : 48Overread into Lead-In and Lead-Out : NoFill up missing offset samples with silence : YesDelete leading and trailing silent blocks : NoNull samples used in CRC calculations : YesUsed interface : Native Win32 interface for Win NT & 2000Gap handling : Appended to previous track

Used output format : User Defined EncoderSelected bitrate : 128 kBit/sQuality : HighAdd ID3 tag : NoCommand line compressor : F:\Program Files\FLAC\flac.exeAdditional command line options : -V -8 -T "artist=%a" -T "title=%t" -T "album=%g" -T "date=%y" -T "tracknumber=%n" -T "genre=%m" %s

TOC of the extracted CD

Track | Start | Length | Start sector | End sector --------------------------------------------------------- 1 | 0:00.00 | 0:06.40 | 0 | 489 2 | 0:06.40 | 0:27.15 | 490 | 2529 3 | 0:33.55 | 1:25.47 | 2530 | 8951 4 | 1:59.27 | 1:40.03 | 8952 | 16454 5 | 3:39.30 | 0:26.40 | 16455 | 18444 6 | 4:05.70 | 1:09.22 | 18445 | 23641 7 | 5:15.17 | 0:48.68 | 23642 | 27309 8 | 6:04.10 | 1:16.10 | 27310 | 33019 9 | 7:20.20 | 1:08.27 | 33020 | 38146 10 | 8:28.47 | 0:09.20 | 38147 | 38841 11 | 8:37.67 | 1:53.33 | 38842 | 47349 12 | 10:31.25 | 1:37.25 | 47350 | 54649 13 | 12:08.50 | 2:08.72 | 54650 | 64321 14 | 14:17.47 | 2:29.45 | 64322 | 75541 15 | 16:47.17 | 1:21.60 | 75542 | 81676 16 | 18:09.02 | 1:55.08 | 81677 | 90309 17 | 20:04.10 | 1:23.47 | 90310 | 96581 18 | 21:27.57 | 2:06.30 | 96582 | 106061 19 | 23:34.12 | 0:25.08 | 106062 | 107944 20 | 23:59.20 | 1:12.30 | 107945 | 113374 21 | 25:11.50 | 0:08.67 | 113375 | 114041 22 | 25:20.42 | 0:24.13 | 114042 | 115854 23 | 25:44.55 | 0:48.42 | 115855 | 119496 24 | 26:33.22 | 2:05.10 | 119497 | 128881 25 | 28:38.32 | 2:18.65 | 128882 | 139296 26 | 30:57.22 | 1:53.53 | 139297 | 147824 27 | 32:51.00 | 0:55.05 | 147825 | 151954 28 | 33:46.05 | 0:50.00 | 151955 | 155704 29 | 34:36.05 | 0:10.02 | 155705 | 156456 30 | 34:46.07 | 2:01.50 | 156457 | 165581 31 | 36:47.57 | 0:44.50 | 165582 | 168931 32 | 37:32.32 | 1:48.08 | 168932 | 177039 33 | 39:20.40 | 1:47.05 | 177040 | 185069 34 | 41:07.45 | 1:57.67 | 185070 | 193911 35 | 43:05.37 | 5:23.08 | 193912 | 218144 36 | 48:28.45 | 0:05.55 | 218145 | 218574 37 | 48:34.25 | 0:59.45 | 218575 | 223044 38 | 49:33.70 | 0:18.67 | 223045 | 224461 39 | 49:52.62 | 0:23.13 | 224462 | 226199 40 | 50:16.00 | 1:24.47 | 226200 | 232546 41 | 51:40.47 | 0:16.50 | 232547 | 233796 42 | 51:57.22 | 0:37.43 | 233797 | 236614 43 | 52:34.65 | 0:31.12 | 236615 | 238951 44 | 53:06.02 | 0:25.15 | 238952 | 240841 45 | 53:31.17 | 0:08.10 | 240842 | 241451 46 | 53:39.27 | 2:01.18 | 241452 | 250544 47 | 55:40.45 | 1:50.05 | 250545 | 258799 48 | 57:30.50 | 1:33.60 | 258800 | 265834 49 | 59:04.35 | 1:35.60 | 265835 | 273019 50 | 60:40.20 | 1:33.52 | 273020 | 280046 51 | 62:13.72 | 1:52.13 | 280047 | 288459 52 | 64:06.10 | 1:06.70 | 288460 | 293479 53 | 65:13.05 | 1:38.40 | 293480 | 300869 54 | 66:51.45 | 0:17.00 | 300870 | 302144 55 | 67:08.45 | 1:01.70 | 302145 | 306789 56 | 68:10.40 | 0:07.25 | 306790 | 307339 57 | 68:17.65 | 1:05.27 | 307340 | 312241 58 | 69:23.17 | 1:05.55 | 312242 | 317171 59 | 70:28.72 | 1:02.63 | 317172 | 321884 60 | 71:31.60 | 0:38.37 | 321885 | 324771 61 | 72:10.22 | 0:34.13 | 324772 | 327334 62 | 72:44.35 | 0:49.50 | 327335 | 331059 63 | 73:34.10 | 0:27.32 | 331060 | 333116 64 | 74:01.42 | 1:52.40 | 333117 | 341556 65 | 75:54.07 | 1:15.15 | 341557 | 347196

Track 1

Filename F:\Documents and Settings\Jack\My Documents\My Music\01 - Capcom Logo.wav

Pre-gap length 0:00:02.00

Peak level 95.1 % Track quality 100.0 % Test CRC A54B6793 Copy CRC A54B6793 Track not present in AccurateRip database Copy OK

Track 2

Filename F:\Documents and Settings\Jack\My Documents\My Music\02 - Title.wav

Pre-gap length 0:00:00.50

Peak level 100.0 % Track quality 100.0 % Test CRC ECC52459 Copy CRC ECC52459 Accurately ripped (confidence 6) [7D545986] Copy OK

Track 3

Filename F:\Documents and Settings\Jack\My Documents\My Music\03 - Pass Word.wav

Pre-gap length 0:00:01.58

Peak level 89.4 % Track quality 100.0 % Test CRC 17E507A2 Copy CRC 17E507A2 Accurately ripped (confidence 5) [3352DC9B] Copy OK

Track 4

Filename F:\Documents and Settings\Jack\My Documents\My Music\04 - Opening Stage.wav

Pre-gap length 0:00:01.60

Peak level 81.2 % Track quality 100.0 % Test CRC F6320EAB Copy CRC F6320EAB Accurately ripped (confidence 5) [483CD67B] Copy OK

Track 5

Filename F:\Documents and Settings\Jack\My Documents\My Music\05 - Vava 1.wav

Pre-gap length 0:00:01.55

Peak level 99.0 % Track quality 100.0 % Test CRC 58D33748 Copy CRC 58D33748 Accurately ripped (confidence 5) [673A5DB4] Copy OK

Track 6

Filename F:\Documents and Settings\Jack\My Documents\My Music\06 - Vava 2.wav

Pre-gap length 0:00:01.58

Peak level 88.0 % Track quality 100.0 % Test CRC 8F17C412 Copy CRC 8F17C412 Accurately ripped (confidence 5) [6218AD41] Copy OK

Track 7

Filename F:\Documents and Settings\Jack\My Documents\My Music\07 - Zero.wav

Pre-gap length 0:00:01.62

Peak level 91.2 % Track quality 100.0 % Test CRC 0E13C176 Copy CRC 0E13C176 Accurately ripped (confidence 5) [DE1FBF41] Copy OK

Track 8

Filename F:\Documents and Settings\Jack\My Documents\My Music\08 - Demo.wav

Pre-gap length 0:00:01.70

Peak level 100.0 % Track quality 100.0 % Test CRC 707FB4CE Copy CRC 707FB4CE Accurately ripped (confidence 5) [A3F45E6E] Copy OK

Track 9

Filename F:\Documents and Settings\Jack\My Documents\My Music\09 - Stage Select 1.wav

Pre-gap length 0:00:01.60

Peak level 88.1 % Track quality 100.0 % Test CRC 99387C64 Copy CRC 99387C64 Accurately ripped (confidence 5) [876B1919] Copy OK

Track 10

Filename F:\Documents and Settings\Jack\My Documents\My Music\10 - Stage Start.wav

Pre-gap length 0:00:01.57

Peak level 100.0 % Track quality 98.8 % Test CRC 15C2B3E0 Copy CRC 15C2B3E0 Accurately ripped (confidence 5) [74EF210B] Copy OK

Track 11

Filename F:\Documents and Settings\Jack\My Documents\My Music\11 - Launcher Octopuld Stage.wav

Pre-gap length 0:00:01.60

Peak level 100.0 % Track quality 100.0 % Test CRC 0F7EBC68 Copy CRC 0F7EBC68 Accurately ripped (confidence 5) [44FD476C] Copy OK

Track 12

Filename F:\Documents and Settings\Jack\My Documents\My Music\12 - Icy Penguigo Stage.wav

Pre-gap length 0:00:01.60

Peak level 91.2 % Track quality 100.0 % Test CRC 240E6C3F Copy CRC 240E6C3F Accurately ripped (confidence 5) [677325D2] Copy OK

Track 13

Filename F:\Documents and Settings\Jack\My Documents\My Music\13 - Burnin' Noumander Stage.wav

Pre-gap length 0:00:01.65

Peak level 88.1 % Track quality 100.0 % Test CRC 03D27948 Copy CRC 03D27948 Accurately ripped (confidence 5) [B5350833] Copy OK

Track 14

Filename F:\Documents and Settings\Jack\My Documents\My Music\14 - Boomer Kuwanger Stage.wav

Pre-gap length 0:00:01.57

Peak level 100.0 % Track quality 100.0 % Test CRC E117AAD6 Copy CRC E117AAD6 Accurately ripped (confidence 5) [4606C153] Copy OK

Track 15

Filename F:\Documents and Settings\Jack\My Documents\My Music\15 - Sting Chameleao Stage.wav

Pre-gap length 0:00:01.45

Peak level 100.0 % Track quality 100.0 % Test CRC D3D23397 Copy CRC D3D23397 Accurately ripped (confidence 5) [18D6F501] Copy OK

Track 16

Filename F:\Documents and Settings\Jack\My Documents\My Music\16 - Spark Mandriller Stage.wav

Pre-gap length 0:00:01.57

Peak level 88.0 % Track quality 100.0 % Test CRC CD27D2A8 Copy CRC CD27D2A8 Accurately ripped (confidence 5) [53C973AD] Copy OK

Track 17

Filename F:\Documents and Settings\Jack\My Documents\My Music\17 - Storm Eagleed Stage.wav

Pre-gap length 0:00:01.55

Peak level 88.1 % Track quality 100.0 % Test CRC 51CF4E8B Copy CRC 51CF4E8B Accurately ripped (confidence 5) [E52575AA] Copy OK

Track 18

Filename F:\Documents and Settings\Jack\My Documents\My Music\18 - Armor Armarge Stage.wav

Pre-gap length 0:00:01.55

Peak level 88.1 % Track quality 100.0 % Test CRC 62B07303 Copy CRC 62B07303 Accurately ripped (confidence 5) [5F4F8FDD] Copy OK

Track 19

Filename F:\Documents and Settings\Jack\My Documents\My Music\19 - Boss 1.wav

Pre-gap length 0:00:01.57

Peak level 98.8 % Track quality 100.0 % Test CRC C964C8A9 Copy CRC C964C8A9 Accurately ripped (confidence 5) [47A5FC01] Copy OK

Track 20

Filename F:\Documents and Settings\Jack\My Documents\My Music\20 - Boss 2.wav

Pre-gap length 0:00:01.55

Peak level 93.2 % Track quality 99.8 % Test CRC DBE6BDC1 Copy CRC DBE6BDC1 Accurately ripped (confidence 5) [59E4A168] Copy OK

Track 21

Filename F:\Documents and Settings\Jack\My Documents\My Music\21 - Stage Clear.wav

Pre-gap length 0:00:01.60

Peak level 92.2 % Track quality 100.0 % Test CRC 506BB52A Copy CRC 506BB52A Accurately ripped (confidence 5) [D66264BF] Copy OK

Track 22

Filename F:\Documents and Settings\Jack\My Documents\My Music\22 - Get a Weapon.wav

Pre-gap length 0:00:01.47

Peak level 87.0 % Track quality 100.0 % Test CRC CF67CFA6 Copy CRC CF67CFA6 Accurately ripped (confidence 5) [5EAB6569] Copy OK

Track 23

Filename F:\Documents and Settings\Jack\My Documents\My Music\23 - Stage Select 2.wav

Pre-gap length 0:00:01.53

Peak level 98.8 % Track quality 100.0 % Test CRC 3C44F111 Copy CRC 3C44F111 Accurately ripped (confidence 5) [0D68F3D5] Copy OK

Track 24

Filename F:\Documents and Settings\Jack\My Documents\My Music\24 - Sigma Stage 1.wav

Pre-gap length 0:00:01.57

Peak level 100.0 % Track quality 100.0 % Test CRC 81AC0AC1 Copy CRC 81AC0AC1 Accurately ripped (confidence 5) [71F10F54] Copy OK

Track 25

Filename F:\Documents and Settings\Jack\My Documents\My Music\25 - Sigma Stage 2.wav

Pre-gap length 0:00:01.57

Peak level 88.1 % Track quality 100.0 % Test CRC F865BE25 Copy CRC F865BE25 Accurately ripped (confidence 5) [09FFD057] Copy OK

Track 26

Filename F:\Documents and Settings\Jack\My Documents\My Music\26 - Sigma Stage 3.wav

Pre-gap length 0:00:01.55

Peak level 89.1 % Track quality 99.9 % Test CRC FBCE6CA9 Copy CRC FBCE6CA9 Accurately ripped (confidence 5) [CB52265C] Copy OK

Track 27

Filename F:\Documents and Settings\Jack\My Documents\My Music\27 - Sigma Stage 4.wav

Pre-gap length 0:00:01.48

Peak level 87.9 % Track quality 100.0 % Test CRC 349550F1 Copy CRC 349550F1 Accurately ripped (confidence 5) [F19FF5EF] Copy OK

Track 28

Filename F:\Documents and Settings\Jack\My Documents\My Music\28 - Sigma 1st.wav

Pre-gap length 0:00:01.58

Peak level 84.1 % Track quality 100.0 % Test CRC 4F2E66AB Copy CRC 4F2E66AB Accurately ripped (confidence 5) [264AEFD2] Copy OK

Track 29

Filename F:\Documents and Settings\Jack\My Documents\My Music\29 - Sigma Rebirth.wav

Pre-gap length 0:00:01.58

Peak level 100.0 % Track quality 100.0 % Test CRC 844A4170 Copy CRC 844A4170 Accurately ripped (confidence 5) [1E1F19E2] Copy OK

Track 30

Filename F:\Documents and Settings\Jack\My Documents\My Music\30 - Sigma 2nd.wav

Pre-gap length 0:00:01.47

Peak level 84.1 % Track quality 99.9 % Test CRC 3299C9E9 Copy CRC 3299C9E9 Accurately ripped (confidence 5) [4971CB2A] Copy OK

Track 31

Filename F:\Documents and Settings\Jack\My Documents\My Music\31 - Dr. Right.wav

Pre-gap length 0:00:01.57

Peak level 94.0 % Track quality 100.0 % Test CRC 8DAD1FA0 Copy CRC 8DAD1FA0 Accurately ripped (confidence 5) [159652C5] Copy OK

Track 32

Filename F:\Documents and Settings\Jack\My Documents\My Music\32 - Ending.wav

Pre-gap length 0:00:01.57

Peak level 100.0 % Track quality 100.0 % Test CRC 452F9B86 Copy CRC 452F9B86 Accurately ripped (confidence 5) [7084735C] Copy OK

Track 33

Filename F:\Documents and Settings\Jack\My Documents\My Music\33 - Cast Roll.wav

Pre-gap length 0:00:01.48

Peak level 92.1 % Track quality 99.8 % Test CRC E1F945F2 Copy CRC E1F945F2 Accurately ripped (confidence 5) [FB26093D] Copy OK

Track 34

Filename F:\Documents and Settings\Jack\My Documents\My Music\34 - Staff Roll.wav

Pre-gap length 0:00:01.58

Peak level 100.0 % Track quality 99.9 % Test CRC 1931CB09 Copy CRC 1931CB09 Accurately ripped (confidence 5) [DC5FEB96] Copy OK

Track 35

Filename F:\Documents and Settings\Jack\My Documents\My Music\35 - SE.wav

Pre-gap length 0:00:01.47

Peak level 98.8 % Track quality 99.9 % Test CRC 24680769 Copy CRC 24680769 Accurately ripped (confidence 5) [4E1B3FAB] Copy OK

Track 36

Filename F:\Documents and Settings\Jack\My Documents\My Music\36 - Capcom Logo.wav

Pre-gap length 0:00:04.58

Peak level 100.0 % Track quality 100.0 % Test CRC 7144BA0A Copy CRC 7144BA0A Track not present in AccurateRip database Copy OK

Track 37

Filename F:\Documents and Settings\Jack\My Documents\My Music\37 - Opening.wav

Pre-gap length 0:00:01.48

Peak level 100.0 % Track quality 100.0 % Test CRC F15B4562 Copy CRC F15B4562 Accurately ripped (confidence 5) [D8ABD034] Copy OK

Track 38

Filename F:\Documents and Settings\Jack\My Documents\My Music\38 - Title.wav

Pre-gap length 0:00:01.50

Peak level 88.1 % Track quality 100.0 % Test CRC DE9F1753 Copy CRC DE9F1753 Accurately ripped (confidence 5) [0A3950A0] Copy OK

Track 39

Filename F:\Documents and Settings\Jack\My Documents\My Music\39 - Pass Word.wav

Pre-gap length 0:00:01.60

Peak level 88.0 % Track quality 100.0 % Test CRC 300233D7 Copy CRC 300233D7 Accurately ripped (confidence 5) [D3063EFE] Copy OK

Track 40

Filename F:\Documents and Settings\Jack\My Documents\My Music\40 - Opening Stage.wav

Pre-gap length 0:00:01.48

Peak level 97.7 % Track quality 100.0 % Test CRC DEACF146 Copy CRC DEACF146 Accurately ripped (confidence 5) [0FF1A00C] Copy OK

Track 41

Filename F:\Documents and Settings\Jack\My Documents\My Music\41 - Another Boss 1.wav

Pre-gap length 0:00:01.60

Peak level 98.8 % Track quality 100.0 % Test CRC AABEA3BB Copy CRC AABEA3BB Accurately ripped (confidence 5) [13D19650] Copy OK

Track 42

Filename F:\Documents and Settings\Jack\My Documents\My Music\42 - Another Boss 2.wav

Pre-gap length 0:00:01.57

Peak level 92.2 % Track quality 100.0 % Test CRC C2D6C468 Copy CRC C2D6C468 Accurately ripped (confidence 5) [CF1D1414] Copy OK

Track 43

Filename F:\Documents and Settings\Jack\My Documents\My Music\43 - Demo.wav

Pre-gap length 0:00:01.55

Peak level 79.1 % Track quality 100.0 % Test CRC 5BA3DCDF Copy CRC 5BA3DCDF Accurately ripped (confidence 5) [17BE19DB] Copy OK

Track 44

Filename F:\Documents and Settings\Jack\My Documents\My Music\44 - Stage Select 1.wav

Pre-gap length 0:00:01.57

Peak level 92.2 % Track quality 100.0 % Test CRC B04B7735 Copy CRC B04B7735 Accurately ripped (confidence 5) [08F335C4] Copy OK

Track 45

Filename F:\Documents and Settings\Jack\My Documents\My Music\45 - Stage Start.wav

Pre-gap length 0:00:01.52

Peak level 100.0 % Track quality 100.0 % Test CRC ECFB7BF6 Copy CRC ECFB7BF6 Accurately ripped (confidence 5) [CA3B2307] Copy OK

Track 46

Filename F:\Documents and Settings\Jack\My Documents\My Music\46 - Wire Hetimarl Stage.wav

Pre-gap length 0:00:01.47

Peak level 77.6 % Track quality 100.0 % Test CRC 5B6F294F Copy CRC 5B6F294F Accurately ripped (confidence 5) [D82B90F7] Copy OK

Track 47

Filename F:\Documents and Settings\Jack\My Documents\My Music\47 - Metamor Mothmeanos Stage.wav

Pre-gap length 0:00:01.53

Peak level 96.6 % Track quality 100.0 % Test CRC 28216617 Copy CRC 28216617 Accurately ripped (confidence 5) [D6BE46FE] Copy OK

Track 48

Filename F:\Documents and Settings\Jack\My Documents\My Music\48 - Flame Stagger Stage.wav

Pre-gap length 0:00:01.48

Peak level 100.0 % Track quality 100.0 % Test CRC C4EEA7AC Copy CRC C4EEA7AC Accurately ripped (confidence 5) [741BA3CA] Copy OK

Track 49

Filename F:\Documents and Settings\Jack\My Documents\My Music\49 - Magne Hyakulegger Stage.wav

Pre-gap length 0:00:01.60

Peak level 100.0 % Track quality 100.0 % Test CRC 2B0BB6FB Copy CRC 2B0BB6FB Accurately ripped (confidence 5) [A5D34BE9] Copy OK

Track 50

Filename F:\Documents and Settings\Jack\My Documents\My Music\50 - Sonic Ostreague Stage.wav

Pre-gap length 0:00:01.68

Peak level 100.0 % Track quality 100.0 % Test CRC 86EABEB8 Copy CRC 86EABEB8 Accurately ripped (confidence 5) [005D72F6] Copy OK

Track 51

Filename F:\Documents and Settings\Jack\My Documents\My Music\51 - Bubbly Crablos Stage.wav

Pre-gap length 0:00:01.72

Peak level 99.9 % Track quality 100.0 % Test CRC 01FC0AE4 Copy CRC 01FC0AE4 Accurately ripped (confidence 5) [27CAA6B0] Copy OK

Track 52

Filename F:\Documents and Settings\Jack\My Documents\My Music\52 - Wheel Alligates Stage.wav

Pre-gap length 0:00:01.63

Peak level 99.9 % Track quality 100.0 % Test CRC C34190F4 Copy CRC C34190F4 Accurately ripped (confidence 5) [960EB09E] Copy OK

Track 53

Filename F:\Documents and Settings\Jack\My Documents\My Music\53 - Cristar Mymine Stage.wav

Pre-gap length 0:00:01.63

Peak level 100.0 % Track quality 100.0 % Test CRC 92631B98 Copy CRC 92631B98 Accurately ripped (confidence 5) [AADE393B] Copy OK

Track 54

Filename F:\Documents and Settings\Jack\My Documents\My Music\54 - Boss 1.wav

Pre-gap length 0:00:02.00

Peak level 100.0 % Track quality 100.0 % Test CRC 55ADB88C Copy CRC 55ADB88C Accurately ripped (confidence 5) [27763084] Copy OK

Track 55

Filename F:\Documents and Settings\Jack\My Documents\My Music\55 - Boss 2.wav

Pre-gap length 0:00:01.68

Peak level 100.0 % Track quality 100.0 % Test CRC 7B0EB85D Copy CRC 7B0EB85D Accurately ripped (confidence 5) [4880EC95] Copy OK

Track 56

Filename F:\Documents and Settings\Jack\My Documents\My Music\56 - Stage Clear.wav

Pre-gap length 0:00:01.68

Peak level 100.0 % Track quality 98.5 % Test CRC 3A2B4A1A Copy CRC 3A2B4A1A Track not present in AccurateRip database Copy OK

Track 57

Filename F:\Documents and Settings\Jack\My Documents\My Music\57 - Stage Select 2.wav

Pre-gap length 0:00:01.55

Peak level 100.0 % Track quality 99.5 % Test CRC 9B7FB01C Copy CRC 9B7FB01C Accurately ripped (confidence 5) [F4760B5E] Copy OK

Track 58

Filename F:\Documents and Settings\Jack\My Documents\My Music\58 - Counter Hunter Stage 1.wav

Pre-gap length 0:00:01.67

Peak level 100.0 % Track quality 99.8 % Test CRC 7AB4C7E4 Copy CRC 7AB4C7E4 Accurately ripped (confidence 5) [690C82B4] Copy OK

Track 59

Filename F:\Documents and Settings\Jack\My Documents\My Music\59 - Counter Hunter Stage 2.wav

Pre-gap length 0:00:01.62

Peak level 100.0 % Track quality 100.0 % Test CRC 9CA8E465 Copy CRC 9CA8E465 Accurately ripped (confidence 5) [521DBA35] Copy OK

Track 60

Filename F:\Documents and Settings\Jack\My Documents\My Music\60 - Zero.wav

Pre-gap length 0:00:01.55

Peak level 100.0 % Track quality 99.7 % Test CRC 716F6B0D Copy CRC 716F6B0D Accurately ripped (confidence 5) [3FC8BAFA] Copy OK

Track 61

Filename F:\Documents and Settings\Jack\My Documents\My Music\61 - Sigma 1st.wav

Pre-gap length 0:00:01.65

Peak level 100.0 % Track quality 100.0 % Test CRC 59A5962F Copy CRC 59A5962F Accurately ripped (confidence 5) [2BB744C6] Copy OK

Track 62

Filename F:\Documents and Settings\Jack\My Documents\My Music\62 - Sigma 2nd.wav

Pre-gap length 0:00:01.60

Peak level 100.0 % Track quality 100.0 % Test CRC DDCC203E Copy CRC DDCC203E Accurately ripped (confidence 5) [4D241567] Copy OK

Track 63

Filename F:\Documents and Settings\Jack\My Documents\My Music\63 - Dr. Right.wav

Pre-gap length 0:00:01.48

Peak level 56.6 % Track quality 100.0 % Test CRC 5E1EE021 Copy CRC 5E1EE021 Accurately ripped (confidence 5) [E43F8847] Copy OK

Track 64

Filename F:\Documents and Settings\Jack\My Documents\My Music\64 - Ending.wav

Pre-gap length 0:00:01.65

Peak level 100.0 % Track quality 99.9 % Test CRC 106F0A33 Copy CRC 106F0A33 Accurately ripped (confidence 5) [20B14361] Copy OK

Track 65

Filename F:\Documents and Settings\Jack\My Documents\My Music\65 - Staff Roll.wav

Pre-gap length 0:00:01.47

Peak level 100.0 % Track quality 100.0 % Test CRC CA76DD37 Copy CRC CA76DD37 Accurately ripped (confidence 5) [E03EE6EC] Copy OK

62 track(s) accurately ripped 3 track(s) not present in the AccurateRip database

Some tracks could not be verified as accurate

No errors occurred

End of status report
 
REM GENRE SoundtrackREM DATE 2003REM DISCID 8D121541REM COMMENT "ExactAudioCopy v0.99pb4"PERFORMER "Capcom"TITLE "Rockman X1-6 Disc 1"FILE "01 - Capcom Logo.wav" WAVE TRACK 01 AUDIO TITLE "Capcom Logo" PERFORMER "Mega Man X" INDEX 01 00:00:00 TRACK 02 AUDIO TITLE "Title" PERFORMER "Mega Man X" INDEX 00 00:05:65FILE "02 - Title.wav" WAVE INDEX 01 00:00:00 TRACK 03 AUDIO TITLE "Pass Word" PERFORMER "Mega Man X" INDEX 00 00:25:32FILE "03 - Pass Word.wav" WAVE INDEX 01 00:00:00 TRACK 04 AUDIO TITLE "Opening Stage" PERFORMER "Mega Man X" INDEX 00 01:23:62FILE "04 - Opening Stage.wav" WAVE INDEX 01 00:00:00 TRACK 05 AUDIO TITLE "Vava 1" PERFORMER "Mega Man X" INDEX 00 01:38:23FILE "05 - Vava 1.wav" WAVE INDEX 01 00:00:00 TRACK 06 AUDIO TITLE "Vava 2" PERFORMER "Mega Man X" INDEX 00 00:24:57FILE "06 - Vava 2.wav" WAVE INDEX 01 00:00:00 TRACK 07 AUDIO TITLE "Zero" PERFORMER "Mega Man X" INDEX 00 01:07:35FILE "07 - Zero.wav" WAVE INDEX 01 00:00:00 TRACK 08 AUDIO TITLE "Demo" PERFORMER "Mega Man X" INDEX 00 00:46:73FILE "08 - Demo.wav" WAVE INDEX 01 00:00:00 TRACK 09 AUDIO TITLE "Stage Select 1" PERFORMER "Mega Man X" INDEX 00 01:14:25FILE "09 - Stage Select 1.wav" WAVE INDEX 01 00:00:00 TRACK 10 AUDIO TITLE "Stage Start" PERFORMER "Mega Man X" INDEX 00 01:06:45FILE "10 - Stage Start.wav" WAVE INDEX 01 00:00:00 TRACK 11 AUDIO TITLE "Launcher Octopuld Stage" PERFORMER "Mega Man X" INDEX 00 00:07:35FILE "11 - Launcher Octopuld Stage.wav" WAVE INDEX 01 00:00:00 TRACK 12 AUDIO TITLE "Icy Penguigo Stage" PERFORMER "Mega Man X" INDEX 00 01:51:48FILE "12 - Icy Penguigo Stage.wav" WAVE INDEX 01 00:00:00 TRACK 13 AUDIO TITLE "Burnin' Noumander Stage" PERFORMER "Mega Man X" INDEX 00 01:35:35FILE "13 - Burnin' Noumander Stage.wav" WAVE INDEX 01 00:00:00 TRACK 14 AUDIO TITLE "Boomer Kuwanger Stage" PERFORMER "Mega Man X" INDEX 00 02:07:15FILE "14 - Boomer Kuwanger Stage.wav" WAVE INDEX 01 00:00:00 TRACK 15 AUDIO TITLE "Sting Chameleao Stage" PERFORMER "Mega Man X" INDEX 00 02:28:00FILE "15 - Sting Chameleao Stage.wav" WAVE INDEX 01 00:00:00 TRACK 16 AUDIO TITLE "Spark Mandriller Stage" PERFORMER "Mega Man X" INDEX 00 01:20:03FILE "16 - Spark Mandriller Stage.wav" WAVE INDEX 01 00:00:00 TRACK 17 AUDIO TITLE "Storm Eagleed Stage" PERFORMER "Mega Man X" INDEX 00 01:53:28FILE "17 - Storm Eagleed Stage.wav" WAVE INDEX 01 00:00:00 TRACK 18 AUDIO TITLE "Armor Armarge Stage" PERFORMER "Mega Man X" INDEX 00 01:21:67FILE "18 - Armor Armarge Stage.wav" WAVE INDEX 01 00:00:00 TRACK 19 AUDIO TITLE "Boss 1" PERFORMER "Mega Man X" INDEX 00 02:04:48FILE "19 - Boss 1.wav" WAVE INDEX 01 00:00:00 TRACK 20 AUDIO TITLE "Boss 2" PERFORMER "Mega Man X" INDEX 00 00:23:28FILE "20 - Boss 2.wav" WAVE INDEX 01 00:00:00 TRACK 21 AUDIO TITLE "Stage Clear" PERFORMER "Mega Man X" INDEX 00 01:10:45FILE "21 - Stage Clear.wav" WAVE INDEX 01 00:00:00 TRACK 22 AUDIO TITLE "Get a Weapon" PERFORMER "Mega Man X" INDEX 00 00:07:20FILE "22 - Get a Weapon.wav" WAVE INDEX 01 00:00:00 TRACK 23 AUDIO TITLE "Stage Select 2" PERFORMER "Mega Man X" INDEX 00 00:22:35FILE "23 - Stage Select 2.wav" WAVE INDEX 01 00:00:00 TRACK 24 AUDIO TITLE "Sigma Stage 1" PERFORMER "Mega Man X" INDEX 00 00:46:60FILE "24 - Sigma Stage 1.wav" WAVE INDEX 01 00:00:00 TRACK 25 AUDIO TITLE "Sigma Stage 2" PERFORMER "Mega Man X" INDEX 00 02:03:28FILE "25 - Sigma Stage 2.wav" WAVE INDEX 01 00:00:00 TRACK 26 AUDIO TITLE "Sigma Stage 3" PERFORMER "Mega Man X" INDEX 00 02:17:10FILE "26 - Sigma Stage 3.wav" WAVE INDEX 01 00:00:00 TRACK 27 AUDIO TITLE "Sigma Stage 4" PERFORMER "Mega Man X" INDEX 00 01:52:05FILE "27 - Sigma Stage 4.wav" WAVE INDEX 01 00:00:00 TRACK 28 AUDIO TITLE "Sigma 1st" PERFORMER "Mega Man X" INDEX 00 00:53:22FILE "28 - Sigma 1st.wav" WAVE INDEX 01 00:00:00 TRACK 29 AUDIO TITLE "Sigma Rebirth" PERFORMER "Mega Man X" INDEX 00 00:48:17FILE "29 - Sigma Rebirth.wav" WAVE INDEX 01 00:00:00 TRACK 30 AUDIO TITLE "Sigma 2nd" PERFORMER "Mega Man X" INDEX 00 00:08:30FILE "30 - Sigma 2nd.wav" WAVE INDEX 01 00:00:00 TRACK 31 AUDIO TITLE "Dr. Right" PERFORMER "Mega Man X" INDEX 00 01:59:68FILE "31 - Dr. Right.wav" WAVE INDEX 01 00:00:00 TRACK 32 AUDIO TITLE "Ending" PERFORMER "Mega Man X" INDEX 00 00:42:68FILE "32 - Ending.wav" WAVE INDEX 01 00:00:00 TRACK 33 AUDIO TITLE "Cast Roll" PERFORMER "Mega Man X" INDEX 00 01:46:35FILE "33 - Cast Roll.wav" WAVE INDEX 01 00:00:00 TRACK 34 AUDIO TITLE "Staff Roll" PERFORMER "Mega Man X" INDEX 00 01:45:22FILE "34 - Staff Roll.wav" WAVE INDEX 01 00:00:00 TRACK 35 AUDIO TITLE "SE" PERFORMER "Mega Man X" INDEX 00 01:56:20FILE "35 - SE.wav" WAVE INDEX 01 00:00:00 TRACK 36 AUDIO TITLE "Capcom Logo" PERFORMER "Mega Man X2" INDEX 00 05:18:25FILE "36 - Capcom Logo.wav" WAVE INDEX 01 00:00:00 TRACK 37 AUDIO TITLE "Opening" PERFORMER "Mega Man X2" INDEX 00 00:04:07FILE "37 - Opening.wav" WAVE INDEX 01 00:00:00 TRACK 38 AUDIO TITLE "Title" PERFORMER "Mega Man X2" INDEX 00 00:57:70FILE "38 - Title.wav" WAVE INDEX 01 00:00:00 TRACK 39 AUDIO TITLE "Pass Word" PERFORMER "Mega Man X2" INDEX 00 00:17:07FILE "39 - Pass Word.wav" WAVE INDEX 01 00:00:00 TRACK 40 AUDIO TITLE "Opening Stage" PERFORMER "Mega Man X2" INDEX 00 00:21:40FILE "40 - Opening Stage.wav" WAVE INDEX 01 00:00:00 TRACK 41 AUDIO TITLE "Another Boss 1" PERFORMER "Mega Man X2" INDEX 00 01:22:62FILE "41 - Another Boss 1.wav" WAVE INDEX 01 00:00:00 TRACK 42 AUDIO TITLE "Another Boss 2" PERFORMER "Mega Man X2" INDEX 00 00:14:68FILE "42 - Another Boss 2.wav" WAVE INDEX 01 00:00:00 TRACK 43 AUDIO TITLE "Demo" PERFORMER "Mega Man X2" INDEX 00 00:35:63FILE "43 - Demo.wav" WAVE INDEX 01 00:00:00 TRACK 44 AUDIO TITLE "Stage Select 1" PERFORMER "Mega Man X2" INDEX 00 00:29:30FILE "44 - Stage Select 1.wav" WAVE INDEX 01 00:00:00 TRACK 45 AUDIO TITLE "Stage Start" PERFORMER "Mega Man X2" INDEX 00 00:23:38FILE "45 - Stage Start.wav" WAVE INDEX 01 00:00:00 TRACK 46 AUDIO TITLE "Wire Hetimarl Stage" PERFORMER "Mega Man X2" INDEX 00 00:06:38FILE "46 - Wire Hetimarl Stage.wav" WAVE INDEX 01 00:00:00 TRACK 47 AUDIO TITLE "Metamor Mothmeanos Stage" PERFORMER "Mega Man X2" INDEX 00 01:59:40FILE "47 - Metamor Mothmeanos Stage.wav" WAVE INDEX 01 00:00:00 TRACK 48 AUDIO TITLE "Flame Stagger Stage" PERFORMER "Mega Man X2" INDEX 00 01:48:32FILE "48 - Flame Stagger Stage.wav" WAVE INDEX 01 00:00:00 TRACK 49 AUDIO TITLE "Magne Hyakulegger Stage" PERFORMER "Mega Man X2" INDEX 00 01:32:00FILE "49 - Magne Hyakulegger Stage.wav" WAVE INDEX 01 00:00:00 TRACK 50 AUDIO TITLE "Sonic Ostreague Stage" PERFORMER "Mega Man X2" INDEX 00 01:33:67FILE "50 - Sonic Ostreague Stage.wav" WAVE INDEX 01 00:00:00 TRACK 51 AUDIO TITLE "Bubbly Crablos Stage" PERFORMER "Mega Man X2" INDEX 00 01:31:55FILE "51 - Bubbly Crablos Stage.wav" WAVE INDEX 01 00:00:00 TRACK 52 AUDIO TITLE "Wheel Alligates Stage" PERFORMER "Mega Man X2" INDEX 00 01:50:25FILE "52 - Wheel Alligates Stage.wav" WAVE INDEX 01 00:00:00 TRACK 53 AUDIO TITLE "Cristar Mymine Stage" PERFORMER "Mega Man X2" INDEX 00 01:05:07FILE "53 - Cristar Mymine Stage.wav" WAVE INDEX 01 00:00:00 TRACK 54 AUDIO TITLE "Boss 1" PERFORMER "Mega Man X2" INDEX 00 01:36:40FILE "54 - Boss 1.wav" WAVE INDEX 01 00:00:00 TRACK 55 AUDIO TITLE "Boss 2" PERFORMER "Mega Man X2" INDEX 00 00:15:07FILE "55 - Boss 2.wav" WAVE INDEX 01 00:00:00 TRACK 56 AUDIO TITLE "Stage Clear" PERFORMER "Mega Man X2" INDEX 00 01:00:02FILE "56 - Stage Clear.wav" WAVE INDEX 01 00:00:00 TRACK 57 AUDIO TITLE "Stage Select 2" PERFORMER "Mega Man X2" INDEX 00 00:05:45FILE "57 - Stage Select 2.wav" WAVE INDEX 01 00:00:00 TRACK 58 AUDIO TITLE "Counter Hunter Stage 1" PERFORMER "Mega Man X2" INDEX 00 01:03:35FILE "58 - Counter Hunter Stage 1.wav" WAVE INDEX 01 00:00:00 TRACK 59 AUDIO TITLE "Counter Hunter Stage 2" PERFORMER "Mega Man X2" INDEX 00 01:03:68FILE "59 - Counter Hunter Stage 2.wav" WAVE INDEX 01 00:00:00 TRACK 60 AUDIO TITLE "Zero" PERFORMER "Mega Man X2" INDEX 00 01:01:08FILE "60 - Zero.wav" WAVE INDEX 01 00:00:00 TRACK 61 AUDIO TITLE "Sigma 1st" PERFORMER "Mega Man X2" INDEX 00 00:36:47FILE "61 - Sigma 1st.wav" WAVE INDEX 01 00:00:00 TRACK 62 AUDIO TITLE "Sigma 2nd" PERFORMER "Mega Man X2" INDEX 00 00:32:28FILE "62 - Sigma 2nd.wav" WAVE INDEX 01 00:00:00 TRACK 63 AUDIO TITLE "Dr. Right" PERFORMER "Mega Man X2" INDEX 00 00:48:02FILE "63 - Dr. Right.wav" WAVE INDEX 01 00:00:00 TRACK 64 AUDIO TITLE "Ending" PERFORMER "Mega Man X2" INDEX 00 00:25:42FILE "64 - Ending.wav" WAVE INDEX 01 00:00:00 TRACK 65 AUDIO TITLE "Staff Roll" PERFORMER "Mega Man X2" INDEX 00 01:50:68FILE "65 - Staff Roll.wav" WAVE INDEX 01 00:00:00
01 OPENING 0:54
02 TITLE 0:12
03 PASS WORD 0:41
04 OPENING STAGE 1:44
05 ZERO 1:13
06 STAGE SELECT 0:21
07 STAGE START 0:14
08 EXPLOSE HORNECK STAGE 1:42
09 FROZEN BUFFALIO STAGE 1:35
10 GRAVITY BEETBOOD STAGE 1:57
11 ACID SEAFORCE STAGE 1:49
12 ELECTRO NAMAZUROS STAGE 1:52
13 SCISSORS SHRIMPER STAGE 1:33
14 SCREW MASAIDER STAGE 1:58
15 SHINING TIGERD STAGE 2:10
16 VAVA STAGE 1:27
17 BOSS 1 0:24
18 BOSS 2 0:34
19 STAGE CLEAR 0:06
20 STAGE SELECT 2 0:31
21 DOPPLER STAGE 1 1:17
22 DOPPLER STAGE 2 2:31
23 DOPPLER STAGE BOSS 0:40
24 SIGMA 1st 0:47
25 SIGMA 2nd 1:14
26 DOPPLER DEMO 1:09
27 Dr.RIGHT 0:49
28 ENDING 1:28
29 CAST ROLL 2:31
30 OPENING 1:18
31 TITLE 0:14
32 PASS WORD 0:41
33 OPENING STAGE DEMO 0:28
34 OPENING STAGE 2:00
35 ZERO 0:52
36 STAGE SELECT 1 0:19
37 EXPLOSE HORNECK DEMO 0:25
38 EXPLOSE HORNECK STAGE 1:52
39 FROZEN BUFFALIO DEMO 0:29
40 FROZEN BUFFALIO STAGE 1:49
41 GRAVITY BEETBOOD DEMO 0:26
42 GRAVITY BEETBOOD STAGE 1:58
43 ACID SEAFORCE DEMO 0:25
44 ACID SEAFORCE STAGE 1:53
45 ELECTRO NAMAZUROS DEMO 0:23
46 ELECTRO NAMAZUROS STAGE 1:52
47 SCISSORS SHRIMPER DEMO 0:23
48 SCISSORS SHRIMPER STAGE 1:36
49 SCREW MASAIDER DEMO 0:22
50 SCREW MASAIDER STAGE 1:48
51 SHINING TIGERD DEMO 0:23
52 SHINING TIGERD STAGE 1:36
53 VAVA STAGE 1:30
54 BOSS 1 0:45
55 BOSS 2 0:36
56 STAGE CLEAR 0:10
57 DEMO 0:21
58 STAGE SELECT 2 0:28
59 DOPPLER STAGE 1 1:37
60 DOPPLER STAGE 2 2:20
61 DOPPLER STAGE BOSS 0:36
62 SIGMA 1st 0:50
63 SIGMA 2nd 0:59
64 DOPPLER DEMO 1:13
65 Dr.KEIN DEMO 0:32
66 Dr.RIGHT DEMO 0:48
67 ENDING 1 2:00
68 ENDING 2 0:22
69 CAST ROLL 2:41
 
Exact Audio Copy V0.99 prebeta 4 from 23. January 2008

EAC extraction logfile from 10. February 2009, 22:07

Capcom / Rockman X1-6 Disc 2

Used drive : Optiarc DVD RW AD-7200A Adapter: 0 ID: 0

Read mode : SecureUtilize accurate stream : YesDefeat audio cache : YesMake use of C2 pointers : No

Read offset correction : 48Overread into Lead-In and Lead-Out : NoFill up missing offset samples with silence : YesDelete leading and trailing silent blocks : NoNull samples used in CRC calculations : YesUsed interface : Native Win32 interface for Win NT & 2000Gap handling : Appended to previous track

Used output format : User Defined EncoderSelected bitrate : 128 kBit/sQuality : HighAdd ID3 tag : NoCommand line compressor : F:\Program Files\FLAC\flac.exeAdditional command line options : -V -8 -T "artist=%a" -T "title=%t" -T "album=%g" -T "date=%y" -T "tracknumber=%n" -T "genre=%m" %s

TOC of the extracted CD

Track | Start | Length | Start sector | End sector --------------------------------------------------------- 1 | 0:00.00 | 0:54.00 | 0 | 4049 2 | 0:54.00 | 0:12.27 | 4050 | 4976 3 | 1:06.27 | 0:41.30 | 4977 | 8081 4 | 1:47.57 | 1:44.13 | 8082 | 15894 5 | 3:31.70 | 1:12.62 | 15895 | 21356 6 | 4:44.57 | 0:21.13 | 21357 | 22944 7 | 5:05.70 | 0:14.20 | 22945 | 24014 8 | 5:20.15 | 1:42.05 | 24015 | 31669 9 | 7:02.20 | 1:35.20 | 31670 | 38814 10 | 8:37.40 | 1:56.70 | 38815 | 47584 11 | 10:34.35 | 1:48.52 | 47585 | 55736 12 | 12:23.12 | 1:52.10 | 55737 | 64146 13 | 14:15.22 | 1:33.33 | 64147 | 71154 14 | 15:48.55 | 1:57.62 | 71155 | 79991 15 | 17:46.42 | 2:10.05 | 79992 | 89746 16 | 19:56.47 | 1:26.60 | 89747 | 96256 17 | 21:23.32 | 0:23.60 | 96257 | 98041 18 | 21:47.17 | 0:34.03 | 98042 | 100594 19 | 22:21.20 | 0:05.65 | 100595 | 101034 20 | 22:27.10 | 0:30.55 | 101035 | 103339 21 | 22:57.65 | 1:17.15 | 103340 | 109129 22 | 24:15.05 | 2:31.10 | 109130 | 120464 23 | 26:46.15 | 0:40.05 | 120465 | 123469 24 | 27:26.20 | 0:46.60 | 123470 | 126979 25 | 28:13.05 | 1:13.67 | 126980 | 132521 26 | 29:26.72 | 1:09.23 | 132522 | 137719 27 | 30:36.20 | 0:49.02 | 137720 | 141396 28 | 31:25.22 | 1:28.30 | 141397 | 148026 29 | 32:53.52 | 2:31.25 | 148027 | 159376 30 | 35:25.02 | 1:17.38 | 159377 | 165189 31 | 36:42.40 | 0:14.00 | 165190 | 166239 32 | 36:56.40 | 0:41.22 | 166240 | 169336 33 | 37:37.62 | 0:28.03 | 169337 | 171439 34 | 38:05.65 | 2:00.37 | 171440 | 180476 35 | 40:06.27 | 0:52.28 | 180477 | 184404 36 | 40:58.55 | 0:19.25 | 184405 | 185854 37 | 41:18.05 | 0:25.07 | 185855 | 187736 38 | 41:43.12 | 1:52.33 | 187737 | 196169 39 | 43:35.45 | 0:29.37 | 196170 | 198381 40 | 44:05.07 | 1:48.40 | 198382 | 206521 41 | 45:53.47 | 0:26.03 | 206522 | 208474 42 | 46:19.50 | 1:58.05 | 208475 | 217329 43 | 48:17.55 | 0:24.70 | 217330 | 219199 44 | 48:42.50 | 1:52.62 | 219200 | 227661 45 | 50:35.37 | 0:22.65 | 227662 | 229376 46 | 50:58.27 | 1:51.43 | 229377 | 237744 47 | 52:49.70 | 0:22.60 | 237745 | 239454 48 | 53:12.55 | 1:36.15 | 239455 | 246669 49 | 54:48.70 | 0:22.25 | 246670 | 248344 50 | 55:11.20 | 1:47.42 | 248345 | 256411 51 | 56:58.62 | 0:22.40 | 256412 | 258101 52 | 57:21.27 | 1:35.50 | 258102 | 265276 53 | 58:57.02 | 1:30.13 | 265277 | 272039 54 | 60:27.15 | 0:44.55 | 272040 | 275394 55 | 61:11.70 | 0:35.52 | 275395 | 278071 56 | 61:47.47 | 0:09.68 | 278072 | 278814 57 | 61:57.40 | 0:20.47 | 278815 | 280361 58 | 62:18.12 | 0:28.23 | 280362 | 282484 59 | 62:46.35 | 1:37.05 | 282485 | 289764 60 | 64:23.40 | 2:20.00 | 289765 | 300264 61 | 66:43.40 | 0:35.57 | 300265 | 302946 62 | 67:19.22 | 0:50.20 | 302947 | 306716 63 | 68:09.42 | 0:59.33 | 306717 | 311174 64 | 69:09.00 | 1:12.70 | 311175 | 316644 65 | 70:21.70 | 0:31.65 | 316645 | 319034 66 | 70:53.60 | 0:47.67 | 319035 | 322626 67 | 71:41.52 | 1:59.50 | 322627 | 331601 68 | 73:41.27 | 0:21.65 | 331602 | 333241 69 | 74:03.17 | 2:41.13 | 333242 | 345329

Track 1

Filename F:\Documents and Settings\Jack\My Documents\My Music\01 - Opening.wav

Pre-gap length 0:00:02.00

Peak level 77.6 % Track quality 100.0 % Test CRC 5787CC9F Copy CRC 5787CC9F Accurately ripped (confidence 5) [F57A3DCD] Copy OK

Track 2

Filename F:\Documents and Settings\Jack\My Documents\My Music\02 - Title.wav

Pre-gap length 0:00:02.00

Peak level 75.8 % Track quality 100.0 % Test CRC 06130487 Copy CRC 06130487 Accurately ripped (confidence 5) [389E3806] Copy OK

Track 3

Filename F:\Documents and Settings\Jack\My Documents\My Music\03 - Password.wav

Pre-gap length 0:00:01.52

Peak level 86.1 % Track quality 100.0 % Test CRC 9DC253A0 Copy CRC 9DC253A0 Accurately ripped (confidence 5) [1ABD0D0D] Copy OK

Track 4

Filename F:\Documents and Settings\Jack\My Documents\My Music\04 - Opening Stage.wav

Pre-gap length 0:00:02.27

Peak level 83.1 % Track quality 100.0 % Test CRC 3F689A5E Copy CRC 3F689A5E Accurately ripped (confidence 5) [FD5EF4EC] Copy OK

Track 5

Filename F:\Documents and Settings\Jack\My Documents\My Music\05 - Zero.wav

Pre-gap length 0:00:01.65

Peak level 75.8 % Track quality 100.0 % Test CRC D89BF3DA Copy CRC D89BF3DA Accurately ripped (confidence 5) [95874303] Copy OK

Track 6

Filename F:\Documents and Settings\Jack\My Documents\My Music\06 - Stage Select 1.wav

Pre-gap length 0:00:01.70

Peak level 83.1 % Track quality 100.0 % Test CRC EB15258B Copy CRC EB15258B Accurately ripped (confidence 5) [93F601D9] Copy OK

Track 7

Filename F:\Documents and Settings\Jack\My Documents\My Music\07 - Stage Start.wav

Pre-gap length 0:00:02.50

Peak level 90.1 % Track quality 99.2 % Test CRC 741555CE Copy CRC 741555CE Accurately ripped (confidence 5) [06FDC526] Copy OK

Track 8

Filename F:\Documents and Settings\Jack\My Documents\My Music\08 - Explose Horneck Stage.wav

Pre-gap length 0:00:01.50

Peak level 78.3 % Track quality 100.0 % Test CRC FF200A69 Copy CRC FF200A69 Accurately ripped (confidence 5) [86C3DECB] Copy OK

Track 9

Filename F:\Documents and Settings\Jack\My Documents\My Music\09 - Frozen Buffalio Stage.wav

Pre-gap length 0:00:01.73

Peak level 69.1 % Track quality 100.0 % Test CRC 94C77A3C Copy CRC 94C77A3C Accurately ripped (confidence 5) [A1A2CA81] Copy OK

Track 10

Filename F:\Documents and Settings\Jack\My Documents\My Music\10 - Gravity Beetbood Stage.wav

Pre-gap length 0:00:02.00

Peak level 85.1 % Track quality 100.0 % Test CRC 6E2E0D69 Copy CRC 6E2E0D69 Accurately ripped (confidence 5) [613D3F90] Copy OK

Track 11

Filename F:\Documents and Settings\Jack\My Documents\My Music\11 - Acid Seaforce Stage.wav

Pre-gap length 0:00:02.00

Peak level 75.8 % Track quality 100.0 % Test CRC 412B1C33 Copy CRC 412B1C33 Accurately ripped (confidence 5) [BFEE8E23] Copy OK

Track 12

Filename F:\Documents and Settings\Jack\My Documents\My Music\12 - Electro Namazuros Stage.wav

Pre-gap length 0:00:01.67

Peak level 75.8 % Track quality 100.0 % Test CRC 8F5537D6 Copy CRC 8F5537D6 Accurately ripped (confidence 5) [AA5B5224] Copy OK

Track 13

Filename F:\Documents and Settings\Jack\My Documents\My Music\13 - Scissors Shrimper Stage.wav

Pre-gap length 0:00:01.57

Peak level 74.1 % Track quality 100.0 % Test CRC 433822F4 Copy CRC 433822F4 Accurately ripped (confidence 5) [983513A4] Copy OK

Track 14

Filename F:\Documents and Settings\Jack\My Documents\My Music\14 - Screw Masaider Stage.wav

Pre-gap length 0:00:01.58

Peak level 80.3 % Track quality 100.0 % Test CRC 759F166A Copy CRC 759F166A Accurately ripped (confidence 5) [66D44F7E] Copy OK

Track 15

Filename F:\Documents and Settings\Jack\My Documents\My Music\15 - Shining Tigerd Stage.wav

Pre-gap length 0:00:02.02

Peak level 75.8 % Track quality 100.0 % Test CRC 3EDEA3E9 Copy CRC 3EDEA3E9 Accurately ripped (confidence 5) [A121AB10] Copy OK

Track 16

Filename F:\Documents and Settings\Jack\My Documents\My Music\16 - Vava Stage.wav

Pre-gap length 0:00:01.62

Peak level 74.1 % Track quality 100.0 % Test CRC B0FF2BF3 Copy CRC B0FF2BF3 Accurately ripped (confidence 5) [F43097C5] Copy OK

Track 17

Filename F:\Documents and Settings\Jack\My Documents\My Music\17 - Boss 1.wav

Pre-gap length 0:00:01.70

Peak level 78.5 % Track quality 100.0 % Test CRC 6E2B735D Copy CRC 6E2B735D Accurately ripped (confidence 5) [3B4DBC4D] Copy OK

Track 18

Filename F:\Documents and Settings\Jack\My Documents\My Music\18 - Boss 2.wav

Pre-gap length 0:00:01.65

Peak level 75.8 % Track quality 100.0 % Test CRC 3F604575 Copy CRC 3F604575 Accurately ripped (confidence 5) [D69D8A4B] Copy OK

Track 19

Filename F:\Documents and Settings\Jack\My Documents\My Music\19 - Stage Clear.wav

Pre-gap length 0:00:01.55

Peak level 75.8 % Track quality 100.0 % Test CRC 932DD6A8 Copy CRC 932DD6A8 Track not present in AccurateRip database Copy OK

Track 20

Filename F:\Documents and Settings\Jack\My Documents\My Music\20 - Stage Select 2.wav

Pre-gap length 0:00:00.50

Peak level 85.1 % Track quality 100.0 % Test CRC 05AEC172 Copy CRC 05AEC172 Accurately ripped (confidence 5) [DF41A845] Copy OK

Track 21

Filename F:\Documents and Settings\Jack\My Documents\My Music\21 - Doppler Stage 1.wav

Pre-gap length 0:00:01.60

Peak level 85.1 % Track quality 100.0 % Test CRC 51D81FD5 Copy CRC 51D81FD5 Accurately ripped (confidence 5) [C242E55E] Copy OK

Track 22

Filename F:\Documents and Settings\Jack\My Documents\My Music\22 - Doppler Stage 2.wav

Pre-gap length 0:00:01.68

Peak level 74.1 % Track quality 100.0 % Test CRC E0436957 Copy CRC E0436957 Accurately ripped (confidence 5) [9A00F2EC] Copy OK

Track 23

Filename F:\Documents and Settings\Jack\My Documents\My Music\23 - Doppler Stage Boss.wav

Pre-gap length 0:00:01.65

Peak level 79.4 % Track quality 100.0 % Test CRC FCAD7115 Copy CRC FCAD7115 Accurately ripped (confidence 5) [E0EB729D] Copy OK

Track 24

Filename F:\Documents and Settings\Jack\My Documents\My Music\24 - Sigma 1st.wav

Pre-gap length 0:00:02.38

Peak level 79.4 % Track quality 99.7 % Test CRC 82EEE049 Copy CRC 82EEE049 Accurately ripped (confidence 5) [21BDBA08] Copy OK

Track 25

Filename F:\Documents and Settings\Jack\My Documents\My Music\25 - Sigma 2nd.wav

Pre-gap length 0:00:02.58

Peak level 66.8 % Track quality 100.0 % Test CRC 5F7C9321 Copy CRC 5F7C9321 Accurately ripped (confidence 5) [6DFFF418] Copy OK

Track 26

Filename F:\Documents and Settings\Jack\My Documents\My Music\26 - Doppler Demo.wav

Pre-gap length 0:00:02.17

Peak level 70.7 % Track quality 100.0 % Test CRC 9D33BACB Copy CRC 9D33BACB Accurately ripped (confidence 5) [94B38D4E] Copy OK

Track 27

Filename F:\Documents and Settings\Jack\My Documents\My Music\27 - Dr. Right.wav

Pre-gap length 0:00:02.18

Peak level 49.9 % Track quality 100.0 % Test CRC 7EE6D3F1 Copy CRC 7EE6D3F1 Accurately ripped (confidence 5) [395BE334] Copy OK

Track 28

Filename F:\Documents and Settings\Jack\My Documents\My Music\28 - Ending.wav

Pre-gap length 0:00:02.25

Peak level 79.0 % Track quality 100.0 % Test CRC D72103E6 Copy CRC D72103E6 Accurately ripped (confidence 5) [2C98FF75] Copy OK

Track 29

Filename F:\Documents and Settings\Jack\My Documents\My Music\29 - Cast Roll.wav

Pre-gap length 0:00:02.00

Peak level 91.0 % Track quality 100.0 % Test CRC A08B5DF7 Copy CRC A08B5DF7 Accurately ripped (confidence 5) [19CDF03E] Copy OK

Track 30

Filename F:\Documents and Settings\Jack\My Documents\My Music\30 - Opening.wav

Pre-gap length 0:00:01.55

Peak level 82.9 % Track quality 100.0 % Test CRC 00A0179B Copy CRC 00A0179B Accurately ripped (confidence 5) [742EA06A] Copy OK

Track 31

Filename F:\Documents and Settings\Jack\My Documents\My Music\31 - Title.wav

Pre-gap length 0:00:01.58

Peak level 93.3 % Track quality 100.0 % Test CRC 4A747553 Copy CRC 4A747553 Accurately ripped (confidence 5) [5CA75FDF] Copy OK

Track 32

Filename F:\Documents and Settings\Jack\My Documents\My Music\32 - Password.wav

Pre-gap length 0:00:01.48

Peak level 93.3 % Track quality 100.0 % Test CRC C144B589 Copy CRC C144B589 Accurately ripped (confidence 5) [D5F158FB] Copy OK

Track 33

Filename F:\Documents and Settings\Jack\My Documents\My Music\33 - Opening Stage Demo.wav

Pre-gap length 0:00:01.70

Peak level 93.3 % Track quality 100.0 % Test CRC F5197BCA Copy CRC F5197BCA Accurately ripped (confidence 5) [29609F59] Copy OK

Track 34

Filename F:\Documents and Settings\Jack\My Documents\My Music\34 - Opening Stage.wav

Pre-gap length 0:00:01.58

Peak level 91.6 % Track quality 100.0 % Test CRC 43D5E58B Copy CRC 43D5E58B Accurately ripped (confidence 5) [594791BA] Copy OK

Track 35

Filename F:\Documents and Settings\Jack\My Documents\My Music\35 - Zero.wav

Pre-gap length 0:00:01.65

Peak level 83.1 % Track quality 100.0 % Test CRC 7482AAC9 Copy CRC 7482AAC9 Accurately ripped (confidence 5) [E5D4C15B] Copy OK

Track 36

Filename F:\Documents and Settings\Jack\My Documents\My Music\36 - Stage Select 1.wav

Pre-gap length 0:00:01.63

Peak level 77.2 % Track quality 100.0 % Test CRC 13419B0D Copy CRC 13419B0D Accurately ripped (confidence 5) [9CF6C258] Copy OK

Track 37

Filename F:\Documents and Settings\Jack\My Documents\My Music\37 - Explose Horneck Demo.wav

Pre-gap length 0:00:01.60

Peak level 89.1 % Track quality 100.0 % Test CRC A3552AAD Copy CRC A3552AAD Accurately ripped (confidence 5) [298D4842] Copy OK

Track 38

Filename F:\Documents and Settings\Jack\My Documents\My Music\38 - Explose Horneck Stage.wav

Pre-gap length 0:00:01.62

Peak level 84.1 % Track quality 100.0 % Test CRC 48E4BD46 Copy CRC 48E4BD46 Accurately ripped (confidence 5) [9F9D3DEE] Copy OK

Track 39

Filename F:\Documents and Settings\Jack\My Documents\My Music\39 - Frozen Buffalio Demo.wav

Pre-gap length 0:00:01.65

Peak level 75.8 % Track quality 100.0 % Test CRC CA27E6A2 Copy CRC CA27E6A2 Accurately ripped (confidence 5) [C0B7A4CA] Copy OK

Track 40

Filename F:\Documents and Settings\Jack\My Documents\My Music\40 - Frozen Buffalio Stage.wav

Pre-gap length 0:00:01.50

Peak level 86.4 % Track quality 100.0 % Test CRC 36C3C4FD Copy CRC 36C3C4FD Accurately ripped (confidence 5) [C6A7C205] Copy OK

Track 41

Filename F:\Documents and Settings\Jack\My Documents\My Music\41 - Gravity Beetbood Demo.wav

Pre-gap length 0:00:01.67

Peak level 89.1 % Track quality 100.0 % Test CRC 01781806 Copy CRC 01781806 Accurately ripped (confidence 5) [DECF46E6] Copy OK

Track 42

Filename F:\Documents and Settings\Jack\My Documents\My Music\42 - Gravity Beetbood Stage.wav

Pre-gap length 0:00:01.55

Peak level 89.1 % Track quality 100.0 % Test CRC AF2E104C Copy CRC AF2E104C Accurately ripped (confidence 5) [3AFDAF60] Copy OK

Track 43

Filename F:\Documents and Settings\Jack\My Documents\My Music\43 - Acid Seaforce Demo.wav

Pre-gap length 0:00:02.03

Peak level 89.1 % Track quality 100.0 % Test CRC 15833434 Copy CRC 15833434 Accurately ripped (confidence 5) [96976503] Copy OK

Track 44

Filename F:\Documents and Settings\Jack\My Documents\My Music\44 - Acid Seaforce Stage.wav

Pre-gap length 0:00:01.68

Peak level 89.1 % Track quality 100.0 % Test CRC 13C2C332 Copy CRC 13C2C332 Accurately ripped (confidence 5) [1DF399A4] Copy OK

Track 45

Filename F:\Documents and Settings\Jack\My Documents\My Music\45 - Electro Namazuros Demo.wav

Pre-gap length 0:00:01.60

Peak level 89.1 % Track quality 100.0 % Test CRC C3B038ED Copy CRC C3B038ED Accurately ripped (confidence 5) [E889F5FE] Copy OK

Track 46

Filename F:\Documents and Settings\Jack\My Documents\My Music\46 - Electro Namazuros Stage.wav

Pre-gap length 0:00:01.52

Peak level 97.0 % Track quality 99.9 % Test CRC 572B48B1 Copy CRC 572B48B1 Accurately ripped (confidence 5) [D980601A] Copy OK

Track 47

Filename F:\Documents and Settings\Jack\My Documents\My Music\47 - Scissors Shrimper Demo.wav

Pre-gap length 0:00:01.65

Peak level 79.4 % Track quality 100.0 % Test CRC 4F81F92B Copy CRC 4F81F92B Accurately ripped (confidence 5) [FF63F687] Copy OK

Track 48

Filename F:\Documents and Settings\Jack\My Documents\My Music\48 - Scissors Shrimper Stage.wav

Pre-gap length 0:00:01.55

Peak level 84.4 % Track quality 100.0 % Test CRC 91248545 Copy CRC 91248545 Accurately ripped (confidence 5) [B1129F12] Copy OK

Track 49

Filename F:\Documents and Settings\Jack\My Documents\My Music\49 - Screw Masaider Demo.wav

Pre-gap length 0:00:02.35

Peak level 91.7 % Track quality 100.0 % Test CRC 6A9C61D4 Copy CRC 6A9C61D4 Accurately ripped (confidence 5) [07996967] Copy OK

Track 50

Filename F:\Documents and Settings\Jack\My Documents\My Music\50 - Screw Masaider Stage.wav

Pre-gap length 0:00:01.45

Peak level 92.8 % Track quality 99.9 % Test CRC F2203AEE Copy CRC F2203AEE Accurately ripped (confidence 5) [21965D3C] Copy OK

Track 51

Filename F:\Documents and Settings\Jack\My Documents\My Music\51 - Shining Tigerd Demo.wav

Pre-gap length 0:00:01.72

Peak level 89.6 % Track quality 100.0 % Test CRC 40D2F208 Copy CRC 40D2F208 Accurately ripped (confidence 5) [A595A57B] Copy OK

Track 52

Filename F:\Documents and Settings\Jack\My Documents\My Music\52 - Shining Tigerd Stage.wav

Pre-gap length 0:00:01.50

Peak level 97.3 % Track quality 100.0 % Test CRC 468AAF6D Copy CRC 468AAF6D Accurately ripped (confidence 5) [15370D01] Copy OK

Track 53

Filename F:\Documents and Settings\Jack\My Documents\My Music\53 - Vava Stage.wav

Pre-gap length 0:00:01.70

Peak level 96.9 % Track quality 100.0 % Test CRC 8387AC06 Copy CRC 8387AC06 Accurately ripped (confidence 5) [0F9994C9] Copy OK

Track 54

Filename F:\Documents and Settings\Jack\My Documents\My Music\54 - Boss 1.wav

Pre-gap length 0:00:02.00

Peak level 89.1 % Track quality 100.0 % Test CRC 77DF84B0 Copy CRC 77DF84B0 Accurately ripped (confidence 5) [A99BA618] Copy OK

Track 55

Filename F:\Documents and Settings\Jack\My Documents\My Music\55 - Boss 2.wav

Pre-gap length 0:00:01.58

Peak level 89.1 % Track quality 100.0 % Test CRC 7A6BE667 Copy CRC 7A6BE667 Accurately ripped (confidence 5) [E0A2F88B] Copy OK

Track 56

Filename F:\Documents and Settings\Jack\My Documents\My Music\56 - Stage Clear.wav

Pre-gap length 0:00:01.70

Peak level 89.1 % Track quality 100.0 % Test CRC AE1C654B Copy CRC AE1C654B Accurately ripped (confidence 5) [7288CAC3] Copy OK

Track 57

Filename F:\Documents and Settings\Jack\My Documents\My Music\57 - Demo.wav

Pre-gap length 0:00:01.55

Peak level 89.1 % Track quality 100.0 % Test CRC B2AB1BB0 Copy CRC B2AB1BB0 Accurately ripped (confidence 5) [BD6FB1D4] Copy OK

Track 58

Filename F:\Documents and Settings\Jack\My Documents\My Music\58 - Stage Select 2.wav

Pre-gap length 0:00:01.47

Peak level 96.6 % Track quality 100.0 % Test CRC 3DD28F9A Copy CRC 3DD28F9A Accurately ripped (confidence 5) [F5472595] Copy OK

Track 59

Filename F:\Documents and Settings\Jack\My Documents\My Music\59 - Doppler Stage 1.wav

Pre-gap length 0:00:01.65

Peak level 79.4 % Track quality 100.0 % Test CRC FE215E80 Copy CRC FE215E80 Accurately ripped (confidence 5) [BE1F0A36] Copy OK

Track 60

Filename F:\Documents and Settings\Jack\My Documents\My Music\60 - Doppler Stage 2.wav

Pre-gap length 0:00:01.63

Peak level 89.1 % Track quality 100.0 % Test CRC FA3A799A Copy CRC FA3A799A Accurately ripped (confidence 5) [B7044042] Copy OK

Track 61

Filename F:\Documents and Settings\Jack\My Documents\My Music\61 - Doppler Stage Boss.wav

Pre-gap length 0:00:01.48

Peak level 79.4 % Track quality 100.0 % Test CRC 0902AD9F Copy CRC 0902AD9F Accurately ripped (confidence 5) [491C5CA0] Copy OK

Track 62

Filename F:\Documents and Settings\Jack\My Documents\My Music\62 - Sigma 1st.wav

Pre-gap length 0:00:02.00

Peak level 85.8 % Track quality 100.0 % Test CRC 705295E2 Copy CRC 705295E2 Accurately ripped (confidence 5) [5C6288A9] Copy OK

Track 63

Filename F:\Documents and Settings\Jack\My Documents\My Music\63 - Sigma 2nd.wav

Pre-gap length 0:00:02.05

Peak level 79.4 % Track quality 99.8 % Test CRC 9F2DD342 Copy CRC 9F2DD342 Accurately ripped (confidence 5) [0FC7D05A] Copy OK

Track 64

Filename F:\Documents and Settings\Jack\My Documents\My Music\64 - Doppler Demo.wav

Pre-gap length 0:00:02.18

Peak level 79.4 % Track quality 100.0 % Test CRC F1DE43DE Copy CRC F1DE43DE Accurately ripped (confidence 5) [C1E40169] Copy OK

Track 65

Filename F:\Documents and Settings\Jack\My Documents\My Music\65 - Dr. Kein Demo.wav

Pre-gap length 0:00:01.70

Peak level 94.6 % Track quality 99.6 % Test CRC E788DCC1 Copy CRC E788DCC1 Accurately ripped (confidence 5) [E3A89F94] Copy OK

Track 66

Filename F:\Documents and Settings\Jack\My Documents\My Music\66 - Dr. Right Demo.wav

Pre-gap length 0:00:01.73

Peak level 79.4 % Track quality 100.0 % Test CRC 38AAAC18 Copy CRC 38AAAC18 Accurately ripped (confidence 5) [F3CF11F9] Copy OK

Track 67

Filename F:\Documents and Settings\Jack\My Documents\My Music\67 - Ending 1.wav

Pre-gap length 0:00:01.60

Peak level 97.7 % Track quality 100.0 % Test CRC 4EDF9471 Copy CRC 4EDF9471 Accurately ripped (confidence 5) [2C01182D] Copy OK

Track 68

Filename F:\Documents and Settings\Jack\My Documents\My Music\68 - Ending 2.wav

Pre-gap length 0:00:01.52

Peak level 81.2 % Track quality 100.0 % Test CRC E9B49027 Copy CRC E9B49027 Accurately ripped (confidence 5) [C4752D1F] Copy OK

Track 69

Filename F:\Documents and Settings\Jack\My Documents\My Music\69 - Cast Roll.wav

Pre-gap length 0:00:01.52

Peak level 87.1 % Track quality 100.0 % Test CRC AF02F62E Copy CRC AF02F62E Accurately ripped (confidence 5) [2C4C7D1D] Copy OK

68 track(s) accurately ripped 1 track(s) not present in the AccurateRip database

Some tracks could not be verified as accurate

No errors occurred

End of status report
 
REM GENRE SoundtrackREM DATE 2003REM DISCID 1611FC45REM COMMENT "ExactAudioCopy v0.99pb4"PERFORMER "Capcom"TITLE "Rockman X1-6 Disc 2"FILE "01 - Opening.wav" WAVE TRACK 01 AUDIO TITLE "Opening" PERFORMER "Mega Man X3" INDEX 01 00:00:00 TRACK 02 AUDIO TITLE "Title" PERFORMER "Mega Man X3" INDEX 00 00:52:00FILE "02 - Title.wav" WAVE INDEX 01 00:00:00 TRACK 03 AUDIO TITLE "Password" PERFORMER "Mega Man X3" INDEX 00 00:10:50FILE "03 - Password.wav" WAVE INDEX 01 00:00:00 TRACK 04 AUDIO TITLE "Opening Stage" PERFORMER "Mega Man X3" INDEX 00 00:39:03FILE "04 - Opening Stage.wav" WAVE INDEX 01 00:00:00 TRACK 05 AUDIO TITLE "Zero" PERFORMER "Mega Man X3" INDEX 00 01:42:23FILE "05 - Zero.wav" WAVE INDEX 01 00:00:00 TRACK 06 AUDIO TITLE "Stage Select 1" PERFORMER "Mega Man X3" INDEX 00 01:10:67FILE "06 - Stage Select 1.wav" WAVE INDEX 01 00:00:00 TRACK 07 AUDIO TITLE "Stage Start" PERFORMER "Mega Man X3" INDEX 00 00:18:38FILE "07 - Stage Start.wav" WAVE INDEX 01 00:00:00 TRACK 08 AUDIO TITLE "Explose Horneck Stage" PERFORMER "Mega Man X3" INDEX 00 00:12:45FILE "08 - Explose Horneck Stage.wav" WAVE INDEX 01 00:00:00 TRACK 09 AUDIO TITLE "Frozen Buffalio Stage" PERFORMER "Mega Man X3" INDEX 00 01:40:07FILE "09 - Frozen Buffalio Stage.wav" WAVE INDEX 01 00:00:00 TRACK 10 AUDIO TITLE "Gravity Beetbood Stage" PERFORMER "Mega Man X3" INDEX 00 01:33:20FILE "10 - Gravity Beetbood Stage.wav" WAVE INDEX 01 00:00:00 TRACK 11 AUDIO TITLE "Acid Seaforce Stage" PERFORMER "Mega Man X3" INDEX 00 01:54:70FILE "11 - Acid Seaforce Stage.wav" WAVE INDEX 01 00:00:00 TRACK 12 AUDIO TITLE "Electro Namazuros Stage" PERFORMER "Mega Man X3" INDEX 00 01:46:60FILE "12 - Electro Namazuros Stage.wav" WAVE INDEX 01 00:00:00 TRACK 13 AUDIO TITLE "Scissors Shrimper Stage" PERFORMER "Mega Man X3" INDEX 00 01:50:28FILE "13 - Scissors Shrimper Stage.wav" WAVE INDEX 01 00:00:00 TRACK 14 AUDIO TITLE "Screw Masaider Stage" PERFORMER "Mega Man X3" INDEX 00 01:31:50FILE "14 - Screw Masaider Stage.wav" WAVE INDEX 01 00:00:00 TRACK 15 AUDIO TITLE "Shining Tigerd Stage" PERFORMER "Mega Man X3" INDEX 00 01:55:60FILE "15 - Shining Tigerd Stage.wav" WAVE INDEX 01 00:00:00 TRACK 16 AUDIO TITLE "Vava Stage" PERFORMER "Mega Man X3" INDEX 00 02:08:18FILE "16 - Vava Stage.wav" WAVE INDEX 01 00:00:00 TRACK 17 AUDIO TITLE "Boss 1" PERFORMER "Mega Man X3" INDEX 00 01:24:65FILE "17 - Boss 1.wav" WAVE INDEX 01 00:00:00 TRACK 18 AUDIO TITLE "Boss 2" PERFORMER "Mega Man X3" INDEX 00 00:21:70FILE "18 - Boss 2.wav" WAVE INDEX 01 00:00:00 TRACK 19 AUDIO TITLE "Stage Clear" PERFORMER "Mega Man X3" INDEX 00 00:32:23FILE "19 - Stage Clear.wav" WAVE INDEX 01 00:00:00 TRACK 20 AUDIO TITLE "Stage Select 2" PERFORMER "Mega Man X3" INDEX 00 00:05:15FILE "20 - Stage Select 2.wav" WAVE INDEX 01 00:00:00 TRACK 21 AUDIO TITLE "Doppler Stage 1" PERFORMER "Mega Man X3" INDEX 00 00:28:70FILE "21 - Doppler Stage 1.wav" WAVE INDEX 01 00:00:00 TRACK 22 AUDIO TITLE "Doppler Stage 2" PERFORMER "Mega Man X3" INDEX 00 01:15:22FILE "22 - Doppler Stage 2.wav" WAVE INDEX 01 00:00:00 TRACK 23 AUDIO TITLE "Doppler Stage Boss" PERFORMER "Mega Man X3" INDEX 00 02:29:20FILE "23 - Doppler Stage Boss.wav" WAVE INDEX 01 00:00:00 TRACK 24 AUDIO TITLE "Sigma 1st" PERFORMER "Mega Man X3" INDEX 00 00:37:42FILE "24 - Sigma 1st.wav" WAVE INDEX 01 00:00:00 TRACK 25 AUDIO TITLE "Sigma 2nd" PERFORMER "Mega Man X3" INDEX 00 00:44:02FILE "25 - Sigma 2nd.wav" WAVE INDEX 01 00:00:00 TRACK 26 AUDIO TITLE "Doppler Demo" PERFORMER "Mega Man X3" INDEX 00 01:11:50FILE "26 - Doppler Demo.wav" WAVE INDEX 01 00:00:00 TRACK 27 AUDIO TITLE "Dr. Right" PERFORMER "Mega Man X3" INDEX 00 01:07:05FILE "27 - Dr. Right.wav" WAVE INDEX 01 00:00:00 TRACK 28 AUDIO TITLE "Ending" PERFORMER "Mega Man X3" INDEX 00 00:46:52FILE "28 - Ending.wav" WAVE INDEX 01 00:00:00 TRACK 29 AUDIO TITLE "Cast Roll" PERFORMER "Mega Man X3" INDEX 00 01:26:30FILE "29 - Cast Roll.wav" WAVE INDEX 01 00:00:00 TRACK 30 AUDIO TITLE "Opening" PERFORMER "Mega Man X3 [PS]" INDEX 00 02:29:45FILE "30 - Opening.wav" WAVE INDEX 01 00:00:00 TRACK 31 AUDIO TITLE "Title" PERFORMER "Mega Man X3 [PS]" INDEX 00 01:15:55FILE "31 - Title.wav" WAVE INDEX 01 00:00:00 TRACK 32 AUDIO TITLE "Password" PERFORMER "Mega Man X3 [PS]" INDEX 00 00:12:27FILE "32 - Password.wav" WAVE INDEX 01 00:00:00 TRACK 33 AUDIO TITLE "Opening Stage Demo" PERFORMER "Mega Man X3 [PS]" INDEX 00 00:39:27FILE "33 - Opening Stage Demo.wav" WAVE INDEX 01 00:00:00 TRACK 34 AUDIO TITLE "Opening Stage" PERFORMER "Mega Man X3 [PS]" INDEX 00 00:26:20FILE "34 - Opening Stage.wav" WAVE INDEX 01 00:00:00 TRACK 35 AUDIO TITLE "Zero" PERFORMER "Mega Man X3 [PS]" INDEX 00 01:58:47FILE "35 - Zero.wav" WAVE INDEX 01 00:00:00 TRACK 36 AUDIO TITLE "Stage Select 1" PERFORMER "Mega Man X3 [PS]" INDEX 00 00:50:40FILE "36 - Stage Select 1.wav" WAVE INDEX 01 00:00:00 TRACK 37 AUDIO TITLE "Explose Horneck Demo" PERFORMER "Mega Man X3 [PS]" INDEX 00 00:17:40FILE "37 - Explose Horneck Demo.wav" WAVE INDEX 01 00:00:00 TRACK 38 AUDIO TITLE "Explose Horneck Stage" PERFORMER "Mega Man X3 [PS]" INDEX 00 00:23:20FILE "38 - Explose Horneck Stage.wav" WAVE INDEX 01 00:00:00 TRACK 39 AUDIO TITLE "Frozen Buffalio Demo" PERFORMER "Mega Man X3 [PS]" INDEX 00 01:50:43FILE "39 - Frozen Buffalio Demo.wav" WAVE INDEX 01 00:00:00 TRACK 40 AUDIO TITLE "Frozen Buffalio Stage" PERFORMER "Mega Man X3 [PS]" INDEX 00 00:27:62FILE "40 - Frozen Buffalio Stage.wav" WAVE INDEX 01 00:00:00 TRACK 41 AUDIO TITLE "Gravity Beetbood Demo" PERFORMER "Mega Man X3 [PS]" INDEX 00 01:46:48FILE "41 - Gravity Beetbood Demo.wav" WAVE INDEX 01 00:00:00 TRACK 42 AUDIO TITLE "Gravity Beetbood Stage" PERFORMER "Mega Man X3 [PS]" INDEX 00 00:24:23FILE "42 - Gravity Beetbood Stage.wav" WAVE INDEX 01 00:00:00 TRACK 43 AUDIO TITLE "Acid Seaforce Demo" PERFORMER "Mega Man X3 [PS]" INDEX 00 01:56:02FILE "43 - Acid Seaforce Demo.wav" WAVE INDEX 01 00:00:00 TRACK 44 AUDIO TITLE "Acid Seaforce Stage" PERFORMER "Mega Man X3 [PS]" INDEX 00 00:23:02FILE "44 - Acid Seaforce Stage.wav" WAVE INDEX 01 00:00:00 TRACK 45 AUDIO TITLE "Electro Namazuros Demo" PERFORMER "Mega Man X3 [PS]" INDEX 00 01:51:02FILE "45 - Electro Namazuros Demo.wav" WAVE INDEX 01 00:00:00 TRACK 46 AUDIO TITLE "Electro Namazuros Stage" PERFORMER "Mega Man X3 [PS]" INDEX 00 00:21:13FILE "46 - Electro Namazuros Stage.wav" WAVE INDEX 01 00:00:00 TRACK 47 AUDIO TITLE "Scissors Shrimper Demo" PERFORMER "Mega Man X3 [PS]" INDEX 00 01:49:53FILE "47 - Scissors Shrimper Demo.wav" WAVE INDEX 01 00:00:00 TRACK 48 AUDIO TITLE "Scissors Shrimper Stage" PERFORMER "Mega Man X3 [PS]" INDEX 00 00:21:05FILE "48 - Scissors Shrimper Stage.wav" WAVE INDEX 01 00:00:00 TRACK 49 AUDIO TITLE "Screw Masaider Demo" PERFORMER "Mega Man X3 [PS]" INDEX 00 01:33:55FILE "49 - Screw Masaider Demo.wav" WAVE INDEX 01 00:00:00 TRACK 50 AUDIO TITLE "Screw Masaider Stage" PERFORMER "Mega Man X3 [PS]" INDEX 00 00:20:55FILE "50 - Screw Masaider Stage.wav" WAVE INDEX 01 00:00:00 TRACK 51 AUDIO TITLE "Shining Tigerd Demo" PERFORMER "Mega Man X3 [PS]" INDEX 00 01:45:45FILE "51 - Shining Tigerd Demo.wav" WAVE INDEX 01 00:00:00 TRACK 52 AUDIO TITLE "Shining Tigerd Stage" PERFORMER "Mega Man X3 [PS]" INDEX 00 00:20:65FILE "52 - Shining Tigerd Stage.wav" WAVE INDEX 01 00:00:00 TRACK 53 AUDIO TITLE "Vava Stage" PERFORMER "Mega Man X3 [PS]" INDEX 00 01:33:55FILE "53 - Vava Stage.wav" WAVE INDEX 01 00:00:00 TRACK 54 AUDIO TITLE "Boss 1" PERFORMER "Mega Man X3 [PS]" INDEX 00 01:28:13FILE "54 - Boss 1.wav" WAVE INDEX 01 00:00:00 TRACK 55 AUDIO TITLE "Boss 2" PERFORMER "Mega Man X3 [PS]" INDEX 00 00:42:72FILE "55 - Boss 2.wav" WAVE INDEX 01 00:00:00 TRACK 56 AUDIO TITLE "Stage Clear" PERFORMER "Mega Man X3 [PS]" INDEX 00 00:33:57FILE "56 - Stage Clear.wav" WAVE INDEX 01 00:00:00 TRACK 57 AUDIO TITLE "Demo" PERFORMER "Mega Man X3 [PS]" INDEX 00 00:08:13FILE "57 - Demo.wav" WAVE INDEX 01 00:00:00 TRACK 58 AUDIO TITLE "Stage Select 2" PERFORMER "Mega Man X3 [PS]" INDEX 00 00:19:00FILE "58 - Stage Select 2.wav" WAVE INDEX 01 00:00:00 TRACK 59 AUDIO TITLE "Doppler Stage 1" PERFORMER "Mega Man X3 [PS]" INDEX 00 00:26:33FILE "59 - Doppler Stage 1.wav" WAVE INDEX 01 00:00:00 TRACK 60 AUDIO TITLE "Doppler Stage 2" PERFORMER "Mega Man X3 [PS]" INDEX 00 01:35:17FILE "60 - Doppler Stage 2.wav" WAVE INDEX 01 00:00:00 TRACK 61 AUDIO TITLE "Doppler Stage Boss" PERFORMER "Mega Man X3 [PS]" INDEX 00 02:18:27FILE "61 - Doppler Stage Boss.wav" WAVE INDEX 01 00:00:00 TRACK 62 AUDIO TITLE "Sigma 1st" PERFORMER "Mega Man X3 [PS]" INDEX 00 00:33:57FILE "62 - Sigma 1st.wav" WAVE INDEX 01 00:00:00 TRACK 63 AUDIO TITLE "Sigma 2nd" PERFORMER "Mega Man X3 [PS]" INDEX 00 00:48:15FILE "63 - Sigma 2nd.wav" WAVE INDEX 01 00:00:00 TRACK 64 AUDIO TITLE "Doppler Demo" PERFORMER "Mega Man X3 [PS]" INDEX 00 00:57:15FILE "64 - Doppler Demo.wav" WAVE INDEX 01 00:00:00 TRACK 65 AUDIO TITLE "Dr. Kein Demo" PERFORMER "Mega Man X3 [PS]" INDEX 00 01:11:00FILE "65 - Dr. Kein Demo.wav" WAVE INDEX 01 00:00:00 TRACK 66 AUDIO TITLE "Dr. Right Demo" PERFORMER "Mega Man X3 [PS]" INDEX 00 00:29:67FILE "66 - Dr. Right Demo.wav" WAVE INDEX 01 00:00:00 TRACK 67 AUDIO TITLE "Ending 1" PERFORMER "Mega Man X3 [PS]" INDEX 00 00:46:07FILE "67 - Ending 1.wav" WAVE INDEX 01 00:00:00 TRACK 68 AUDIO TITLE "Ending 2" PERFORMER "Mega Man X3 [PS]" INDEX 00 01:57:73FILE "68 - Ending 2.wav" WAVE INDEX 01 00:00:00 TRACK 69 AUDIO TITLE "Cast Roll" PERFORMER "Mega Man X3 [PS]" INDEX 00 00:20:13FILE "69 - Cast Roll.wav" WAVE INDEX 01 00:00:00
01 TITLE 0:15
02 PLAYER SELECT 0:24
03 STAGE SELECT 1:07
04 OPENING STAGE X 2:02
05 OPENING STAGE ZERO 1:39
06 EREGION 1:14
07 STAGE START 0:16
08 WEB SPIDUS STAGE 2:49
09 CYBER KUJACKER STAGE 2:33
10 STORM FUKUROUL STAGE 2:21
11 MAGMARD DRAGOON STAGE 1:58
12 JET STINGREN STAGE 1:54
13 SPRIT MUSHROOM STAGE 2:44
14 SLASH BEASTLEO STAGE 2:47
15 FROST KIBATODOS STAGE 1 2:14
16 FROST KIBATODOS STAGE 2 2:35
17 BOSS 1:16
18 STAGE CLEAR X 0:11
19 STAGE CLEAR ZERO 0:11
20 GET A WEAPON 0:39
21 STAGE SELECT 2 0:45
22 FINAL WEAPON STAGE 1 1:33
23 COLONEL&GENERAL 1:11
24 FINAL WEAPON STAGE 2 2:50
25 DOUBLE 1:47
26 IRIS 1:52
27 SIGMA 1st 2:07
28 SIGMA 2nd 1:36
29 Dr.RIGHT 0:46
30 DEMO 1 0:48
31 DEMO 2 0:33
32 SIGMA DEMO 0:44
33 INDEPENDENCE 0:34
34 BETRAYAL OF DOUBLE 0:31
35 ENDING X 0:24
36 MEMORY OF PAST 1 0:39
37 MEMORY OF PAST 2 0:22
38 COLONEL VS ZERO 0:24
39 PAST OF ZERO 1:42
40 ENDING ZERO 0:30
 
Exact Audio Copy V0.99 prebeta 4 from 23. January 2008

EAC extraction logfile from 10. February 2009, 23:24

Capcom / Rockman X1-6 Disc 3

Used drive : _NEC DVD+RW ND-2100AD Adapter: 0 ID: 1

Read mode : SecureUtilize accurate stream : YesDefeat audio cache : YesMake use of C2 pointers : No

Read offset correction : 48Overread into Lead-In and Lead-Out : NoFill up missing offset samples with silence : YesDelete leading and trailing silent blocks : NoNull samples used in CRC calculations : YesUsed interface : Native Win32 interface for Win NT & 2000Gap handling : Appended to previous track

Used output format : User Defined EncoderSelected bitrate : 128 kBit/sQuality : HighAdd ID3 tag : NoCommand line compressor : F:\Program Files\FLAC\flac.exeAdditional command line options : -V -8 -T "artist=%a" -T "title=%t" -T "album=%g" -T "date=%y" -T "tracknumber=%n" -T "genre=%m" %s

TOC of the extracted CD

Track | Start | Length | Start sector | End sector --------------------------------------------------------- 1 | 0:00.00 | 0:15.35 | 0 | 1159 2 | 0:15.35 | 0:23.72 | 1160 | 2956 3 | 0:39.32 | 1:07.08 | 2957 | 7989 4 | 1:46.40 | 2:02.37 | 7990 | 17176 5 | 3:49.02 | 1:39.05 | 17177 | 24606 6 | 5:28.07 | 1:14.10 | 24607 | 30166 7 | 6:42.17 | 0:16.25 | 30167 | 31391 8 | 6:58.42 | 2:48.68 | 31392 | 44059 9 | 9:47.35 | 2:33.25 | 44060 | 55559 10 | 12:20.60 | 2:21.35 | 55560 | 66169 11 | 14:42.20 | 1:57.72 | 66170 | 75016 12 | 16:40.17 | 1:53.58 | 75017 | 83549 13 | 18:34.00 | 2:44.27 | 83550 | 95876 14 | 21:18.27 | 2:47.08 | 95877 | 108409 15 | 24:05.35 | 2:14.10 | 108410 | 118469 16 | 26:19.45 | 2:35.32 | 118470 | 130126 17 | 28:55.02 | 1:15.40 | 130127 | 135791 18 | 30:10.42 | 0:10.60 | 135792 | 136601 19 | 30:21.27 | 0:11.23 | 136602 | 137449 20 | 30:32.50 | 0:38.67 | 137450 | 140366 21 | 31:11.42 | 0:45.03 | 140367 | 143744 22 | 31:56.45 | 1:33.30 | 143745 | 150749 23 | 33:30.00 | 1:10.55 | 150750 | 156054 24 | 34:40.55 | 2:50.37 | 156055 | 168841 25 | 37:31.17 | 1:47.05 | 168842 | 176871 26 | 39:18.22 | 1:52.23 | 176872 | 185294 27 | 41:10.45 | 2:07.12 | 185295 | 194831 28 | 43:17.57 | 1:36.03 | 194832 | 202034 29 | 44:53.60 | 0:46.35 | 202035 | 205519 30 | 45:40.20 | 0:48.27 | 205520 | 209146 31 | 46:28.47 | 0:33.30 | 209147 | 211651 32 | 47:02.02 | 0:44.05 | 211652 | 214956 33 | 47:46.07 | 0:33.68 | 214957 | 217499 34 | 48:20.00 | 0:30.45 | 217500 | 219794 35 | 48:50.45 | 0:24.10 | 219795 | 221604 36 | 49:14.55 | 0:39.27 | 221605 | 224556 37 | 49:54.07 | 0:21.60 | 224557 | 226191 38 | 50:15.67 | 0:24.10 | 226192 | 228001 39 | 50:40.02 | 1:41.63 | 228002 | 235639 40 | 52:21.65 | 0:29.62 | 235640 | 237876

Track 1

Filename F:\Documents and Settings\Jack\My Documents\My Music\01 - Title.wav

Pre-gap length 0:00:02.00

Peak level 88.4 % Track quality 100.0 % Test CRC A3CBB482 Copy CRC A3CBB482 Accurately ripped (confidence 4) [8A907489] Copy OK

Track 2

Filename F:\Documents and Settings\Jack\My Documents\My Music\02 - Player Select.wav

Pre-gap length 0:00:01.58

Peak level 89.3 % Track quality 100.0 % Test CRC 82762C94 Copy CRC 82762C94 Accurately ripped (confidence 4) [0A583D25] Copy OK

Track 3

Filename F:\Documents and Settings\Jack\My Documents\My Music\03 - Stage Select 1.wav

Pre-gap length 0:00:01.45

Peak level 88.4 % Track quality 100.0 % Test CRC 701DEBE3 Copy CRC 701DEBE3 Accurately ripped (confidence 4) [68390D6D] Copy OK

Track 4

Filename F:\Documents and Settings\Jack\My Documents\My Music\04 - Opening Stage X.wav

Pre-gap length 0:00:01.45

Peak level 81.5 % Track quality 100.0 % Test CRC 565C56F0 Copy CRC 565C56F0 Accurately ripped (confidence 4) [C7787910] Copy OK

Track 5

Filename F:\Documents and Settings\Jack\My Documents\My Music\05 - Opening Stage Zero.wav

Pre-gap length 0:00:01.57

Peak level 80.6 % Track quality 100.0 % Test CRC C8502F0E Copy CRC C8502F0E Accurately ripped (confidence 4) [BF8ACE2A] Copy OK

Track 6

Filename F:\Documents and Settings\Jack\My Documents\My Music\06 - Eregion.wav

Pre-gap length 0:00:01.47

Peak level 79.7 % Track quality 100.0 % Test CRC 130CB4B5 Copy CRC 130CB4B5 Accurately ripped (confidence 4) [9213101A] Copy OK

Track 7

Filename F:\Documents and Settings\Jack\My Documents\My Music\07 - Stage Start.wav

Pre-gap length 0:00:01.45

Peak level 85.4 % Track quality 100.0 % Test CRC 8558EF17 Copy CRC 8558EF17 Accurately ripped (confidence 4) [4ADE28D2] Copy OK

Track 8

Filename F:\Documents and Settings\Jack\My Documents\My Music\08 - Web Spidus Stage.wav

Pre-gap length 0:00:01.52

Peak level 89.4 % Track quality 100.0 % Test CRC A70D23ED Copy CRC A70D23ED Accurately ripped (confidence 4) [30002012] Copy OK

Track 9

Filename F:\Documents and Settings\Jack\My Documents\My Music\09 - Cyber Kujacker Stage.wav

Pre-gap length 0:00:01.53

Peak level 88.4 % Track quality 100.0 % Test CRC 1D01FC0B Copy CRC 1D01FC0B Accurately ripped (confidence 4) [A0872FC0] Copy OK

Track 10

Filename F:\Documents and Settings\Jack\My Documents\My Music\10 - Storm Fukuroul Stage.wav

Pre-gap length 0:00:01.53

Peak level 90.4 % Track quality 99.9 % Test CRC DF811BAE Copy CRC DF811BAE Accurately ripped (confidence 4) [AB1D5815] Copy OK

Track 11

Filename F:\Documents and Settings\Jack\My Documents\My Music\11 - Magmard Dragoon Stage.wav

Pre-gap length 0:00:01.63

Peak level 88.4 % Track quality 100.0 % Test CRC 061B5BC9 Copy CRC 061B5BC9 Accurately ripped (confidence 4) [E840C0BE] Copy OK

Track 12

Filename F:\Documents and Settings\Jack\My Documents\My Music\12 - Jet Stingren Stage.wav

Pre-gap length 0:00:01.50

Peak level 80.6 % Track quality 100.0 % Test CRC 0148D04C Copy CRC 0148D04C Accurately ripped (confidence 4) [70D54B02] Copy OK

Track 13

Filename F:\Documents and Settings\Jack\My Documents\My Music\13 - Sprit Mushroom Stage.wav

Pre-gap length 0:00:01.63

Peak level 87.4 % Track quality 99.9 % Test CRC 9A553C23 Copy CRC 9A553C23 Accurately ripped (confidence 4) [F896D62F] Copy OK

Track 14

Filename F:\Documents and Settings\Jack\My Documents\My Music\14 - Slash Beastleo Stage.wav

Pre-gap length 0:00:01.50

Peak level 96.9 % Track quality 100.0 % Test CRC 4EA62584 Copy CRC 4EA62584 Accurately ripped (confidence 4) [4B49EE9A] Copy OK

Track 15

Filename F:\Documents and Settings\Jack\My Documents\My Music\15 - Frost Kibatodos Stage 1.wav

Pre-gap length 0:00:01.60

Peak level 91.5 % Track quality 99.9 % Test CRC BA1BAFCF Copy CRC BA1BAFCF Accurately ripped (confidence 4) [F6DD7BCF] Copy OK

Track 16

Filename F:\Documents and Settings\Jack\My Documents\My Music\16 - Frost Kibatodos Stage 2.wav

Pre-gap length 0:00:01.53

Peak level 98.0 % Track quality 100.0 % Test CRC A695DC8F Copy CRC A695DC8F Accurately ripped (confidence 4) [CCBAFD55] Copy OK

Track 17

Filename F:\Documents and Settings\Jack\My Documents\My Music\17 - Boss.wav

Pre-gap length 0:00:01.57

Peak level 87.4 % Track quality 100.0 % Test CRC C331DD69 Copy CRC C331DD69 Accurately ripped (confidence 4) [F2AA0495] Copy OK

Track 18

Filename F:\Documents and Settings\Jack\My Documents\My Music\18 - Stage Clear X.wav

Pre-gap length 0:00:01.50

Peak level 90.4 % Track quality 100.0 % Test CRC 0222ED35 Copy CRC 0222ED35 Accurately ripped (confidence 4) [687A08FA] Copy OK

Track 19

Filename F:\Documents and Settings\Jack\My Documents\My Music\19 - Stage Clear Zero.wav

Pre-gap length 0:00:01.57

Peak level 90.4 % Track quality 99.0 % Test CRC F4328045 Copy CRC F4328045 Accurately ripped (confidence 4) [4066EDB6] Copy OK

Track 20

Filename F:\Documents and Settings\Jack\My Documents\My Music\20 - Get a Weapon.wav

Pre-gap length 0:00:01.53

Peak level 90.4 % Track quality 100.0 % Test CRC 2EE6F427 Copy CRC 2EE6F427 Accurately ripped (confidence 4) [1B97CD5B] Copy OK

Track 21

Filename F:\Documents and Settings\Jack\My Documents\My Music\21 - Stage Select 2.wav

Pre-gap length 0:00:01.50

Peak level 90.4 % Track quality 100.0 % Test CRC EC69335C Copy CRC EC69335C Accurately ripped (confidence 4) [70E5DAE0] Copy OK

Track 22

Filename F:\Documents and Settings\Jack\My Documents\My Music\22 - Final Weapon Stage 1.wav

Pre-gap length 0:00:01.55

Peak level 82.5 % Track quality 100.0 % Test CRC 242F6442 Copy CRC 242F6442 Accurately ripped (confidence 4) [0958C432] Copy OK

Track 23

Filename F:\Documents and Settings\Jack\My Documents\My Music\23 - Colonel & General.wav

Pre-gap length 0:00:01.58

Peak level 89.4 % Track quality 99.8 % Test CRC A568BF4E Copy CRC A568BF4E Accurately ripped (confidence 4) [14E6D24F] Copy OK

Track 24

Filename F:\Documents and Settings\Jack\My Documents\My Music\24 - Final Weapon Stage 2.wav

Pre-gap length 0:00:01.58

Peak level 89.1 % Track quality 100.0 % Test CRC D403B532 Copy CRC D403B532 Accurately ripped (confidence 4) [4B26BF97] Copy OK

Track 25

Filename F:\Documents and Settings\Jack\My Documents\My Music\25 - Double.wav

Pre-gap length 0:00:01.57

Peak level 85.3 % Track quality 100.0 % Test CRC F16C66C0 Copy CRC F16C66C0 Accurately ripped (confidence 4) [D9113EFA] Copy OK

Track 26

Filename F:\Documents and Settings\Jack\My Documents\My Music\26 - Iris.wav

Pre-gap length 0:00:01.52

Peak level 93.5 % Track quality 100.0 % Test CRC 773B04AB Copy CRC 773B04AB Accurately ripped (confidence 4) [5E21CEEB] Copy OK

Track 27

Filename F:\Documents and Settings\Jack\My Documents\My Music\27 - Sigma 1st.wav

Pre-gap length 0:00:01.50

Peak level 81.5 % Track quality 99.9 % Test CRC 0C1963F2 Copy CRC 0C1963F2 Accurately ripped (confidence 4) [AA4ADCAE] Copy OK

Track 28

Filename F:\Documents and Settings\Jack\My Documents\My Music\28 - Sigma 2nd.wav

Pre-gap length 0:00:01.52

Peak level 81.5 % Track quality 100.0 % Test CRC 78C1F3DA Copy CRC 78C1F3DA Accurately ripped (confidence 4) [89726C52] Copy OK

Track 29

Filename F:\Documents and Settings\Jack\My Documents\My Music\29 - Dr. Right.wav

Pre-gap length 0:00:01.55

Peak level 86.1 % Track quality 99.7 % Test CRC 37EE6BE7 Copy CRC 37EE6BE7 Accurately ripped (confidence 4) [535BD943] Copy OK

Track 30

Filename F:\Documents and Settings\Jack\My Documents\My Music\30 - Demo 1.wav

Pre-gap length 0:00:01.50

Peak level 82.2 % Track quality 100.0 % Test CRC CD0A1F9A Copy CRC CD0A1F9A Accurately ripped (confidence 4) [AC4E9E2E] Copy OK

Track 31

Filename F:\Documents and Settings\Jack\My Documents\My Music\31 - Demo 2.wav

Pre-gap length 0:00:01.52

Peak level 85.1 % Track quality 100.0 % Test CRC 7730AE2C Copy CRC 7730AE2C Accurately ripped (confidence 4) [E5210854] Copy OK

Track 32

Filename F:\Documents and Settings\Jack\My Documents\My Music\32 - Sigma Demo.wav

Pre-gap length 0:00:01.55

Peak level 81.5 % Track quality 100.0 % Test CRC 318B5BE4 Copy CRC 318B5BE4 Accurately ripped (confidence 4) [95B5F86F] Copy OK

Track 33

Filename F:\Documents and Settings\Jack\My Documents\My Music\33 - Independence.wav

Pre-gap length 0:00:01.47

Peak level 84.4 % Track quality 100.0 % Test CRC 7887BB37 Copy CRC 7887BB37 Accurately ripped (confidence 4) [97058E1B] Copy OK

Track 34

Filename F:\Documents and Settings\Jack\My Documents\My Music\34 - Betrayal of Double.wav

Pre-gap length 0:00:01.55

Peak level 91.5 % Track quality 100.0 % Test CRC EF7AC678 Copy CRC EF7AC678 Accurately ripped (confidence 4) [3F625F2E] Copy OK

Track 35

Filename F:\Documents and Settings\Jack\My Documents\My Music\35 - Ending X.wav

Pre-gap length 0:00:01.55

Peak level 85.1 % Track quality 100.0 % Test CRC 4C1114D7 Copy CRC 4C1114D7 Accurately ripped (confidence 4) [9C9F387E] Copy OK

Track 36

Filename F:\Documents and Settings\Jack\My Documents\My Music\36 - Memory of Past 1.wav

Pre-gap length 0:00:01.63

Peak level 85.1 % Track quality 100.0 % Test CRC 5FA11FB1 Copy CRC 5FA11FB1 Accurately ripped (confidence 4) [41051A07] Copy OK

Track 37

Filename F:\Documents and Settings\Jack\My Documents\My Music\37 - Memory of Past 2.wav

Pre-gap length 0:00:01.47

Peak level 95.8 % Track quality 100.0 % Test CRC 2C4E07EE Copy CRC 2C4E07EE Accurately ripped (confidence 4) [04565202] Copy OK

Track 38

Filename F:\Documents and Settings\Jack\My Documents\My Music\38 - Colonel vs. Zero.wav

Pre-gap length 0:00:01.52

Peak level 84.4 % Track quality 100.0 % Test CRC 819347AC Copy CRC 819347AC Accurately ripped (confidence 4) [1F1C3978] Copy OK

Track 39

Filename F:\Documents and Settings\Jack\My Documents\My Music\39 - Past of Zero.wav

Pre-gap length 0:00:01.52

Peak level 84.4 % Track quality 100.0 % Test CRC 0B5A539E Copy CRC 0B5A539E Accurately ripped (confidence 4) [7D9BBCA1] Copy OK

Track 40

Filename F:\Documents and Settings\Jack\My Documents\My Music\40 - Ending Zero.wav

Pre-gap length 0:00:01.50

Peak level 81.6 % Track quality 100.0 % Test CRC 1EA7CC51 Copy CRC 1EA7CC51 Accurately ripped (confidence 4) [C246B1DD] Copy OK

All tracks accurately ripped

No errors occurred

End of status report
 
REM GENRE SoundtrackREM DATE 2003REM DISCID 1E0C6328REM COMMENT "ExactAudioCopy v0.99pb4"PERFORMER "Capcom"TITLE "Rockman X1-6 Disc 3"FILE "01 - Title.wav" WAVE TRACK 01 AUDIO TITLE "Title" PERFORMER "Mega Man X4" INDEX 01 00:00:00 TRACK 02 AUDIO TITLE "Player Select" PERFORMER "Mega Man X4" INDEX 00 00:13:52FILE "02 - Player Select.wav" WAVE INDEX 01 00:00:00 TRACK 03 AUDIO TITLE "Stage Select 1" PERFORMER "Mega Man X4" INDEX 00 00:22:27FILE "03 - Stage Select 1.wav" WAVE INDEX 01 00:00:00 TRACK 04 AUDIO TITLE "Opening Stage X" PERFORMER "Mega Man X4" INDEX 00 01:05:38FILE "04 - Opening Stage X.wav" WAVE INDEX 01 00:00:00 TRACK 05 AUDIO TITLE "Opening Stage Zero" PERFORMER "Mega Man X4" INDEX 00 02:00:55FILE "05 - Opening Stage Zero.wav" WAVE INDEX 01 00:00:00 TRACK 06 AUDIO TITLE "Eregion" PERFORMER "Mega Man X4" INDEX 00 01:37:33FILE "06 - Eregion.wav" WAVE INDEX 01 00:00:00 TRACK 07 AUDIO TITLE "Stage Start" PERFORMER "Mega Man X4" INDEX 00 01:12:40FILE "07 - Stage Start.wav" WAVE INDEX 01 00:00:00 TRACK 08 AUDIO TITLE "Web Spidus Stage" PERFORMER "Mega Man X4" INDEX 00 00:14:48FILE "08 - Web Spidus Stage.wav" WAVE INDEX 01 00:00:00 TRACK 09 AUDIO TITLE "Cyber Kujacker Stage" PERFORMER "Mega Man X4" INDEX 00 02:47:15FILE "09 - Cyber Kujacker Stage.wav" WAVE INDEX 01 00:00:00 TRACK 10 AUDIO TITLE "Storm Fukuroul Stage" PERFORMER "Mega Man X4" INDEX 00 02:31:47FILE "10 - Storm Fukuroul Stage.wav" WAVE INDEX 01 00:00:00 TRACK 11 AUDIO TITLE "Magmard Dragoon Stage" PERFORMER "Mega Man X4" INDEX 00 02:19:47FILE "11 - Magmard Dragoon Stage.wav" WAVE INDEX 01 00:00:00 TRACK 12 AUDIO TITLE "Jet Stingren Stage" PERFORMER "Mega Man X4" INDEX 00 01:56:22FILE "12 - Jet Stingren Stage.wav" WAVE INDEX 01 00:00:00 TRACK 13 AUDIO TITLE "Sprit Mushroom Stage" PERFORMER "Mega Man X4" INDEX 00 01:51:70FILE "13 - Sprit Mushroom Stage.wav" WAVE INDEX 01 00:00:00 TRACK 14 AUDIO TITLE "Slash Beastleo Stage" PERFORMER "Mega Man X4" INDEX 00 02:42:52FILE "14 - Slash Beastleo Stage.wav" WAVE INDEX 01 00:00:00 TRACK 15 AUDIO TITLE "Frost Kibatodos Stage 1" PERFORMER "Mega Man X4" INDEX 00 02:45:23FILE "15 - Frost Kibatodos Stage 1.wav" WAVE INDEX 01 00:00:00 TRACK 16 AUDIO TITLE "Frost Kibatodos Stage 2" PERFORMER "Mega Man X4" INDEX 00 02:12:32FILE "16 - Frost Kibatodos Stage 2.wav" WAVE INDEX 01 00:00:00 TRACK 17 AUDIO TITLE "Boss" PERFORMER "Mega Man X4" INDEX 00 02:33:50FILE "17 - Boss.wav" WAVE INDEX 01 00:00:00 TRACK 18 AUDIO TITLE "Stage Clear X" PERFORMER "Mega Man X4" INDEX 00 01:13:65FILE "18 - Stage Clear X.wav" WAVE INDEX 01 00:00:00 TRACK 19 AUDIO TITLE "Stage Clear Zero" PERFORMER "Mega Man X4" INDEX 00 00:09:03FILE "19 - Stage Clear Zero.wav" WAVE INDEX 01 00:00:00 TRACK 20 AUDIO TITLE "Get a Weapon" PERFORMER "Mega Man X4" INDEX 00 00:09:45FILE "20 - Get a Weapon.wav" WAVE INDEX 01 00:00:00 TRACK 21 AUDIO TITLE "Stage Select 2" PERFORMER "Mega Man X4" INDEX 00 00:37:17FILE "21 - Stage Select 2.wav" WAVE INDEX 01 00:00:00 TRACK 22 AUDIO TITLE "Final Weapon Stage 1" PERFORMER "Mega Man X4" INDEX 00 00:43:23FILE "22 - Final Weapon Stage 1.wav" WAVE INDEX 01 00:00:00 TRACK 23 AUDIO TITLE "Colonel & General" PERFORMER "Mega Man X4" INDEX 00 01:31:47FILE "23 - Colonel & General.wav" WAVE INDEX 01 00:00:00 TRACK 24 AUDIO TITLE "Final Weapon Stage 2" PERFORMER "Mega Man X4" INDEX 00 01:08:72FILE "24 - Final Weapon Stage 2.wav" WAVE INDEX 01 00:00:00 TRACK 25 AUDIO TITLE "Double" PERFORMER "Mega Man X4" INDEX 00 02:48:55FILE "25 - Double.wav" WAVE INDEX 01 00:00:00 TRACK 26 AUDIO TITLE "Iris" PERFORMER "Mega Man X4" INDEX 00 01:45:28FILE "26 - Iris.wav" WAVE INDEX 01 00:00:00 TRACK 27 AUDIO TITLE "Sigma 1st" PERFORMER "Mega Man X4" INDEX 00 01:50:48FILE "27 - Sigma 1st.wav" WAVE INDEX 01 00:00:00 TRACK 28 AUDIO TITLE "Sigma 2nd" PERFORMER "Mega Man X4" INDEX 00 02:05:35FILE "28 - Sigma 2nd.wav" WAVE INDEX 01 00:00:00 TRACK 29 AUDIO TITLE "Dr. Right" PERFORMER "Mega Man X4" INDEX 00 01:34:23FILE "29 - Dr. Right.wav" WAVE INDEX 01 00:00:00 TRACK 30 AUDIO TITLE "Demo 1" PERFORMER "Mega Man X4" INDEX 00 00:44:60FILE "30 - Demo 1.wav" WAVE INDEX 01 00:00:00 TRACK 31 AUDIO TITLE "Demo 2" PERFORMER "Mega Man X4" INDEX 00 00:46:50FILE "31 - Demo 2.wav" WAVE INDEX 01 00:00:00 TRACK 32 AUDIO TITLE "Sigma Demo" PERFORMER "Mega Man X4" INDEX 00 00:31:50FILE "32 - Sigma Demo.wav" WAVE INDEX 01 00:00:00 TRACK 33 AUDIO TITLE "Independence" PERFORMER "Mega Man X4" INDEX 00 00:42:33FILE "33 - Independence.wav" WAVE INDEX 01 00:00:00 TRACK 34 AUDIO TITLE "Betrayal of Double" PERFORMER "Mega Man X4" INDEX 00 00:32:13FILE "34 - Betrayal of Double.wav" WAVE INDEX 01 00:00:00 TRACK 35 AUDIO TITLE "Ending X" PERFORMER "Mega Man X4" INDEX 00 00:28:65FILE "35 - Ending X.wav" WAVE INDEX 01 00:00:00 TRACK 36 AUDIO TITLE "Memory of Past 1" PERFORMER "Mega Man X4" INDEX 00 00:22:22FILE "36 - Memory of Past 1.wav" WAVE INDEX 01 00:00:00 TRACK 37 AUDIO TITLE "Memory of Past 2" PERFORMER "Mega Man X4" INDEX 00 00:37:55FILE "37 - Memory of Past 2.wav" WAVE INDEX 01 00:00:00 TRACK 38 AUDIO TITLE "Colonel vs. Zero" PERFORMER "Mega Man X4" INDEX 00 00:20:08FILE "38 - Colonel vs. Zero.wav" WAVE INDEX 01 00:00:00 TRACK 39 AUDIO TITLE "Past of Zero" PERFORMER "Mega Man X4" INDEX 00 00:22:33FILE "39 - Past of Zero.wav" WAVE INDEX 01 00:00:00 TRACK 40 AUDIO TITLE "Ending Zero" PERFORMER "Mega Man X4" INDEX 00 01:40:13FILE "40 - Ending Zero.wav" WAVE INDEX 01 00:00:00
Disc 1: Rockman X1 (01~35)
Setsuo Yamamoto (04, 07, 18, 24, 28~30)
Makoto Tomozawa (05, 06)
Yuki Iwai
Yuko Takehara
Toshihiko Horiyama

Sound Design: Tadashi Joukagi (ELF) (35)

Disc 1: Rockman X2 (36~65)
Yuki Iwai

Disc 2: Rockman X3 (01~29)
Kinuyo Yamashita (Minakuchi Engineering Staff)

Rockman X3 Playstation (30~69)
Toshihiko Horiyama
Syusaku Uchiyama
Yoshino Aoki
Makoto Tomozawa

Disc 3: Rockman X4
Toshihiko Horiyama

Disc 4: Rockman X5
Naoto Tanaka
Naoya Kamisaka
Takuya Miyawaki

Disc 5: Rockman X6 (01~25)
Akemi Kimura (Naoto Tanaka)

Disc 5 (26~31) (Composed according to aforementioned series composers)

In a recent interview, Kinuyo Yamashita stated that she composed and programmed all the music for Rockman X3, even though she is unofficially credited on this soundtrack as Minakuchi Engineering Staff. This relates to Minakuchi Engineering, the company she produced the soundtrack for.

NOTE: Dr.Kein Demo, Sprit Mushroom Stage, and "Unused Track" Armagedon are misspelled here. The correct spellings are Dr.Cain Demo, Split Mushroom Stage, and "Unused Track" Armageddon, respectively.


Трекер:  [ 03-Фев-2012 20:17 ]

  

Скачать .torrent

Размер .torrent файла 31 KB


Размер: 2.06 GB
Хэш (hash) релиза: 5ae0237d811e5b8e359ca3b2012a36fd7efdf5cb

bot

Топик был перенесен в форум Саундтреки к аниме (lossless)

Перенес Galfimbul

Хотите добавить комментарий к записи скачать торрент Capcom Music Generation Rockman X1~6 - 2003, FLAC

!Обратная связь