SuperGirl
HD 720P Tezz

Скачать через торрент музыку Red Orchestra 2 : Герои Сталинграда бесплатно без регистрации torrent

Статистика раздачи
Размер:  262 MB   |    Зарегистрирован:  6 лет 2 месяца   |    .torrent скачан:  41 раз   |   
Раздают:  1  
   
загрузка...
 
Автор Сообщение

Galfimbul

avatar Galfimbul



Жанр: Score
Композитор: Sam Hulick
Год выпуска диска: 2011
Аудиокодек: FLAC (*.flac)
Тип рипа: tracks+.cue
Битрейт аудио: lossless
Продолжительность: 00:55:47
Источник: скачано с
сайт-источник/ник/другое: {ffshrine}
Наличие сканов в содержимом раздачи: нетСаундтрек Сэма Халика (Sam Hulick) с драматичными оркестровыми аранжировками выполнен на уровне высокого качества голливудских блокбастеров.
01 Storm Clouds over Stalingrad
02 The Unstoppable Wehrmacht
03 Steady We Must Stand
04 Strength in Unity
05 Taking Station No. 1
06 Not One Step Back
07 The Story of a Soldier
08 Devils in the Tower
09 Red Fortress
10 Reinforcing Pavlov's House
11 Pursuit of Pavlov
12 So Far from Home
13 Impenetrable
14 Zugzwang
15 The Descent into Hell
16 The Bitter End
17 Victory at the Barrikady
18 Across the Steppe
19 Ghosts in the Snow
20 Wave of Fury
21 Red-Painted Steppe
22 The Great Soviet Showpiece
23 Defiant till the Very End
24 Praying for Death
25 The End of the Line
 
Exact Audio Copy V1.0 beta 2 from 29. April 2011

EAC extraction logfile from 3. October 2011, 13:55

Sam Hulick / Red Orchestra 2 Heroes of Stalingrad

Used drive : Optiarc DVD RW AD-7243S Adapter: 1 ID: 1

Read mode : SecureUtilize accurate stream : YesDefeat audio cache : YesMake use of C2 pointers : No

Read offset correction : 48Overread into Lead-In and Lead-Out : NoFill up missing offset samples with silence : YesDelete leading and trailing silent blocks : NoNull samples used in CRC calculations : YesUsed interface : Native Win32 interface for Win NT & 2000Gap handling : Appended to previous track

Used output format : User Defined EncoderSelected bitrate : 1024 kBit/sQuality : HighAdd ID3 tag : NoCommand line compressor : C:\Program Files (x86)\Exact Audio Copy\FLAC\FLAC.EXEAdditional command line options : -8 -V -T "ARTIST=%artist%" -T "TITLE=%title%" -T "ALBUM=%albumtitle%" -T "DATE=%year%" -T "TRACKNUMBER=%tracknr%" -T "GENRE=%genre%" -T "PERFORMER=%albuminterpret%" -T "COMPOSER=%composer%" %haslyrics%--tag-from-file=LYRICS

TOC of the extracted CD

Track | Start | Length | Start sector | End sector --------------------------------------------------------- 1 | 0:00.00 | 3:12.45 | 0 | 14444 2 | 3:12.45 | 3:16.54 | 14445 | 29198 3 | 6:29.24 | 2:24.53 | 29199 | 40051 4 | 8:54.02 | 2:17.03 | 40052 | 50329 5 | 11:11.05 | 2:03.43 | 50330 | 59597 6 | 13:14.48 | 2:13.04 | 59598 | 69576 7 | 15:27.52 | 2:09.04 | 69577 | 79255 8 | 17:36.56 | 1:59.61 | 79256 | 88241 9 | 19:36.42 | 2:15.31 | 88242 | 98397 10 | 21:51.73 | 2:00.34 | 98398 | 107431 11 | 23:52.32 | 2:09.31 | 107432 | 117137 12 | 26:01.63 | 2:25.11 | 117138 | 128023 13 | 28:26.74 | 2:29.54 | 128024 | 139252 14 | 30:56.53 | 2:00.19 | 139253 | 148271 15 | 32:56.72 | 2:00.50 | 148272 | 157321 16 | 34:57.47 | 2:26.40 | 157322 | 168311 17 | 37:24.12 | 2:03.41 | 168312 | 177577 18 | 39:27.53 | 2:10.62 | 177578 | 187389 19 | 41:38.40 | 2:08.58 | 187390 | 197047 20 | 43:47.23 | 2:01.19 | 197048 | 206141 21 | 45:48.42 | 1:48.22 | 206142 | 214263 22 | 47:36.64 | 2:17.60 | 214264 | 224598 23 | 49:54.49 | 1:59.06 | 224599 | 233529 24 | 51:53.55 | 2:12.41 | 233530 | 243470 25 | 54:06.21 | 1:52.24 | 243471 | 251894

Track 1

Filename C:\Red Orchestra 2 Heroes of Stalingrad\01 Storm Clouds Over Stalingrad.wav

Pre-gap length 0:00:02.00

Peak level 98.0 % Extraction speed 2.2 X Track quality 100.0 % Test CRC 975442B5 Copy CRC 975442B5 Track not present in AccurateRip database Copy OK

Track 2

Filename C:\Red Orchestra 2 Heroes of Stalingrad\02 The Unstoppable Wehrmacht.wav

Pre-gap length 0:00:02.00

Peak level 69.4 % Extraction speed 2.5 X Track quality 100.0 % Test CRC 0B14DEE0 Copy CRC 0B14DEE0 Track not present in AccurateRip database Copy OK

Track 3

Filename C:\Red Orchestra 2 Heroes of Stalingrad\03 Steady We Must Stand.wav

Pre-gap length 0:00:02.00

Peak level 54.6 % Extraction speed 2.4 X Track quality 100.0 % Test CRC 203A10B4 Copy CRC 203A10B4 Track not present in AccurateRip database Copy OK

Track 4

Filename C:\Red Orchestra 2 Heroes of Stalingrad\04 Strength in Unity.wav

Pre-gap length 0:00:02.00

Peak level 81.4 % Extraction speed 2.5 X Track quality 100.0 % Test CRC A7B82C72 Copy CRC A7B82C72 Track not present in AccurateRip database Copy OK

Track 5

Filename C:\Red Orchestra 2 Heroes of Stalingrad\05 Taking Station No. 1.wav

Pre-gap length 0:00:02.00

Peak level 98.3 % Extraction speed 2.6 X Track quality 100.0 % Test CRC A6B7C3F3 Copy CRC A6B7C3F3 Track not present in AccurateRip database Copy OK

Track 6

Filename C:\Red Orchestra 2 Heroes of Stalingrad\06 Not One Step Back.wav

Pre-gap length 0:00:02.00

Peak level 99.5 % Extraction speed 2.8 X Track quality 100.0 % Test CRC 3BEFF2E9 Copy CRC 3BEFF2E9 Track not present in AccurateRip database Copy OK

Track 7

Filename C:\Red Orchestra 2 Heroes of Stalingrad\07 The Story of a Soldier.wav

Pre-gap length 0:00:02.00

Peak level 77.2 % Extraction speed 2.8 X Track quality 100.0 % Test CRC 1DDFFF47 Copy CRC 1DDFFF47 Track not present in AccurateRip database Copy OK

Track 8

Filename C:\Red Orchestra 2 Heroes of Stalingrad\08 Devils in the Tower.wav

Pre-gap length 0:00:02.00

Peak level 100.0 % Extraction speed 2.9 X Track quality 100.0 % Test CRC ACD0FF66 Copy CRC ACD0FF66 Track not present in AccurateRip database Copy OK

Track 9

Filename C:\Red Orchestra 2 Heroes of Stalingrad\09 Red Fortress.wav

Pre-gap length 0:00:02.00

Peak level 97.9 % Extraction speed 2.5 X Track quality 99.9 % Test CRC B19B9C34 Copy CRC B19B9C34 Track not present in AccurateRip database Copy OK

Track 10

Filename C:\Red Orchestra 2 Heroes of Stalingrad\10 Reinforcing Pavlov's House.wav

Pre-gap length 0:00:02.00

Peak level 79.8 % Extraction speed 3.0 X Track quality 100.0 % Test CRC F1821BBD Copy CRC F1821BBD Track not present in AccurateRip database Copy OK

Track 11

Filename C:\Red Orchestra 2 Heroes of Stalingrad\11 Pursuit of Pavlov.wav

Pre-gap length 0:00:02.00

Peak level 94.7 % Extraction speed 3.2 X Track quality 100.0 % Test CRC 0FD9EFAC Copy CRC 0FD9EFAC Track not present in AccurateRip database Copy OK

Track 12

Filename C:\Red Orchestra 2 Heroes of Stalingrad\12 So Far From Home.wav

Pre-gap length 0:00:02.00

Peak level 98.0 % Extraction speed 3.4 X Track quality 100.0 % Test CRC 56CAEB46 Copy CRC 56CAEB46 Track not present in AccurateRip database Copy OK

Track 13

Filename C:\Red Orchestra 2 Heroes of Stalingrad\13 Impenetrable.wav

Pre-gap length 0:00:02.00

Peak level 99.3 % Extraction speed 2.9 X Track quality 99.9 % Test CRC 968A86AC Copy CRC 968A86AC Track not present in AccurateRip database Copy OK

Track 14

Filename C:\Red Orchestra 2 Heroes of Stalingrad\14 Zugzwang.wav

Pre-gap length 0:00:02.00

Peak level 98.9 % Extraction speed 3.4 X Track quality 100.0 % Test CRC 1DCB6370 Copy CRC 1DCB6370 Track not present in AccurateRip database Copy OK

Track 15

Filename C:\Red Orchestra 2 Heroes of Stalingrad\15 The Descent Into Hell.wav

Pre-gap length 0:00:02.00

Peak level 89.7 % Extraction speed 3.5 X Track quality 100.0 % Test CRC 1233208C Copy CRC 1233208C Track not present in AccurateRip database Copy OK

Track 16

Filename C:\Red Orchestra 2 Heroes of Stalingrad\16 The Bitter End.wav

Pre-gap length 0:00:02.00

Peak level 97.7 % Extraction speed 3.7 X Track quality 100.0 % Test CRC C2C0DD64 Copy CRC C2C0DD64 Track not present in AccurateRip database Copy OK

Track 17

Filename C:\Red Orchestra 2 Heroes of Stalingrad\17 Victory at the Barrikady.wav

Pre-gap length 0:00:02.00

Peak level 98.2 % Extraction speed 3.7 X Track quality 100.0 % Test CRC 6FCE1FC3 Copy CRC 6FCE1FC3 Track not present in AccurateRip database Copy OK

Track 18

Filename C:\Red Orchestra 2 Heroes of Stalingrad\18 Across the Steppe.wav

Pre-gap length 0:00:02.00

Peak level 97.7 % Extraction speed 3.1 X Track quality 99.9 % Test CRC 8273F9A8 Copy CRC 8273F9A8 Track not present in AccurateRip database Copy OK

Track 19

Filename C:\Red Orchestra 2 Heroes of Stalingrad\19 Ghosts in the Snow.wav

Pre-gap length 0:00:02.00

Peak level 72.6 % Extraction speed 3.1 X Track quality 99.9 % Test CRC D7FE03BA Copy CRC D7FE03BA Track not present in AccurateRip database Copy OK

Track 20

Filename C:\Red Orchestra 2 Heroes of Stalingrad\20 Wave of Fury.wav

Pre-gap length 0:00:02.00

Peak level 97.8 % Extraction speed 3.9 X Track quality 100.0 % Test CRC 3200E844 Copy CRC 3200E844 Track not present in AccurateRip database Copy OK

Track 21

Filename C:\Red Orchestra 2 Heroes of Stalingrad\21 Red-Painted Steppe.wav

Pre-gap length 0:00:02.00

Peak level 98.4 % Extraction speed 3.8 X Track quality 100.0 % Test CRC B26BC9F7 Copy CRC B26BC9F7 Track not present in AccurateRip database Copy OK

Track 22

Filename C:\Red Orchestra 2 Heroes of Stalingrad\22 The Great Soviet Showpiece.wav

Pre-gap length 0:00:02.00

Peak level 72.8 % Extraction speed 3.3 X Track quality 99.9 % Test CRC 61769415 Copy CRC 61769415 Track not present in AccurateRip database Copy OK

Track 23

Filename C:\Red Orchestra 2 Heroes of Stalingrad\23 Defiant till the Very End.wav

Pre-gap length 0:00:02.00

Peak level 100.0 % Extraction speed 4.0 X Track quality 100.0 % Test CRC 02B58833 Copy CRC 02B58833 Track not present in AccurateRip database Copy OK

Track 24

Filename C:\Red Orchestra 2 Heroes of Stalingrad\24 Praying for Death.wav

Pre-gap length 0:00:02.00

Peak level 98.1 % Extraction speed 4.2 X Track quality 100.0 % Test CRC E007BAE0 Copy CRC E007BAE0 Track not present in AccurateRip database Copy OK

Track 25

Filename C:\Red Orchestra 2 Heroes of Stalingrad\25 The End of the Line.wav

Pre-gap length 0:00:02.00

Peak level 97.9 % Extraction speed 4.1 X Track quality 100.0 % Test CRC C0861344 Copy CRC C0861344 Track not present in AccurateRip database Copy OK

None of the tracks are present in the AccurateRip database

No errors occurred

End of status report

==== Log checksum 97C49D13292A1A4368AA924E6A063C1282173CF3C0A2352D80BBACCABA71BE41 ====
 
REM GENRE SoundtrackREM DISCID 910D1E19REM COMMENT "ExactAudioCopy v1.0b2"PERFORMER "Sam Hulick"TITLE "Red Orchestra 2 Heroes of Stalingrad"FILE "01 Storm Clouds Over Stalingrad.wav" WAVE TRACK 01 AUDIO TITLE "Storm Clouds Over Stalingrad" PERFORMER "Sam Hulick" FLAGS DCP INDEX 01 00:00:00 TRACK 02 AUDIO TITLE "The Unstoppable Wehrmacht" PERFORMER "Sam Hulick" FLAGS DCP INDEX 00 03:10:45FILE "02 The Unstoppable Wehrmacht.wav" WAVE INDEX 01 00:00:00 TRACK 03 AUDIO TITLE "Steady We Must Stand" PERFORMER "Sam Hulick" FLAGS DCP INDEX 00 03:14:54FILE "03 Steady We Must Stand.wav" WAVE INDEX 01 00:00:00 TRACK 04 AUDIO TITLE "Strength in Unity" PERFORMER "Sam Hulick" FLAGS DCP INDEX 00 02:22:53FILE "04 Strength in Unity.wav" WAVE INDEX 01 00:00:00 TRACK 05 AUDIO TITLE "Taking Station No. 1" PERFORMER "Sam Hulick" FLAGS DCP INDEX 00 02:15:03FILE "05 Taking Station No. 1.wav" WAVE INDEX 01 00:00:00 TRACK 06 AUDIO TITLE "Not One Step Back" PERFORMER "Sam Hulick" FLAGS DCP INDEX 00 02:01:43FILE "06 Not One Step Back.wav" WAVE INDEX 01 00:00:00 TRACK 07 AUDIO TITLE "The Story of a Soldier" PERFORMER "Sam Hulick" FLAGS DCP INDEX 00 02:11:04FILE "07 The Story of a Soldier.wav" WAVE INDEX 01 00:00:00 TRACK 08 AUDIO TITLE "Devils in the Tower" PERFORMER "Sam Hulick" FLAGS DCP INDEX 00 02:07:04FILE "08 Devils in the Tower.wav" WAVE INDEX 01 00:00:00 TRACK 09 AUDIO TITLE "Red Fortress" PERFORMER "Sam Hulick" FLAGS DCP INDEX 00 01:57:61FILE "09 Red Fortress.wav" WAVE INDEX 01 00:00:00 TRACK 10 AUDIO TITLE "Reinforcing Pavlov's House" PERFORMER "Sam Hulick" FLAGS DCP INDEX 00 02:13:31FILE "10 Reinforcing Pavlov's House.wav" WAVE INDEX 01 00:00:00 TRACK 11 AUDIO TITLE "Pursuit of Pavlov" PERFORMER "Sam Hulick" FLAGS DCP INDEX 00 01:58:34FILE "11 Pursuit of Pavlov.wav" WAVE INDEX 01 00:00:00 TRACK 12 AUDIO TITLE "So Far From Home" PERFORMER "Sam Hulick" FLAGS DCP INDEX 00 02:07:31FILE "12 So Far From Home.wav" WAVE INDEX 01 00:00:00 TRACK 13 AUDIO TITLE "Impenetrable" PERFORMER "Sam Hulick" FLAGS DCP INDEX 00 02:23:11FILE "13 Impenetrable.wav" WAVE INDEX 01 00:00:00 TRACK 14 AUDIO TITLE "Zugzwang" PERFORMER "Sam Hulick" FLAGS DCP INDEX 00 02:27:54FILE "14 Zugzwang.wav" WAVE INDEX 01 00:00:00 TRACK 15 AUDIO TITLE "The Descent Into Hell" PERFORMER "Sam Hulick" FLAGS DCP INDEX 00 01:58:19FILE "15 The Descent Into Hell.wav" WAVE INDEX 01 00:00:00 TRACK 16 AUDIO TITLE "The Bitter End" PERFORMER "Sam Hulick" FLAGS DCP INDEX 00 01:58:50FILE "16 The Bitter End.wav" WAVE INDEX 01 00:00:00 TRACK 17 AUDIO TITLE "Victory at the Barrikady" PERFORMER "Sam Hulick" FLAGS DCP INDEX 00 02:24:40FILE "17 Victory at the Barrikady.wav" WAVE INDEX 01 00:00:00 TRACK 18 AUDIO TITLE "Across the Steppe" PERFORMER "Sam Hulick" FLAGS DCP INDEX 00 02:01:41FILE "18 Across the Steppe.wav" WAVE INDEX 01 00:00:00 TRACK 19 AUDIO TITLE "Ghosts in the Snow" PERFORMER "Sam Hulick" FLAGS DCP INDEX 00 02:08:62FILE "19 Ghosts in the Snow.wav" WAVE INDEX 01 00:00:00 TRACK 20 AUDIO TITLE "Wave of Fury" PERFORMER "Sam Hulick" FLAGS DCP INDEX 00 02:06:58FILE "20 Wave of Fury.wav" WAVE INDEX 01 00:00:00 TRACK 21 AUDIO TITLE "Red-Painted Steppe" PERFORMER "Sam Hulick" FLAGS DCP INDEX 00 01:59:19FILE "21 Red-Painted Steppe.wav" WAVE INDEX 01 00:00:00 TRACK 22 AUDIO TITLE "The Great Soviet Showpiece" PERFORMER "Sam Hulick" FLAGS DCP INDEX 00 01:46:22FILE "22 The Great Soviet Showpiece.wav" WAVE INDEX 01 00:00:00 TRACK 23 AUDIO TITLE "Defiant till the Very End" PERFORMER "Sam Hulick" FLAGS DCP INDEX 00 02:15:60FILE "23 Defiant till the Very End.wav" WAVE INDEX 01 00:00:00 TRACK 24 AUDIO TITLE "Praying for Death" PERFORMER "Sam Hulick" FLAGS DCP INDEX 00 01:57:06FILE "24 Praying for Death.wav" WAVE INDEX 01 00:00:00 TRACK 25 AUDIO TITLE "The End of the Line" PERFORMER "Sam Hulick" FLAGS DCP INDEX 00 02:10:41FILE "25 The End of the Line.wav" WAVE INDEX 01 00:00:00
 
AUDIOCHECKER v2.0 beta (build 457) - by Dester - [email protected]~~~~~~~~~~~~~~~~~~~~~~~~~~~~~~~~~~

Started at: понедельник, 03. 10. 2011. - 14:04.4725 files found

01 -===- C:\Red Orchestra 2 Heroes of Stalingrad\01 Storm Clouds Over Stalingrad.flac Extracted successfully Conclusion: this track is CDDA with probability 100% Tempfile successfully deleted.

02 -===- C:\Red Orchestra 2 Heroes of Stalingrad\02 The Unstoppable Wehrmacht.flac Extracted successfully Conclusion: this track is CDDA with probability 100% Tempfile successfully deleted.

03 -===- C:\Red Orchestra 2 Heroes of Stalingrad\03 Steady We Must Stand.flac Extracted successfully Conclusion: this track is CDDA with probability 100% Tempfile successfully deleted.

04 -===- C:\Red Orchestra 2 Heroes of Stalingrad\04 Strength in Unity.flac Extracted successfully Conclusion: this track is CDDA with probability 100% Tempfile successfully deleted.

05 -===- C:\Red Orchestra 2 Heroes of Stalingrad\05 Taking Station No. 1.flac Extracted successfully Conclusion: this track is CDDA with probability 100% Tempfile successfully deleted.

06 -===- C:\Red Orchestra 2 Heroes of Stalingrad\06 Not One Step Back.flac Extracted successfully Conclusion: this track is CDDA with probability 100% Tempfile successfully deleted.

07 -===- C:\Red Orchestra 2 Heroes of Stalingrad\07 The Story of a Soldier.flac Extracted successfully Conclusion: this track is CDDA with probability 100% Tempfile successfully deleted.

08 -===- C:\Red Orchestra 2 Heroes of Stalingrad\08 Devils in the Tower.flac Extracted successfully Conclusion: this track is CDDA with probability 100% Tempfile successfully deleted.

09 -===- C:\Red Orchestra 2 Heroes of Stalingrad\09 Red Fortress.flac Extracted successfully Conclusion: this track is CDDA with probability 100% Tempfile successfully deleted.

10 -===- C:\Red Orchestra 2 Heroes of Stalingrad\10 Reinforcing Pavlov's House.flac Extracted successfully Conclusion: this track is CDDA with probability 100% Tempfile successfully deleted.

11 -===- C:\Red Orchestra 2 Heroes of Stalingrad\11 Pursuit of Pavlov.flac Extracted successfully Conclusion: this track is CDDA with probability 99% Tempfile successfully deleted.

12 -===- C:\Red Orchestra 2 Heroes of Stalingrad\12 So Far From Home.flac Extracted successfully Conclusion: this track is CDDA with probability 99% Tempfile successfully deleted.

13 -===- C:\Red Orchestra 2 Heroes of Stalingrad\13 Impenetrable.flac Extracted successfully Conclusion: this track is CDDA with probability 99% Tempfile successfully deleted.

14 -===- C:\Red Orchestra 2 Heroes of Stalingrad\14 Zugzwang.flac Extracted successfully Conclusion: this track is CDDA with probability 100% Tempfile successfully deleted.

15 -===- C:\Red Orchestra 2 Heroes of Stalingrad\15 The Descent Into Hell.flac Extracted successfully Conclusion: this track is CDDA with probability 100% Tempfile successfully deleted.

16 -===- C:\Red Orchestra 2 Heroes of Stalingrad\16 The Bitter End.flac Extracted successfully Conclusion: this track is CDDA with probability 100% Tempfile successfully deleted.

17 -===- C:\Red Orchestra 2 Heroes of Stalingrad\17 Victory at the Barrikady.flac Extracted successfully Conclusion: this track is CDDA with probability 100% Tempfile successfully deleted.

18 -===- C:\Red Orchestra 2 Heroes of Stalingrad\18 Across the Steppe.flac Extracted successfully Conclusion: this track is CDDA with probability 100% Tempfile successfully deleted.

19 -===- C:\Red Orchestra 2 Heroes of Stalingrad\19 Ghosts in the Snow.flac Extracted successfully Conclusion: this track is CDDA with probability 100% Tempfile successfully deleted.

20 -===- C:\Red Orchestra 2 Heroes of Stalingrad\20 Wave of Fury.flac Extracted successfully Conclusion: this track is CDDA with probability 100% Tempfile successfully deleted.

21 -===- C:\Red Orchestra 2 Heroes of Stalingrad\21 Red-Painted Steppe.flac Extracted successfully Conclusion: this track is CDDA with probability 100% Tempfile successfully deleted.

22 -===- C:\Red Orchestra 2 Heroes of Stalingrad\22 The Great Soviet Showpiece.flac Extracted successfully Conclusion: this track is CDDA with probability 100% Tempfile successfully deleted.

23 -===- C:\Red Orchestra 2 Heroes of Stalingrad\23 Defiant till the Very End.flac Extracted successfully Conclusion: this track is CDDA with probability 100% Tempfile successfully deleted.

24 -===- C:\Red Orchestra 2 Heroes of Stalingrad\24 Praying for Death.flac Extracted successfully Conclusion: this track is CDDA with probability 100% Tempfile successfully deleted.

25 -===- C:\Red Orchestra 2 Heroes of Stalingrad\25 The End of the Line.flac Extracted successfully Conclusion: this track is CDDA with probability 100% Tempfile successfully deleted.

Finished at: понедельник, 03. 10. 2011. - 14:08.12 (operation time: 0:03.25)
Доп. информация: Специальное издание Red Orchestra 2 CD с СаундтрекомПросьба оставлять комментарии, говорить спасибо и оставаться на раздаче !!!


Трекер:  [ 03-Фев-2012 20:16 ]

  

Скачать .torrent

Размер .torrent файла 14 KB


Размер: 262 MB
Хэш (hash) релиза: c8aa7e69cb938c62acc6c219f60c9e576dedb277

Торренты, похожие на Red Orchestra 2 : Герои Сталинграда скачать торрент

Форум Название Автор Размер S L Добавлен
Саундтреки к играм (mp3) ·· (Score) Red Orchestra 2: Heroes Of Stalingrad Soundtrack| (Red Orchestra 2: Герои Сталинграда) (Game Rip) (by Sam Hulick) - 2011, MP3, V0 Galfimbul 145582744139 MB 0 0 1322428076

00:07

28-Ноя-11

bot

Топик был перенесен в форум Саундтреки к аниме (lossless)

Перенес Galfimbul

Хотите добавить комментарий к записи скачать торрент Red Orchestra 2 : Герои Сталинграда

!Обратная связь