Ringstraßenpalais | Heroes en el Infierno BluRay 1080p | 1x24 Ultraman Geed

Скачать через торрент музыку Sonic Generations - 20 years of Sonic music - 2011, FLAC бесплатно без регистрации torrent

Статистика раздачи
Размер:  492 MB   |    Зарегистрирован:  6 лет 5 месяцев   |    .torrent скачан:  34 раза   |   
Раздают:  1  
   
загрузка...
 
Автор Сообщение

Galfimbul

avatar Galfimbul


Sonic Generations - 20 years of Sonic music



Внимание качающих: это НЕ анонсированный саундтрек к Sonic Generations. Это диск-вложение в коробочную версию Sonic Generations Collector's Edition, доступную в Европе и Великобритании. На диске - выборка значимых треков из предыдущих Соников.

Жанр: Score
Год выпуска диска: 2011
Производитель диска: Arvato Entertainment Europe
Издатель (лейбл): SEGA Corporation
Номер по каталогу: MIS-SGCD-EU
Аудиокодек: FLAC (*.flac)
Тип рипа: tracks+.cue
Битрейт аудио: lossless
Продолжительность: 65:52
Источник: собственный рип
Наличие сканов в содержимом раздачи: да

Треклист:
1 - SEGA (0:04)
2 - SONIC THE HEDGEHOG 3 - Angel Island - Act I (2:41)
3 - SONIC & KNUCKLES - Mushroom Hill - Act I (2:01)
4 - Jun Senoue / SONIC THE HEDGEHOG 4 Episode I - Splash Hill Act I (1:12)
5 - Naofumi Hataya / SONIC CD - Palm Tree Panic - Present (2:16)
6 - Howard Drossin / SONIC SPINBALL - Toxic Caves (3:01)
7 - Jun Senoue / SONIC 3D BLAST - Green Grove - Act I (3:17)
8 - Junko Shiratsu / KNUCKLES' CHAOTIX - Midnight Greenhouse (3:05)
9 - Maki Morou / SONIC CHAMPIONSHIP - Lovers (2:26)
10 - Richard Jacques feat. TJ Davis / SONIC R - Can You Feel The Sunshine (2:53)
11 - Hideaki Naganuma / SONIC RUSH - Right There, Ride On (1:40)
12 - Tomoya Ohtani / SONIC RUSH ADVENTURE - Planet Kingdom - Act I (3:00)
13 - Jun Senoue / SONIC ADVENTURE - Blue Azure World (4:15)
14 - Jun Senoue feat. Ted Poley & Tony Harnell / SONIC ADVENTURE 2 - Escape From The City (2:21)
15 - Jun Senoue / SONIC HEROES - Seaside Hill (2:56)
16 - Tomonori Sawada / SONIC RIDERS - Theme of Metal City (2:56)
17 - Jun Senoue & Lee Brothehrton / SONIC RIVALS - Quick Trip To Paradise (2:56)
18 - Jun Senoue / SHADOW THE HEDGEHOG - Westopolis (2:49)
19 - Kenichi Tokoi & Runblebee / SONIC AND THE SECRET RINGS - Let The Speed Mend It (3:45)
20 - Jun Senoue / SONIC AND THE BLACK KNIGHT - Camelot Castle (3:18)
21 - Mariko Namba & Tomoya Ohtani / SONIC THE HEDGEHOG (2006) - The Water's Edge (3:33)
22 - Tomoya Ohtani / SONIC UNLEASHED - Windmill Isle - Day (5:05)
23 - Tomoya Ohtani / SONIC COLORS - Tropical Resort - Act I (4:22)
 
Exact Audio Copy V0.99 prebeta 5 from 4. May 2009

EAC extraction logfile from 5. December 2011, 7:52

SEGA / Sonic 20 Years Of Music

Used drive : PLEXTOR DVDR PX-716A Adapter: 0 ID: 1

Read mode : SecureUtilize accurate stream : YesDefeat audio cache : YesMake use of C2 pointers : No

Read offset correction : 30Overread into Lead-In and Lead-Out : NoFill up missing offset samples with silence : YesDelete leading and trailing silent blocks : NoNull samples used in CRC calculations : YesUsed interface : Native Win32 interface for Win NT & 2000Gap handling : Appended to previous track

Used output format : User Defined EncoderSelected bitrate : 128 kBit/sQuality : HighAdd ID3 tag : NoCommand line compressor : C:\Program Files (x86)\Exact Audio Copy\Flac\flac.exeAdditional command line options : -8 -V -T "ARTIST=%a" -T "TITLE=%t" -T "ALBUM=%g" -T "DATE=%y" -T "TRACKNUMBER=%n" -T "GENRE=%m" -T "COMMENT=EAC FLAC -8" %s

TOC of the extracted CD

Track | Start | Length | Start sector | End sector --------------------------------------------------------- 1 | 0:00.00 | 0:04.37 | 0 | 336 2 | 0:04.37 | 2:41.00 | 337 | 12411 3 | 2:45.37 | 2:01.00 | 12412 | 21486 4 | 4:46.37 | 1:12.38 | 21487 | 26924 5 | 5:59.00 | 2:16.38 | 26925 | 37162 6 | 8:15.38 | 3:01.00 | 37163 | 50737 7 | 11:16.38 | 3:17.00 | 50738 | 65512 8 | 14:33.38 | 3:05.38 | 65513 | 79425 9 | 17:39.01 | 2:26.00 | 79426 | 90375 10 | 20:05.01 | 2:53.38 | 90376 | 103388 11 | 22:58.39 | 1:40.38 | 103389 | 110926 12 | 24:39.02 | 3:00.38 | 110927 | 124464 13 | 27:39.40 | 4:15.00 | 124465 | 143589 14 | 31:54.40 | 2:21.00 | 143590 | 154164 15 | 34:15.40 | 2:56.00 | 154165 | 167364 16 | 37:11.40 | 2:56.38 | 167365 | 180602 17 | 40:08.03 | 2:56.00 | 180603 | 193802 18 | 43:04.03 | 2:49.38 | 193803 | 206515 19 | 45:53.41 | 3:45.00 | 206516 | 223390 20 | 49:38.41 | 3:18.38 | 223391 | 238278 21 | 52:57.04 | 3:33.00 | 238279 | 254253 22 | 56:30.04 | 5:05.00 | 254254 | 277128 23 | 61:35.04 | 4:22.38 | 277129 | 296816

Track 1

Filename C:\_extract\01 - SEGA.wav

Pre-gap length 0:00:02.00

Peak level 77.8 % Track quality 100.0 % Test CRC D231B2D7 Copy CRC D231B2D7 Track not present in AccurateRip database Copy OK

Track 2

Filename C:\_extract\02 - SONIC THE HEDGEHOG 3 - Angel Island - Act I.wav

Pre-gap length 0:00:00.37

Peak level 100.0 % Track quality 100.0 % Test CRC DF533502 Copy CRC DF533502 Track not present in AccurateRip database Copy OK

Track 3

Filename C:\_extract\03 - SONIC & KNUCKLES - Mushroom Hill - Act I.wav

Pre-gap length 0:00:02.00

Peak level 100.0 % Track quality 100.0 % Test CRC 6B3E78CE Copy CRC 6B3E78CE Track not present in AccurateRip database Copy OK

Track 4

Filename C:\_extract\04 - Jun Senoue , SONIC THE HEDGEHOG 4 Episode I - Splash Hill Act I.wav

Pre-gap length 0:00:02.00

Peak level 100.0 % Track quality 100.0 % Test CRC 719BB009 Copy CRC 719BB009 Track not present in AccurateRip database Copy OK

Track 5

Filename C:\_extract\05 - Naofumi Hataya , SONIC CD - Palm Tree Panic - Present.wav

Pre-gap length 0:00:02.00

Peak level 100.0 % Track quality 100.0 % Test CRC 64E16E7C Copy CRC 64E16E7C Track not present in AccurateRip database Copy OK

Track 6

Filename C:\_extract\06 - Howard Drossin , SONIC SPINBALL - Toxic Caves.wav

Pre-gap length 0:00:02.00

Peak level 100.0 % Track quality 99.9 % Test CRC C2D09E79 Copy CRC C2D09E79 Track not present in AccurateRip database Copy OK

Track 7

Filename C:\_extract\07 - Jun Senoue , SONIC 3D BLAST - Green Grove - Act I.wav

Pre-gap length 0:00:02.00

Peak level 100.0 % Track quality 100.0 % Test CRC B19F6DDF Copy CRC B19F6DDF Track not present in AccurateRip database Copy OK

Track 8

Filename C:\_extract\08 - Junko Shiratsu , KNUCKLES' CHAOTIX - Midnight Greenhouse.wav

Pre-gap length 0:00:02.00

Peak level 100.0 % Track quality 100.0 % Test CRC D82834F9 Copy CRC D82834F9 Track not present in AccurateRip database Copy OK

Track 9

Filename C:\_extract\09 - Maki Morou , SONIC CHAMPIONSHIP - Lovers.wav

Pre-gap length 0:00:02.00

Peak level 100.0 % Track quality 100.0 % Test CRC 59B3889E Copy CRC 59B3889E Track not present in AccurateRip database Copy OK

Track 10

Filename C:\_extract\10 - Richard Jacques feat. TJ Davis , SONIC R - Can You Feel The Sunshine.wav

Pre-gap length 0:00:02.00

Peak level 100.0 % Track quality 100.0 % Test CRC 03ACA882 Copy CRC 03ACA882 Track not present in AccurateRip database Copy OK

Track 11

Filename C:\_extract\11 - Hideaki Naganuma , SONIC RUSH - Right There, Ride On.wav

Pre-gap length 0:00:01.00

Peak level 94.6 % Track quality 100.0 % Test CRC 014669B5 Copy CRC 014669B5 Track not present in AccurateRip database Copy OK

Track 12

Filename C:\_extract\12 - Tomoya Ohtani , SONIC RUSH ADVENTURE - Planet Kingdom - Act I.wav

Pre-gap length 0:00:02.00

Peak level 83.8 % Track quality 100.0 % Test CRC E787CB61 Copy CRC E787CB61 Track not present in AccurateRip database Copy OK

Track 13

Filename C:\_extract\13 - Jun Senoue , SONIC ADVENTURE - Blue Azure World.wav

Pre-gap length 0:00:02.00

Peak level 100.0 % Track quality 99.9 % Test CRC 4EA8044E Copy CRC 4EA8044E Track not present in AccurateRip database Copy OK

Track 14

Filename C:\_extract\14 - Jun Senoue feat. Ted Poley & Tony Harnell , SONIC ADVENTURE 2 - Escape From The City.wav

Pre-gap length 0:00:02.00

Peak level 100.0 % Track quality 100.0 % Test CRC 902FF5BC Copy CRC 902FF5BC Track not present in AccurateRip database Copy OK

Track 15

Filename C:\_extract\15 - Jun Senoue , SONIC HEROES - Seaside Hill.wav

Pre-gap length 0:00:02.00

Peak level 100.0 % Track quality 99.9 % Test CRC FEDDBD89 Copy CRC FEDDBD89 Track not present in AccurateRip database Copy OK

Track 16

Filename C:\_extract\16 - Tomonori Sawada , SONIC RIDERS - Theme of Metal City.wav

Pre-gap length 0:00:02.00

Peak level 97.1 % Track quality 100.0 % Test CRC 13615207 Copy CRC 13615207 Track not present in AccurateRip database Copy OK

Track 17

Filename C:\_extract\17 - Jun Senoue & Lee Brothehrton , SONIC RIVALS - Quick Trip To Paradise.wav

Pre-gap length 0:00:02.00

Peak level 100.0 % Track quality 99.9 % Test CRC 4538F678 Copy CRC 4538F678 Track not present in AccurateRip database Copy OK

Track 18

Filename C:\_extract\18 - Jun Senoue , SHADOW THE HEDGEHOG - Westopolis.wav

Pre-gap length 0:00:02.00

Peak level 93.0 % Track quality 100.0 % Test CRC 5717C49C Copy CRC 5717C49C Track not present in AccurateRip database Copy OK

Track 19

Filename C:\_extract\19 - Kenichi Tokoi & Runblebee , SONIC AND THE SECRET RINGS - Let The Speed Mend It.wav

Pre-gap length 0:00:02.00

Peak level 100.0 % Track quality 100.0 % Test CRC 367F40A3 Copy CRC 367F40A3 Track not present in AccurateRip database Copy OK

Track 20

Filename C:\_extract\20 - Jun Senoue , SONIC AND THE BLACK KNIGHT - Camelot Castle.wav

Pre-gap length 0:00:02.00

Peak level 100.0 % Track quality 100.0 % Test CRC 7B1D0925 Copy CRC 7B1D0925 Track not present in AccurateRip database Copy OK

Track 21

Filename C:\_extract\21 - Mariko Namba & Tomoya Ohtani , SONIC THE HEDGEHOG (2006) - The Water's Edge.wav

Pre-gap length 0:00:02.00

Peak level 100.0 % Track quality 100.0 % Test CRC 5CA437A3 Copy CRC 5CA437A3 Track not present in AccurateRip database Copy OK

Track 22

Filename C:\_extract\22 - Tomoya Ohtani , SONIC UNLEASHED - Windmill Isle - Day.wav

Pre-gap length 0:00:02.00

Peak level 100.0 % Track quality 100.0 % Test CRC 3EA4D872 Copy CRC 3EA4D872 Track not present in AccurateRip database Copy OK

Track 23

Filename C:\_extract\23 - Tomoya Ohtani , SONIC COLORS - Tropical Resort - Act I.wav

Pre-gap length 0:00:02.00

Peak level 100.0 % Track quality 100.0 % Test CRC F89DC6C0 Copy CRC F89DC6C0 Track not present in AccurateRip database Copy OK

None of the tracks are present in the AccurateRip database

No errors occurred

End of status report
 
REM GENRE GameREM DATE 2011REM DISCID 530F7517REM COMMENT "ExactAudioCopy v0.99pb5"PERFORMER "SEGA"TITLE "Sonic 20 Years Of Music"FILE "01 - SEGA.wav" WAVE TRACK 01 AUDIO TITLE "SEGA" PERFORMER "SEGA" INDEX 01 00:00:00 TRACK 02 AUDIO TITLE "SONIC THE HEDGEHOG 3 - Angel Island - Act I" PERFORMER "SEGA" INDEX 00 00:04:00FILE "02 - SONIC THE HEDGEHOG 3 - Angel Island - Act I.wav" WAVE INDEX 01 00:00:00 TRACK 03 AUDIO TITLE "SONIC & KNUCKLES - Mushroom Hill - Act I" PERFORMER "SEGA" INDEX 00 02:39:00FILE "03 - SONIC & KNUCKLES - Mushroom Hill - Act I.wav" WAVE INDEX 01 00:00:00 TRACK 04 AUDIO TITLE "Jun Senoue / SONIC THE HEDGEHOG 4 Episode I - Splash Hill Act I" PERFORMER "SEGA" INDEX 00 01:59:00FILE "04 - Jun Senoue , SONIC THE HEDGEHOG 4 Episode I - Splash Hill Act I.wav" WAVE INDEX 01 00:00:00 TRACK 05 AUDIO TITLE "Naofumi Hataya / SONIC CD - Palm Tree Panic - Present" PERFORMER "SEGA" INDEX 00 01:10:38FILE "05 - Naofumi Hataya , SONIC CD - Palm Tree Panic - Present.wav" WAVE INDEX 01 00:00:00 TRACK 06 AUDIO TITLE "Howard Drossin / SONIC SPINBALL - Toxic Caves" PERFORMER "SEGA" INDEX 00 02:14:38FILE "06 - Howard Drossin , SONIC SPINBALL - Toxic Caves.wav" WAVE INDEX 01 00:00:00 TRACK 07 AUDIO TITLE "Jun Senoue / SONIC 3D BLAST - Green Grove - Act I" PERFORMER "SEGA" INDEX 00 02:59:00FILE "07 - Jun Senoue , SONIC 3D BLAST - Green Grove - Act I.wav" WAVE INDEX 01 00:00:00 TRACK 08 AUDIO TITLE "Junko Shiratsu / KNUCKLES' CHAOTIX - Midnight Greenhouse" PERFORMER "SEGA" INDEX 00 03:15:00FILE "08 - Junko Shiratsu , KNUCKLES' CHAOTIX - Midnight Greenhouse.wav" WAVE INDEX 01 00:00:00 TRACK 09 AUDIO TITLE "Maki Morou / SONIC CHAMPIONSHIP - Lovers" PERFORMER "SEGA" INDEX 00 03:03:38FILE "09 - Maki Morou , SONIC CHAMPIONSHIP - Lovers.wav" WAVE INDEX 01 00:00:00 TRACK 10 AUDIO TITLE "Richard Jacques feat. TJ Davis / SONIC R - Can You Feel The Sunshine" PERFORMER "SEGA" INDEX 00 02:24:00FILE "10 - Richard Jacques feat. TJ Davis , SONIC R - Can You Feel The Sunshine.wav" WAVE INDEX 01 00:00:00 TRACK 11 AUDIO TITLE "Hideaki Naganuma / SONIC RUSH - Right There , Ride On" PERFORMER "SEGA" INDEX 00 02:52:38FILE "11 - Hideaki Naganuma , SONIC RUSH - Right There , Ride On.wav" WAVE INDEX 01 00:00:00 TRACK 12 AUDIO TITLE "Tomoya Ohtani / SONIC RUSH ADVENTURE - Planet Kingdom - Act I" PERFORMER "SEGA" INDEX 00 01:38:38FILE "12 - Tomoya Ohtani , SONIC RUSH ADVENTURE - Planet Kingdom - Act I.wav" WAVE INDEX 01 00:00:00 TRACK 13 AUDIO TITLE "Jun Senoue / SONIC ADVENTURE - Blue Azure World" PERFORMER "SEGA" INDEX 00 02:58:38FILE "13 - Jun Senoue , SONIC ADVENTURE - Blue Azure World.wav" WAVE INDEX 01 00:00:00 TRACK 14 AUDIO TITLE "Jun Senoue feat. Ted Poley & Tony Harnell / SONIC ADVENTURE 2 - Escape From T..." PERFORMER "SEGA" INDEX 00 04:13:00FILE "14 - Jun Senoue feat. Ted Poley & Tony Harnell , SONIC ADVENTURE 2 - Escape From The City.wav" WAVE INDEX 01 00:00:00 TRACK 15 AUDIO TITLE "Jun Senoue / SONIC HEROES - Seaside Hill" PERFORMER "SEGA" INDEX 00 02:19:00FILE "15 - Jun Senoue , SONIC HEROES - Seaside Hill.wav" WAVE INDEX 01 00:00:00 TRACK 16 AUDIO TITLE "Tomonori Sawada / SONIC RIDERS - Theme of Metal City" PERFORMER "SEGA" INDEX 00 02:54:00FILE "16 - Tomonori Sawada , SONIC RIDERS - Theme of Metal City.wav" WAVE INDEX 01 00:00:00 TRACK 17 AUDIO TITLE "Jun Senoue & Lee Brothehrton / SONIC RIVALS - Quick Trip To Paradise" PERFORMER "SEGA" INDEX 00 02:54:38FILE "17 - Jun Senoue & Lee Brothehrton , SONIC RIVALS - Quick Trip To Paradise.wav" WAVE INDEX 01 00:00:00 TRACK 18 AUDIO TITLE "Jun Senoue / SHADOW THE HEDGEHOG - Westopolis" PERFORMER "SEGA" INDEX 00 02:54:00FILE "18 - Jun Senoue , SHADOW THE HEDGEHOG - Westopolis.wav" WAVE INDEX 01 00:00:00 TRACK 19 AUDIO TITLE "Kenichi Tokoi & Runblebee / SONIC AND THE SECRET RINGS - Let The Speed Mend It" PERFORMER "SEGA" INDEX 00 02:47:38FILE "19 - Kenichi Tokoi & Runblebee , SONIC AND THE SECRET RINGS - Let The Speed Mend It.wav" WAVE INDEX 01 00:00:00 TRACK 20 AUDIO TITLE "Jun Senoue / SONIC AND THE BLACK KNIGHT - Camelot Castle" PERFORMER "SEGA" INDEX 00 03:43:00FILE "20 - Jun Senoue , SONIC AND THE BLACK KNIGHT - Camelot Castle.wav" WAVE INDEX 01 00:00:00 TRACK 21 AUDIO TITLE "Mariko Namba & Tomoya Ohtani / SONIC THE HEDGEHOG (2006) - The Water's Edge" PERFORMER "SEGA" INDEX 00 03:16:38FILE "21 - Mariko Namba & Tomoya Ohtani , SONIC THE HEDGEHOG (2006) - The Water's Edge.wav" WAVE INDEX 01 00:00:00 TRACK 22 AUDIO TITLE "Tomoya Ohtani / SONIC UNLEASHED - Windmill Isle - Day" PERFORMER "SEGA" INDEX 00 03:31:00FILE "22 - Tomoya Ohtani , SONIC UNLEASHED - Windmill Isle - Day.wav" WAVE INDEX 01 00:00:00 TRACK 23 AUDIO TITLE "Tomoya Ohtani / SONIC COLORS - Tropical Resort - Act I" PERFORMER "SEGA" INDEX 00 05:03:00FILE "23 - Tomoya Ohtani , SONIC COLORS - Tropical Resort - Act I.wav" WAVE INDEX 01 00:00:00
 
AUDIOCHECKER v2.0 beta (build 457) - by Dester - [email protected]~~~~~~~~~~~~~~~~~~~~~~~~~~~~~~~~~~

Started at: понедельник, 05. 12. 2011. - 13:22.0323 files found

01 -===- c:\_перед прочтением съесть\Sonic Generations - 20 years of Sonic music (2011) (eac flac scans)\01 - SEGA.flac Extracted successfully Conclusion: this track is CDDA with probability 100% Tempfile successfully deleted.

02 -===- c:\_перед прочтением съесть\Sonic Generations - 20 years of Sonic music (2011) (eac flac scans)\02 - SONIC THE HEDGEHOG 3 - Angel Island - Act I.flac Extracted successfully Conclusion: this track is CDDA with probability 100% Tempfile successfully deleted.

03 -===- c:\_перед прочтением съесть\Sonic Generations - 20 years of Sonic music (2011) (eac flac scans)\03 - SONIC & KNUCKLES - Mushroom Hill - Act I.flac Extracted successfully Conclusion: this track is CDDA with probability 100% Tempfile successfully deleted.

04 -===- c:\_перед прочтением съесть\Sonic Generations - 20 years of Sonic music (2011) (eac flac scans)\04 - Jun Senoue , SONIC THE HEDGEHOG 4 Episode I - Splash Hill Act I.flac Extracted successfully Conclusion: this track is CDDA with probability 100% Tempfile successfully deleted.

05 -===- c:\_перед прочтением съесть\Sonic Generations - 20 years of Sonic music (2011) (eac flac scans)\05 - Naofumi Hataya , SONIC CD - Palm Tree Panic - Present.flac Extracted successfully Conclusion: this track is CDDA with probability 100% Tempfile successfully deleted.

06 -===- c:\_перед прочтением съесть\Sonic Generations - 20 years of Sonic music (2011) (eac flac scans)\06 - Howard Drossin , SONIC SPINBALL - Toxic Caves.flac Extracted successfully Conclusion: this track is CDDA with probability 100% Tempfile successfully deleted.

07 -===- c:\_перед прочтением съесть\Sonic Generations - 20 years of Sonic music (2011) (eac flac scans)\07 - Jun Senoue , SONIC 3D BLAST - Green Grove - Act I.flac Extracted successfully Conclusion: this track is CDDA with probability 100% Tempfile successfully deleted.

08 -===- c:\_перед прочтением съесть\Sonic Generations - 20 years of Sonic music (2011) (eac flac scans)\08 - Junko Shiratsu , KNUCKLES' CHAOTIX - Midnight Greenhouse.flac Extracted successfully Conclusion: this track is CDDA with probability 100% Tempfile successfully deleted.

09 -===- c:\_перед прочтением съесть\Sonic Generations - 20 years of Sonic music (2011) (eac flac scans)\09 - Maki Morou , SONIC CHAMPIONSHIP - Lovers.flac Extracted successfully Conclusion: this track is CDDA with probability 100% Tempfile successfully deleted.

10 -===- c:\_перед прочтением съесть\Sonic Generations - 20 years of Sonic music (2011) (eac flac scans)\10 - Richard Jacques feat. TJ Davis , SONIC R - Can You Feel The Sunshine.flac Extracted successfully Conclusion: this track is CDDA with probability 85% Tempfile successfully deleted.

11 -===- c:\_перед прочтением съесть\Sonic Generations - 20 years of Sonic music (2011) (eac flac scans)\11 - Hideaki Naganuma , SONIC RUSH - Right There, Ride On.flac Extracted successfully Conclusion: this track is CDDA with probability 99% Tempfile successfully deleted.

12 -===- c:\_перед прочтением съесть\Sonic Generations - 20 years of Sonic music (2011) (eac flac scans)\12 - Tomoya Ohtani , SONIC RUSH ADVENTURE - Planet Kingdom - Act I.flac Extracted successfully Conclusion: this track is CDDA with probability 100% Tempfile successfully deleted.

13 -===- c:\_перед прочтением съесть\Sonic Generations - 20 years of Sonic music (2011) (eac flac scans)\13 - Jun Senoue , SONIC ADVENTURE - Blue Azure World.flac Extracted successfully Conclusion: this track is CDDA with probability 100% Tempfile successfully deleted.

14 -===- c:\_перед прочтением съесть\Sonic Generations - 20 years of Sonic music (2011) (eac flac scans)\14 - Jun Senoue feat. Ted Poley & Tony Harnell , SONIC ADVENTURE 2 - Escape From The City.flac Extracted successfully Conclusion: this track is CDDA with probability 100% Tempfile successfully deleted.

15 -===- c:\_перед прочтением съесть\Sonic Generations - 20 years of Sonic music (2011) (eac flac scans)\15 - Jun Senoue , SONIC HEROES - Seaside Hill.flac Extracted successfully Conclusion: this track is CDDA with probability 100% Tempfile successfully deleted.

16 -===- c:\_перед прочтением съесть\Sonic Generations - 20 years of Sonic music (2011) (eac flac scans)\16 - Tomonori Sawada , SONIC RIDERS - Theme of Metal City.flac Extracted successfully Conclusion: this track is CDDA with probability 100% Tempfile successfully deleted.

17 -===- c:\_перед прочтением съесть\Sonic Generations - 20 years of Sonic music (2011) (eac flac scans)\17 - Jun Senoue & Lee Brothehrton , SONIC RIVALS - Quick Trip To Paradise.flac Extracted successfully Conclusion: this track is CDDA with probability 100% Tempfile successfully deleted.

18 -===- c:\_перед прочтением съесть\Sonic Generations - 20 years of Sonic music (2011) (eac flac scans)\18 - Jun Senoue , SHADOW THE HEDGEHOG - Westopolis.flac Extracted successfully Conclusion: this track is CDDA with probability 100% Tempfile successfully deleted.

19 -===- c:\_перед прочтением съесть\Sonic Generations - 20 years of Sonic music (2011) (eac flac scans)\19 - Kenichi Tokoi & Runblebee , SONIC AND THE SECRET RINGS - Let The Speed Mend It.flac Extracted successfully Conclusion: this track is CDDA with probability 100% Tempfile successfully deleted.

20 -===- c:\_перед прочтением съесть\Sonic Generations - 20 years of Sonic music (2011) (eac flac scans)\20 - Jun Senoue , SONIC AND THE BLACK KNIGHT - Camelot Castle.flac Extracted successfully Conclusion: this track is CDDA with probability 100% Tempfile successfully deleted.

21 -===- c:\_перед прочтением съесть\Sonic Generations - 20 years of Sonic music (2011) (eac flac scans)\21 - Mariko Namba & Tomoya Ohtani , SONIC THE HEDGEHOG (2006) - The Water's Edge.flac Extracted successfully Conclusion: this track is CDDA with probability 100% Tempfile successfully deleted.

22 -===- c:\_перед прочтением съесть\Sonic Generations - 20 years of Sonic music (2011) (eac flac scans)\22 - Tomoya Ohtani , SONIC UNLEASHED - Windmill Isle - Day.flac Extracted successfully Conclusion: this track is CDDA with probability 100% Tempfile successfully deleted.

23 -===- c:\_перед прочтением съесть\Sonic Generations - 20 years of Sonic music (2011) (eac flac scans)\23 - Tomoya Ohtani , SONIC COLORS - Tropical Resort - Act I.flac Extracted successfully Conclusion: this track is CDDA with probability 100% Tempfile successfully deleted.

Finished at: понедельник, 05. 12. 2011. - 13:33.51 (operation time: 0:11.47)


Трекер:  [ 03-Фев-2012 20:16 ]

  

Скачать .torrent

Размер .torrent файла 22 KB


Размер: 492 MB
Хэш (hash) релиза: 966080087daa113d21f41b99d209a2e0957e1335

bot

Топик был перенесен в форум Саундтреки к аниме (lossless)

Перенес Galfimbul

Хотите добавить комментарий к записи скачать торрент Sonic Generations - 20 years of Sonic music - 2011, FLAC

!Обратная связь