Mira Sorvino | tarubar jad so katiya | Família

Скачать через торрент музыку Warhammer 40,000: Space Marine - Original Soundtrack бесплатно без регистрации torrent

Статистика раздачи
Размер:  280 MB   |    Зарегистрирован:  6 лет 5 месяцев   |    .torrent скачан:  54 раза   |   
Раздают:  1  
   
загрузка...
 
Автор Сообщение

Galfimbul

avatar Galfimbul


Warhammer 40,000: Space Marine Original Soundtrack
Жанр: Score
Композитор: Cris Velasco, Sascha Dikiciyan
Год выпуска диска: 2011
Издатель (лейбл): THQ

Аудиокодек: FLAC (*.flac)
Тип рипа: tracks+.cue
Битрейт аудио: lossless
Продолжительность: 00:51:04

Источник: собственный рип
Наличие сканов в содержимом раздачи: да

Треклист:
01 Prologue 2:26
02 Titus' Theme 2:59
03 Against all Odds 2:58
04 Prelude to War 2:40
05 Valkyrie Run 3:36
06 Battlements 3:16
07 Whispers of the the Dead 1:30
08 The Blood Ravens 2:15
09 Reunion with Mira 1:00
10 The Weirdboy 1:58
11 No Man's Land 3:02
12 The Inquisitor 2:38
13 The Meat Grinder 3:05
14 Heart of Darkness 2:08
15 Fight for Honor 2:44
16 Titan 2:05
17 Legions of Chaos 1:52
18 Heresy 3:52
19 A Hero's Legacy 5:00
 
Exact Audio Copy V1.0 beta 2 from 29. April 2011

EAC extraction logfile from 6. December 2011, 2:11

Cris Velasco and Sascha Dikiciyan / Space Marine

Used drive : TSSTcorpCDDVDW SH-S222A Adapter: 4 ID: 0

Read mode : SecureUtilize accurate stream : YesDefeat audio cache : YesMake use of C2 pointers : No

Read offset correction : 6Overread into Lead-In and Lead-Out : NoFill up missing offset samples with silence : YesDelete leading and trailing silent blocks : NoNull samples used in CRC calculations : YesUsed interface : Native Win32 interface for Win NT & 2000Gap handling : Appended to previous track

Used output format : User Defined EncoderSelected bitrate : 128 kBit/sQuality : HighAdd ID3 tag : NoCommand line compressor : C:\Program Files (x86)\Exact Audio Copy\Flac\flac.exeAdditional command line options : -V -8 -T "Genre=%genre%" -T "Artist=%artist%" -T "Title=%title%" -T "Album=%albumtitle%" -T "Date=%year%" -T "Tracknumber=%tracknr%" -T "Comment=%comment%" %source%

TOC of the extracted CD

Track | Start | Length | Start sector | End sector --------------------------------------------------------- 1 | 0:00.00 | 2:26.00 | 0 | 10949 2 | 2:26.00 | 2:59.15 | 10950 | 24389 3 | 5:25.15 | 2:58.00 | 24390 | 37739 4 | 8:23.15 | 2:40.00 | 37740 | 49739 5 | 11:03.15 | 3:36.00 | 49740 | 65939 6 | 14:39.15 | 3:16.00 | 65940 | 80639 7 | 17:55.15 | 1:30.50 | 80640 | 87439 8 | 19:25.65 | 2:15.37 | 87440 | 97601 9 | 21:41.27 | 1:00.00 | 97602 | 102101 10 | 22:41.27 | 1:58.00 | 102102 | 110951 11 | 24:39.27 | 3:02.00 | 110952 | 124601 12 | 27:41.27 | 2:38.18 | 124602 | 136469 13 | 30:19.45 | 3:05.28 | 136470 | 150372 14 | 33:24.73 | 2:07.74 | 150373 | 159971 15 | 35:32.72 | 2:44.42 | 159972 | 172313 16 | 38:17.39 | 2:05.16 | 172314 | 181704 17 | 40:22.55 | 1:52.00 | 181705 | 190104 18 | 42:14.55 | 3:52.00 | 190105 | 207504 19 | 46:06.55 | 5:00.00 | 207505 | 230004

Track 1

Filename C:\Warhammer 40,000- Space Marine Original Soundtrack - 2011 - Cris Velasco, Sascha Dikiciyan\01. Prologue.wav

Pre-gap length 0:00:02.00

Peak level 94.6 % Extraction speed 1.9 X Track quality 100.0 % Test CRC E52276E2 Copy CRC E52276E2 Track not present in AccurateRip database Copy OK

Track 2

Filename C:\Warhammer 40,000- Space Marine Original Soundtrack - 2011 - Cris Velasco, Sascha Dikiciyan\02. Titus’ Theme.wav

Peak level 92.7 % Extraction speed 2.0 X Track quality 100.0 % Test CRC 00E4565C Copy CRC 00E4565C Track not present in AccurateRip database Copy OK

Track 3

Filename C:\Warhammer 40,000- Space Marine Original Soundtrack - 2011 - Cris Velasco, Sascha Dikiciyan\03. Prelude To War.wav

Peak level 94.8 % Extraction speed 2.0 X Track quality 100.0 % Test CRC 0A3C3F00 Copy CRC 0A3C3F00 Track not present in AccurateRip database Copy OK

Track 4

Filename C:\Warhammer 40,000- Space Marine Original Soundtrack - 2011 - Cris Velasco, Sascha Dikiciyan\04. Against All Odds.wav

Peak level 94.4 % Extraction speed 1.6 X Track quality 99.9 % Test CRC 54F6FFD8 Copy CRC 54F6FFD8 Track not present in AccurateRip database Copy OK

Track 5

Filename C:\Warhammer 40,000- Space Marine Original Soundtrack - 2011 - Cris Velasco, Sascha Dikiciyan\05. Valkyrie Run.wav

Peak level 100.0 % Extraction speed 2.0 X Track quality 100.0 % Test CRC 48DEA546 Copy CRC 48DEA546 Track not present in AccurateRip database Copy OK

Track 6

Filename C:\Warhammer 40,000- Space Marine Original Soundtrack - 2011 - Cris Velasco, Sascha Dikiciyan\06. Battlements.wav

Peak level 100.0 % Extraction speed 2.0 X Track quality 100.0 % Test CRC 3CB82D00 Copy CRC 3CB82D00 Track not present in AccurateRip database Copy OK

Track 7

Filename C:\Warhammer 40,000- Space Marine Original Soundtrack - 2011 - Cris Velasco, Sascha Dikiciyan\07. Whispers Of The Dead.wav

Peak level 100.0 % Extraction speed 1.6 X Track quality 100.0 % Test CRC 493A2A95 Copy CRC 493A2A95 Track not present in AccurateRip database Copy OK

Track 8

Filename C:\Warhammer 40,000- Space Marine Original Soundtrack - 2011 - Cris Velasco, Sascha Dikiciyan\08. The Blood Ravens.wav

Peak level 94.7 % Extraction speed 1.8 X Track quality 100.0 % Test CRC 8828A98F Copy CRC 8828A98F Track not present in AccurateRip database Copy OK

Track 9

Filename C:\Warhammer 40,000- Space Marine Original Soundtrack - 2011 - Cris Velasco, Sascha Dikiciyan\09. Reunion With Mira.wav

Peak level 100.0 % Extraction speed 1.5 X Track quality 100.0 % Test CRC CEABF6D3 Copy CRC CEABF6D3 Track not present in AccurateRip database Copy OK

Track 10

Filename C:\Warhammer 40,000- Space Marine Original Soundtrack - 2011 - Cris Velasco, Sascha Dikiciyan\10. The Weirdboy.wav

Peak level 94.8 % Extraction speed 1.8 X Track quality 100.0 % Test CRC 3CEF44CE Copy CRC 3CEF44CE Track not present in AccurateRip database Copy OK

Track 11

Filename C:\Warhammer 40,000- Space Marine Original Soundtrack - 2011 - Cris Velasco, Sascha Dikiciyan\11. No Man's Land.wav

Peak level 94.8 % Extraction speed 2.0 X Track quality 100.0 % Test CRC B50EE859 Copy CRC B50EE859 Track not present in AccurateRip database Copy OK

Track 12

Filename C:\Warhammer 40,000- Space Marine Original Soundtrack - 2011 - Cris Velasco, Sascha Dikiciyan\12. The Inquisitor.wav

Peak level 94.1 % Extraction speed 2.0 X Track quality 100.0 % Test CRC 3BE7FC91 Copy CRC 3BE7FC91 Track not present in AccurateRip database Copy OK

Track 13

Filename C:\Warhammer 40,000- Space Marine Original Soundtrack - 2011 - Cris Velasco, Sascha Dikiciyan\13. The Meat Grinder.wav

Peak level 100.0 % Extraction speed 2.0 X Track quality 100.0 % Test CRC CF8E0A62 Copy CRC CF8E0A62 Track not present in AccurateRip database Copy OK

Track 14

Filename C:\Warhammer 40,000- Space Marine Original Soundtrack - 2011 - Cris Velasco, Sascha Dikiciyan\14. Heart Of Darkness.wav

Peak level 94.7 % Extraction speed 1.8 X Track quality 100.0 % Test CRC 12DCE7A9 Copy CRC 12DCE7A9 Track not present in AccurateRip database Copy OK

Track 15

Filename C:\Warhammer 40,000- Space Marine Original Soundtrack - 2011 - Cris Velasco, Sascha Dikiciyan\15. Fight For Honor.wav

Peak level 100.0 % Extraction speed 2.0 X Track quality 100.0 % Test CRC 909BCB7D Copy CRC 909BCB7D Track not present in AccurateRip database Copy OK

Track 16

Filename C:\Warhammer 40,000- Space Marine Original Soundtrack - 2011 - Cris Velasco, Sascha Dikiciyan\16. Titan.wav

Peak level 90.1 % Extraction speed 1.9 X Track quality 100.0 % Test CRC 87FA2BC5 Copy CRC 87FA2BC5 Track not present in AccurateRip database Copy OK

Track 17

Filename C:\Warhammer 40,000- Space Marine Original Soundtrack - 2011 - Cris Velasco, Sascha Dikiciyan\17. Legions Of Chaos.wav

Peak level 95.8 % Extraction speed 1.8 X Track quality 100.0 % Test CRC 1407D207 Copy CRC 1407D207 Track not present in AccurateRip database Copy OK

Track 18

Filename C:\Warhammer 40,000- Space Marine Original Soundtrack - 2011 - Cris Velasco, Sascha Dikiciyan\18. Heresy.wav

Peak level 94.4 % Extraction speed 2.1 X Track quality 100.0 % Test CRC 37112959 Copy CRC 37112959 Track not present in AccurateRip database Copy OK

Track 19

Filename C:\Warhammer 40,000- Space Marine Original Soundtrack - 2011 - Cris Velasco, Sascha Dikiciyan\19. A Hero's Legacy.wav

Peak level 100.0 % Extraction speed 2.1 X Track quality 100.0 % Test CRC 1A429638 Copy CRC 1A429638 Track not present in AccurateRip database Copy OK

None of the tracks are present in the AccurateRip database

No errors occurred

End of status report

==== Log checksum 6726BA8062C77CAB35A40E95DC1F2D323033394906F7F2EED169A526B20D1254 ====
 
REM GENRE SoundtrackREM DATE 2011REM DISCID FE0BFA13REM COMMENT "ExactAudioCopy v1.0b2"PERFORMER "Cris Velasco and Sascha Dikiciyan"TITLE "Space Marine"FILE "01. Prologue.wav" WAVE TRACK 01 AUDIO TITLE "Prologue" PERFORMER "Cris Velasco and Sascha Dikiciyan" INDEX 01 00:00:00FILE "02. Titus’ Theme.wav" WAVE TRACK 02 AUDIO TITLE "Titus’ Theme" PERFORMER "Cris Velasco and Sascha Dikiciyan" INDEX 01 00:00:00FILE "03. Prelude To War.wav" WAVE TRACK 03 AUDIO TITLE "Prelude To War" PERFORMER "Cris Velasco and Sascha Dikiciyan" INDEX 01 00:00:00FILE "04. Against All Odds.wav" WAVE TRACK 04 AUDIO TITLE "Against All Odds" PERFORMER "Cris Velasco and Sascha Dikiciyan" INDEX 01 00:00:00FILE "05. Valkyrie Run.wav" WAVE TRACK 05 AUDIO TITLE "Valkyrie Run" PERFORMER "Cris Velasco and Sascha Dikiciyan" INDEX 01 00:00:00FILE "06. Battlements.wav" WAVE TRACK 06 AUDIO TITLE "Battlements" PERFORMER "Cris Velasco and Sascha Dikiciyan" INDEX 01 00:00:00FILE "07. Whispers Of The Dead.wav" WAVE TRACK 07 AUDIO TITLE "Whispers Of The Dead" PERFORMER "Cris Velasco and Sascha Dikiciyan" INDEX 01 00:00:00FILE "08. The Blood Ravens.wav" WAVE TRACK 08 AUDIO TITLE "The Blood Ravens" PERFORMER "Cris Velasco and Sascha Dikiciyan" INDEX 01 00:00:00FILE "09. Reunion With Mira.wav" WAVE TRACK 09 AUDIO TITLE "Reunion With Mira" PERFORMER "Cris Velasco and Sascha Dikiciyan" INDEX 01 00:00:00FILE "10. The Weirdboy.wav" WAVE TRACK 10 AUDIO TITLE "The Weirdboy" PERFORMER "Cris Velasco and Sascha Dikiciyan" INDEX 01 00:00:00FILE "11. No Man's Land.wav" WAVE TRACK 11 AUDIO TITLE "No Man's Land" PERFORMER "Cris Velasco and Sascha Dikiciyan" INDEX 01 00:00:00FILE "12. The Inquisitor.wav" WAVE TRACK 12 AUDIO TITLE "The Inquisitor" PERFORMER "Cris Velasco and Sascha Dikiciyan" INDEX 01 00:00:00FILE "13. The Meat Grinder.wav" WAVE TRACK 13 AUDIO TITLE "The Meat Grinder" PERFORMER "Cris Velasco and Sascha Dikiciyan" INDEX 01 00:00:00FILE "14. Heart Of Darkness.wav" WAVE TRACK 14 AUDIO TITLE "Heart Of Darkness" PERFORMER "Cris Velasco and Sascha Dikiciyan" INDEX 01 00:00:00FILE "15. Fight For Honor.wav" WAVE TRACK 15 AUDIO TITLE "Fight For Honor" PERFORMER "Cris Velasco and Sascha Dikiciyan" INDEX 01 00:00:00FILE "16. Titan.wav" WAVE TRACK 16 AUDIO TITLE "Titan" PERFORMER "Cris Velasco and Sascha Dikiciyan" INDEX 01 00:00:00FILE "17. Legions Of Chaos.wav" WAVE TRACK 17 AUDIO TITLE "Legions Of Chaos" PERFORMER "Cris Velasco and Sascha Dikiciyan" INDEX 01 00:00:00FILE "18. Heresy.wav" WAVE TRACK 18 AUDIO TITLE "Heresy" PERFORMER "Cris Velasco and Sascha Dikiciyan" INDEX 01 00:00:00FILE "19. A Hero's Legacy.wav" WAVE TRACK 19 AUDIO TITLE "A Hero's Legacy" PERFORMER "Cris Velasco and Sascha Dikiciyan" INDEX 01 00:00:00


Трекер:  [ 03-Фев-2012 20:16 ]

  

Скачать .torrent

Размер .torrent файла 12 KB


Размер: 280 MB
Хэш (hash) релиза: 9907acd1d817e84dd9078277a74a920e6af524ce

bot

Топик был перенесен в форум Саундтреки к аниме (lossless)

Перенес Galfimbul

Хотите добавить комментарий к записи скачать торрент Warhammer 40,000: Space Marine - Original Soundtrack

!Обратная связь