Littérature française | Ganni Edna leather ankle boots IOPZJ4WwTd | Tactik saison 1 épisode 1

Скачать через торрент музыку Assassins Creed Soundtrack - Best Of бесплатно без регистрации torrent

Статистика раздачи
Размер:  316 MB   |    Зарегистрирован:  6 лет 5 месяцев   |    .torrent скачан:  51 раз   |   
Раздают:  1  
   
загрузка...
 
Автор Сообщение

Galfimbul

avatar Galfimbul


Assassin's Creed Soundtrack - Best Of

Жанр: Score
Композитор: Jesper Kyd
Год выпуска диска: 2011
Издатель (лейбл): Ubisoft

Аудиокодек: FLAC (*.flac)
Тип рипа: tracks+.cue
Битрейт аудио: lossless
Продолжительность: 00:46:11

Источник: собственный рип
Наличие сканов в содержимом раздачи: да

Треклист:
01 City of Jerusalem 3:11
02 Earth 3:58
03 Ezio's Family 3:57
04 Spirit of Damascus 1:31
05 Access the Animus 9:34
06 Florence Escape 2:49
07 Meditation of the Assassin 3:42
08 The Bureau 3:12
09 Dreams of Venice 4:24
10 Sanctuary 4:05
11 Venice Industry 3:08
12 Hideout 2:40

Об альбоме (сборнике): Диск идет с коллекционным изданием Assassin's Creed: Revelations. Содержит 12 избранных треков из Assassin's Creed и Assassin's Creed II.
 
Exact Audio Copy V1.0 beta 2 from 29. April 2011

EAC extraction logfile from 6. December 2011, 17:20

Jesper Kyd / Assassin's Creed - Best of

Used drive : TSSTcorpCDDVDW SH-S222A Adapter: 4 ID: 0

Read mode : SecureUtilize accurate stream : YesDefeat audio cache : YesMake use of C2 pointers : No

Read offset correction : 6Overread into Lead-In and Lead-Out : NoFill up missing offset samples with silence : YesDelete leading and trailing silent blocks : NoNull samples used in CRC calculations : YesUsed interface : Native Win32 interface for Win NT & 2000Gap handling : Appended to previous track

Used output format : User Defined EncoderSelected bitrate : 128 kBit/sQuality : HighAdd ID3 tag : NoCommand line compressor : C:\Program Files (x86)\Exact Audio Copy\Flac\flac.exeAdditional command line options : -V -8 -T "Genre=%genre%" -T "Artist=%artist%" -T "Title=%title%" -T "Album=%albumtitle%" -T "Date=%year%" -T "Tracknumber=%tracknr%" -T "Comment=%comment%" %source%

TOC of the extracted CD

Track | Start | Length | Start sector | End sector --------------------------------------------------------- 1 | 0:00.00 | 3:13.02 | 0 | 14476 2 | 3:13.02 | 4:00.59 | 14477 | 32535 3 | 7:13.61 | 3:59.67 | 32536 | 50527 4 | 11:13.53 | 1:33.37 | 50528 | 57539 5 | 12:47.15 | 9:36.59 | 57540 | 100798 6 | 22:23.74 | 2:52.05 | 100799 | 113703 7 | 25:16.04 | 3:45.03 | 113704 | 130581 8 | 29:01.07 | 3:14.35 | 130582 | 145166 9 | 32:15.42 | 4:26.02 | 145167 | 165118 10 | 36:41.44 | 4:08.00 | 165119 | 183718 11 | 40:49.44 | 3:11.18 | 183719 | 198061 12 | 44:00.62 | 2:40.33 | 198062 | 210094

Track 1

Filename C:\Assassin's Creed Soundtrack - Best of - 2011 - Jesper Kyd\01. City of Jerusalem.wav

Pre-gap length 0:00:02.00

Peak level 96.9 % Extraction speed 4.1 X Track quality 100.0 % Test CRC 6F8BB806 Copy CRC 6F8BB806 Track not present in AccurateRip database Copy OK

Track 2

Filename C:\Assassin's Creed Soundtrack - Best of - 2011 - Jesper Kyd\02. Earth.wav

Pre-gap length 0:00:01.74

Peak level 96.9 % Extraction speed 4.7 X Track quality 100.0 % Test CRC 373F8F32 Copy CRC 373F8F32 Track not present in AccurateRip database Copy OK

Track 3

Filename C:\Assassin's Creed Soundtrack - Best of - 2011 - Jesper Kyd\03. Ezio's Family.wav

Pre-gap length 0:00:01.74

Peak level 96.9 % Extraction speed 5.1 X Track quality 100.0 % Test CRC 865A8DE3 Copy CRC 865A8DE3 Track not present in AccurateRip database Copy OK

Track 4

Filename C:\Assassin's Creed Soundtrack - Best of - 2011 - Jesper Kyd\04. Spirit of Damascus.wav

Pre-gap length 0:00:01.74

Peak level 96.9 % Extraction speed 4.4 X Track quality 100.0 % Test CRC 6CA464C2 Copy CRC 6CA464C2 Track not present in AccurateRip database Copy OK

Track 5

Filename C:\Assassin's Creed Soundtrack - Best of - 2011 - Jesper Kyd\05. Access the Animus.wav

Pre-gap length 0:00:01.74

Peak level 96.9 % Extraction speed 6.4 X Track quality 100.0 % Test CRC 5CBF7AF2 Copy CRC 5CBF7AF2 Track not present in AccurateRip database Copy OK

Track 6

Filename C:\Assassin's Creed Soundtrack - Best of - 2011 - Jesper Kyd\06. Florence Escape.wav

Pre-gap length 0:00:01.74

Peak level 96.9 % Extraction speed 6.1 X Track quality 100.0 % Test CRC 20482E7B Copy CRC 20482E7B Track not present in AccurateRip database Copy OK

Track 7

Filename C:\Assassin's Creed Soundtrack - Best of - 2011 - Jesper Kyd\07. Meditation of the Assassin.wav

Pre-gap length 0:00:01.74

Peak level 96.9 % Extraction speed 6.5 X Track quality 100.0 % Test CRC 9C42731F Copy CRC 9C42731F Track not present in AccurateRip database Copy OK

Track 8

Filename C:\Assassin's Creed Soundtrack - Best of - 2011 - Jesper Kyd\08. The Bureau.wav

Pre-gap length 0:00:01.74

Peak level 96.9 % Extraction speed 6.6 X Track quality 100.0 % Test CRC 3663A2F0 Copy CRC 3663A2F0 Track not present in AccurateRip database Copy OK

Track 9

Filename C:\Assassin's Creed Soundtrack - Best of - 2011 - Jesper Kyd\09. Dreams of Venice.wav

Pre-gap length 0:00:01.74

Peak level 96.9 % Extraction speed 7.1 X Track quality 100.0 % Test CRC 8153DD71 Copy CRC 8153DD71 Track not present in AccurateRip database Copy OK

Track 10

Filename C:\Assassin's Creed Soundtrack - Best of - 2011 - Jesper Kyd\10. Sanctuary.wav

Pre-gap length 0:00:01.74

Peak level 96.9 % Extraction speed 6.6 X Track quality 99.9 % Test CRC 93A7AF55 Copy CRC 93A7AF55 Track not present in AccurateRip database Copy OK

Track 11

Filename C:\Assassin's Creed Soundtrack - Best of - 2011 - Jesper Kyd\11. Venice Industry.wav

Pre-gap length 0:00:01.74

Peak level 96.9 % Extraction speed 6.4 X Track quality 99.9 % Test CRC CDA854A9 Copy CRC CDA854A9 Track not present in AccurateRip database Copy OK

Track 12

Filename C:\Assassin's Creed Soundtrack - Best of - 2011 - Jesper Kyd\12. Hideout.wav

Pre-gap length 0:00:01.74

Peak level 96.9 % Extraction speed 7.3 X Track quality 100.0 % Test CRC BCB90730 Copy CRC BCB90730 Track not present in AccurateRip database Copy OK

None of the tracks are present in the AccurateRip database

No errors occurred

End of status report

==== Log checksum 1542AA1951E9C0547AB6BE940EEB14CE80CAEC14AC4E13D51C8D3211DFDB1C59 ====
 
REM GENRE SoundtrackREM DATE 2011REM DISCID A50AF10CREM COMMENT "ExactAudioCopy v1.0b2"PERFORMER "Jesper Kyd"TITLE "Assassin's Creed - Best of"FILE "01. City of Jerusalem.wav" WAVE TRACK 01 AUDIO TITLE "City of Jerusalem" PERFORMER "Jesper Kyd" INDEX 01 00:00:00 TRACK 02 AUDIO TITLE "Earth" PERFORMER "Jesper Kyd" INDEX 00 03:11:03FILE "02. Earth.wav" WAVE INDEX 01 00:00:00 TRACK 03 AUDIO TITLE "Ezio's Family" PERFORMER "Jesper Kyd" INDEX 00 03:58:60FILE "03. Ezio's Family.wav" WAVE INDEX 01 00:00:00 TRACK 04 AUDIO TITLE "Spirit of Damascus" PERFORMER "Jesper Kyd" INDEX 00 03:57:68FILE "04. Spirit of Damascus.wav" WAVE INDEX 01 00:00:00 TRACK 05 AUDIO TITLE "Access the Animus" PERFORMER "Jesper Kyd" INDEX 00 01:31:38FILE "05. Access the Animus.wav" WAVE INDEX 01 00:00:00 TRACK 06 AUDIO TITLE "Florence Escape" PERFORMER "Jesper Kyd" INDEX 00 09:34:60FILE "06. Florence Escape.wav" WAVE INDEX 01 00:00:00 TRACK 07 AUDIO TITLE "Meditation of the Assassin" PERFORMER "Jesper Kyd" INDEX 00 02:50:06FILE "07. Meditation of the Assassin.wav" WAVE INDEX 01 00:00:00 TRACK 08 AUDIO TITLE "The Bureau" PERFORMER "Jesper Kyd" INDEX 00 03:43:04FILE "08. The Bureau.wav" WAVE INDEX 01 00:00:00 TRACK 09 AUDIO TITLE "Dreams of Venice" PERFORMER "Jesper Kyd" INDEX 00 03:12:36FILE "09. Dreams of Venice.wav" WAVE INDEX 01 00:00:00 TRACK 10 AUDIO TITLE "Sanctuary" PERFORMER "Jesper Kyd" INDEX 00 04:24:03FILE "10. Sanctuary.wav" WAVE INDEX 01 00:00:00 TRACK 11 AUDIO TITLE "Venice Industry" PERFORMER "Jesper Kyd" INDEX 00 04:06:01FILE "11. Venice Industry.wav" WAVE INDEX 01 00:00:00 TRACK 12 AUDIO TITLE "Hideout" PERFORMER "Jesper Kyd" INDEX 00 03:09:19FILE "12. Hideout.wav" WAVE INDEX 01 00:00:00


Трекер:  [ 03-Фев-2012 20:16 ]

  

Скачать .torrent

Размер .torrent файла 13 KB


Размер: 316 MB
Хэш (hash) релиза: 1d53518300387459b8db5af03676df85cd520066

bot

Топик был перенесен в форум Саундтреки к аниме (lossless)

Перенес Galfimbul

Хотите добавить комментарий к записи скачать торрент Assassins Creed Soundtrack - Best Of

!Обратная связь