Bluelagoon - Break My Stride | Who's Still Standing | Blythe Danner

Скачать через торрент музыку Colours of Light: Yasunori Mitsuda Vocal Collection бесплатно без регистрации torrent

Статистика раздачи
Размер:  425 MB   |    Зарегистрирован:  6 лет 5 месяцев   |    .torrent скачан:  37 раз   |   
Раздают:  1  
   
загрузка...
 
Автор Сообщение

Galfimbul

avatar Galfimbul


Colours of Light: Yasunori Mitsuda Vocal Collection

Жанр: Score / Arrangement
Композитор: Yasunori Mitsuda
Год выпуска диска: 2009
Издатель (лейбл): Sleigh Bells
Номер по каталогу: SBPS-0015
Аудиокодек: FLAC (*.flac)
Тип рипа: image+.cue
Битрейт аудио: lossless
Продолжительность: 68:24
Источник: underground-gamer
Наличие сканов в содержимом раздачи: да

Треклист:
1. Sailing to the World
2. Promise with Winds ~ Petals' Whereabouts
3. Time's Arm
4. Pain
5. CREID
6. Stairs of Light
7. Kokoro
8. - Ring -
9. Silver Leica
10. STARS OF TEARS ~Yasashiku Hoshi wo Furishikiru~
11. Spring Lullaby
12. SMALL TWO OF PIECES ~Kishinda Hahen~
13. Reincarnation
14. The Name of Our Hope
15. RADICAL DREAMERS ~The Jewel That Has Not Been Stolen~
 
Exact Audio Copy V0.99 prebeta 5 from 4. May 2009

EAC extraction logfile from 28. August 2009, 22:36

Њх“cЌN“T / Colours of Light - yasunori mitsuda vocal collection -

Used drive : PIONEER DVD-RW DVR-109 Adapter: 2 ID: 0

Read mode : SecureUtilize accurate stream : YesDefeat audio cache : YesMake use of C2 pointers : No

Read offset correction : 48Overread into Lead-In and Lead-Out : NoFill up missing offset samples with silence : YesDelete leading and trailing silent blocks : NoNull samples used in CRC calculations : YesUsed interface : Native Win32 interface for Win NT & 2000

Used output format : User Defined EncoderSelected bitrate : 128 kBit/sQuality : HighAdd ID3 tag : NoCommand line compressor : G:\Program Files\FLAC\flac-1.2.1-win\bin\flac.exeAdditional command line options : -V -5 -T "album=%g" -T "artist=%a" -T "tracknumber=%N" -T "title=%t" -T "date=%y" -T "genre=%m" -T "comment=" %s

TOC of the extracted CD

Track | Start | Length | Start sector | End sector --------------------------------------------------------- 1 | 0:00.00 | 3:32.60 | 0 | 15959 2 | 3:32.60 | 4:51.26 | 15960 | 37810 3 | 8:24.11 | 2:08.24 | 37811 | 47434 4 | 10:32.35 | 5:37.65 | 47435 | 72774 5 | 16:10.25 | 4:43.14 | 72775 | 94013 6 | 20:53.39 | 3:48.21 | 94014 | 111134 7 | 24:41.60 | 5:39.64 | 111135 | 136623 8 | 30:21.49 | 1:13.30 | 136624 | 142128 9 | 31:35.04 | 7:01.35 | 142129 | 173738 10 | 38:36.39 | 3:00.65 | 173739 | 187303 11 | 41:37.29 | 5:33.26 | 187304 | 212304 12 | 47:10.55 | 6:22.59 | 212305 | 241013 13 | 53:33.39 | 5:21.24 | 241014 | 265112 14 | 58:54.63 | 4:54.59 | 265113 | 287221 15 | 63:49.47 | 4:36.29 | 287222 | 307950

Range status and errors

Selected range

Filename F:\UP_PACK_NEW\Colours of Light - yasunori mitsuda vocal collection -.wav

Peak level 98.8 % Range quality 100.0 % Test CRC 10B7C7E5 Copy CRC 10B7C7E5 Copy OK

No errors occurred

AccurateRip summary

Track 1 not present in databaseTrack 2 not present in databaseTrack 3 not present in databaseTrack 4 not present in databaseTrack 5 not present in databaseTrack 6 not present in databaseTrack 7 not present in databaseTrack 8 not present in databaseTrack 9 not present in databaseTrack 10 not present in databaseTrack 11 not present in databaseTrack 12 not present in databaseTrack 13 not present in databaseTrack 14 not present in databaseTrack 15 not present in database

None of the tracks are present in the AccurateRip database

End of status report


Трекер:  [ 03-Фев-2012 20:15 ]

  

Скачать .torrent

Размер .torrent файла 35 KB


Размер: 425 MB
Хэш (hash) релиза: 801691c5ad8551acdb9a91ec8f3d790478ddb151

Торренты, похожие на Colours of Light: Yasunori Mitsuda Vocal Collection скачать торрент

Форум Название Автор Размер S L Добавлен
Саундтреки к играм (mp3) ·· (Arrangement) Colours of Light: Yasunori Mitsuda Vocal Collection - 2009, MP3 (tracks), 320 kbps Galfimbul 184877759176 MB 0 0 1292261142

20:25

13-Дек-10

bot

Топик был перенесен в форум Саундтреки к аниме (lossless)

Перенес Galfimbul

Хотите добавить комментарий к записи скачать торрент Colours of Light: Yasunori Mitsuda Vocal Collection

!Обратная связь