Ellen Pompeo, Devin Dawson
Tomsize Dakat Loving You

Скачать через торрент музыку X COM - Enemy Unknown бесплатно без регистрации torrent

Статистика раздачи
Размер:  244 MB   |    Зарегистрирован:  6 лет 2 месяца   |    .torrent скачан:  29 раз   |   
Раздают:  1  
   
загрузка...
 
Автор Сообщение

Galfimbul

avatar Galfimbul


X COM - Enemy Unknown

Жанр: Score
Композитор: John Broomhall
Год выпуска диска: 1994
Производитель диска: Microprose
Аудиокодек: FLAC (*.flac)
Тип рипа: tracks+.cue
Битрейт аудио: lossless
Продолжительность: 21:01
Источник: собственный рип
Наличие сканов в содержимом раздачи: нет

Треклист:

02 John Broomhall - Geoscape 1 [04:54]
03 John Broomhall - Geoscape 2 [05:13]
04 John Broomhall - Geoscape 3 [04:21]
05 John Broomhall - Geoscape 4 [03:59]
06 John Broomhall - Briefing 1 [01:53]
07 John Broomhall - Briefing 2 [02:08]
08 John Broomhall - Debriefing [02:02]
09 John Broomhall - Dogfight [04:21]
10 John Broomhall - Final Briefing [03:56]
11 John Broomhall - Battlescape 1 [07:57]
12 John Broomhall - Battlescape 2 [08:04]
13 John Broomhall - Mission Accomplished [02:07]
 
Exact Audio Copy V1.0 beta 1 from 15. November 2010

EAC extraction logfile from 19. April 2011, 20:37

John Broomhall / X COM - Enemy Unknown

Used drive : Optiarc DVD RW AD-5200A Adapter: 0 ID: 0

Read mode : SecureUtilize accurate stream : YesDefeat audio cache : YesMake use of C2 pointers : No

Read offset correction : 48Overread into Lead-In and Lead-Out : NoFill up missing offset samples with silence : YesDelete leading and trailing silent blocks : NoNull samples used in CRC calculations : YesUsed interface : Native Win32 interface for Win NT & 2000Gap handling : Appended to previous track

Used output format : User Defined EncoderSelected bitrate : 32 kBit/sQuality : HighAdd ID3 tag : NoCommand line compressor : C:\Program Files (x86)\Exact Audio Copy\Flac\flac.exeAdditional command line options : -8 -V -T "ARTIST=%a" -T "TITLE=%t" -T "ALBUM=%g" -T "DATE=%y" -T "TRACKNUMBER=%n" -T "GENRE=%m" -T "COMMENT=Ripped by Andy aka yetiisyou" %s

TOC of the extracted CD

Track | Start | Length | Start sector | End sector --------------------------------------------------------- 1 | 0:00.00 | 11:23.52 | 0 | 51276 2 | 11:23.52 | 4:54.28 | 51277 | 73354 3 | 16:18.05 | 5:13.61 | 73355 | 96890 4 | 21:31.66 | 4:21.34 | 96891 | 116499 5 | 25:53.25 | 3:59.08 | 116500 | 134432 6 | 29:52.33 | 1:53.05 | 134433 | 142912 7 | 31:45.38 | 2:08.07 | 142913 | 152519 8 | 33:53.45 | 2:02.32 | 152520 | 161701 9 | 35:56.02 | 4:21.68 | 161702 | 181344 10 | 40:17.70 | 3:56.58 | 181345 | 199102 11 | 44:14.53 | 7:57.17 | 199103 | 234894 12 | 52:11.70 | 8:04.67 | 234895 | 271261 13 | 60:16.62 | 2:07.66 | 271262 | 280852

Track 2

Filename E:\!Rips\1994 - X COM Enemy Unknown\02 - Geoscape 1.wav

Pre-gap length 0:11:23.64

Peak level 100.0 % Extraction speed 1.1 X Track quality 100.0 % Test CRC FE4C94A2 Copy CRC FE4C94A2 Track not present in AccurateRip database Copy OK

Track 3

Filename E:\!Rips\1994 - X COM Enemy Unknown\03 - Geoscape 2.wav

Peak level 100.0 % Extraction speed 1.0 X Track quality 99.9 % Test CRC 5565B729 Copy CRC 5565B729 Track not present in AccurateRip database Copy OK

Track 4

Filename E:\!Rips\1994 - X COM Enemy Unknown\04 - Geoscape 3.wav

Peak level 99.9 % Extraction speed 1.1 X Track quality 100.0 % Test CRC 31F201F0 Copy CRC 31F201F0 Track not present in AccurateRip database Copy OK

Track 5

Filename E:\!Rips\1994 - X COM Enemy Unknown\05 - Geoscape 4.wav

Peak level 99.9 % Extraction speed 1.0 X Track quality 100.0 % Test CRC 873F9B2C Copy CRC 873F9B2C Track not present in AccurateRip database Copy OK

Track 6

Filename E:\!Rips\1994 - X COM Enemy Unknown\06 - Briefing 1.wav

Peak level 100.0 % Extraction speed 0.9 X Track quality 100.0 % Test CRC 42A4B625 Copy CRC 42A4B625 Track not present in AccurateRip database Copy OK

Track 7

Filename E:\!Rips\1994 - X COM Enemy Unknown\07 - Briefing 2.wav

Peak level 99.1 % Extraction speed 0.9 X Track quality 100.0 % Test CRC 5E50D283 Copy CRC 5E50D283 Track not present in AccurateRip database Copy OK

Track 8

Filename E:\!Rips\1994 - X COM Enemy Unknown\08 - Debriefing.wav

Peak level 99.8 % Extraction speed 0.9 X Track quality 100.0 % Test CRC 95C848F9 Copy CRC 95C848F9 Track not present in AccurateRip database Copy OK

Track 9

Filename E:\!Rips\1994 - X COM Enemy Unknown\09 - Dogfight.wav

Peak level 100.0 % Extraction speed 1.0 X Track quality 100.0 % Test CRC F235796E Copy CRC F235796E Track not present in AccurateRip database Copy OK

Track 10

Filename E:\!Rips\1994 - X COM Enemy Unknown\10 - Final Briefing.wav

Peak level 99.9 % Extraction speed 0.9 X Track quality 99.9 % Test CRC 5A2A48B0 Copy CRC 5A2A48B0 Track not present in AccurateRip database Copy OK

Track 11

Filename E:\!Rips\1994 - X COM Enemy Unknown\11 - Battlescape 1.wav

Peak level 99.9 % Extraction speed 1.1 X Track quality 100.0 % Test CRC 71BCA884 Copy CRC 71BCA884 Track not present in AccurateRip database Copy OK

Track 12

Filename E:\!Rips\1994 - X COM Enemy Unknown\12 - Battlescape 2.wav

Peak level 63.4 % Extraction speed 1.0 X Track quality 99.9 % Test CRC C518EA5C Copy CRC C518EA5C Track not present in AccurateRip database Copy OK

Track 13

Filename E:\!Rips\1994 - X COM Enemy Unknown\13 - Mission Accomplished.wav

Peak level 99.9 % Extraction speed 0.7 X Track quality 99.9 % Test CRC EB6C9050 Copy CRC EB6C9050 Track not present in AccurateRip database Copy OK

None of the tracks are present in the AccurateRip database

No errors occurred

End of status report

==== Log checksum F21240AD897C09916851E20EA86585DD1C4D5DD16110711DFF9AFD7D249FA762 ====
 
REM DATE 1994REM DISCID C40EA00DREM COMMENT "ExactAudioCopy v1.0b1"PERFORMER "John Broomhall"TITLE "X COM - Enemy Unknown"FILE "02 - Geoscape 1.wav" WAVE TRACK 01 AUDIO TITLE "Geoscape 1" PERFORMER "John Broomhall" INDEX 01 00:00:00FILE "03 - Geoscape 2.wav" WAVE TRACK 02 AUDIO TITLE "Geoscape 2" PERFORMER "John Broomhall" INDEX 01 00:00:00FILE "04 - Geoscape 3.wav" WAVE TRACK 03 AUDIO TITLE "Geoscape 3" PERFORMER "John Broomhall" INDEX 01 00:00:00FILE "05 - Geoscape 4.wav" WAVE TRACK 04 AUDIO TITLE "Geoscape 4" PERFORMER "John Broomhall" INDEX 01 00:00:00FILE "06 - Briefing 1.wav" WAVE TRACK 05 AUDIO TITLE "Briefing 1" PERFORMER "John Broomhall" INDEX 01 00:00:00FILE "07 - Briefing 2.wav" WAVE TRACK 06 AUDIO TITLE "Briefing 2" PERFORMER "John Broomhall" INDEX 01 00:00:00FILE "08 - Debriefing.wav" WAVE TRACK 07 AUDIO TITLE "Debriefing" PERFORMER "John Broomhall" INDEX 01 00:00:00FILE "09 - Dogfight.wav" WAVE TRACK 08 AUDIO TITLE "Dogfight" PERFORMER "John Broomhall" INDEX 01 00:00:00FILE "10 - Final Briefing.wav" WAVE TRACK 09 AUDIO TITLE "Final Briefing" PERFORMER "John Broomhall" INDEX 01 00:00:00FILE "11 - Battlescape 1.wav" WAVE TRACK 10 AUDIO TITLE "Battlescape 1" PERFORMER "John Broomhall" INDEX 01 00:00:00FILE "12 - Battlescape 2.wav" WAVE TRACK 11 AUDIO TITLE "Battlescape 2" PERFORMER "John Broomhall" INDEX 01 00:00:00FILE "13 - Mission Accomplished.wav" WAVE TRACK 12 AUDIO TITLE "Mission Accomplished" PERFORMER "John Broomhall" INDEX 01 00:00:00
 
REM DATE 1994REM DISCID C40EA00DREM COMMENT "ExactAudioCopy v1.0b1"PERFORMER "John Broomhall"TITLE "X COM - Enemy Unknown"FILE "<Filename>.iso" BINARY TRACK 01 MODEx/2xxx TITLE "1" PERFORMER "John Broomhall" INDEX 01 00:00:00 TRACK 02 AUDIO TITLE "Geoscape 1" PERFORMER "John Broomhall" INDEX 00 00:00:04FILE "02 - Geoscape 1.wav" WAVE INDEX 01 00:00:00FILE "03 - Geoscape 2.wav" WAVE TRACK 03 AUDIO TITLE "Geoscape 2" PERFORMER "John Broomhall" INDEX 01 00:00:00FILE "04 - Geoscape 3.wav" WAVE TRACK 04 AUDIO TITLE "Geoscape 3" PERFORMER "John Broomhall" INDEX 01 00:00:00FILE "05 - Geoscape 4.wav" WAVE TRACK 05 AUDIO TITLE "Geoscape 4" PERFORMER "John Broomhall" INDEX 01 00:00:00FILE "06 - Briefing 1.wav" WAVE TRACK 06 AUDIO TITLE "Briefing 1" PERFORMER "John Broomhall" INDEX 01 00:00:00FILE "07 - Briefing 2.wav" WAVE TRACK 07 AUDIO TITLE "Briefing 2" PERFORMER "John Broomhall" INDEX 01 00:00:00FILE "08 - Debriefing.wav" WAVE TRACK 08 AUDIO TITLE "Debriefing" PERFORMER "John Broomhall" INDEX 01 00:00:00FILE "09 - Dogfight.wav" WAVE TRACK 09 AUDIO TITLE "Dogfight" PERFORMER "John Broomhall" INDEX 01 00:00:00FILE "10 - Final Briefing.wav" WAVE TRACK 10 AUDIO TITLE "Final Briefing" PERFORMER "John Broomhall" INDEX 01 00:00:00FILE "11 - Battlescape 1.wav" WAVE TRACK 11 AUDIO TITLE "Battlescape 1" PERFORMER "John Broomhall" INDEX 01 00:00:00FILE "12 - Battlescape 2.wav" WAVE TRACK 12 AUDIO TITLE "Battlescape 2" PERFORMER "John Broomhall" INDEX 01 00:00:00FILE "13 - Mission Accomplished.wav" WAVE TRACK 13 AUDIO TITLE "Mission Accomplished" PERFORMER "John Broomhall" INDEX 01 00:00:00
 
-----------------------

DON'T MODIFY THIS FILE

-----------------------

PERFORMER: auCDtect Task Manager, ver. 1.5.1RC4 build 1.5.1.5Copyright (c) 2008-2010 y-soft. All rights reservedhttp://y-soft.org

ANALYZER: auCDtect: CD records authenticity detector, version 0.8.2Copyright (c) 2004 Oleg Berngardt. All rights reserved.Copyright (c) 2004 Alexander Djourik. All rights reserved.

FILE: 13 - Mission Accomplished.flac Size: 12446153 Hash: 7EEB2EAD9D7551213C102DD290899BB2 Accuracy: -m0 Conclusion: CDDA 100% Signature: 88DF8374835A49659CA4F7455A6BA14C74199809FILE: 12 - Battlescape 2.flac Size: 26202073 Hash: 1BFC1BCE1F6DAE0852EC93B31FF66E05 Accuracy: -m0 Conclusion: CDDA 100% Signature: 6A11275DD377BC1D0F4B2B84E6433453FA8EF898FILE: 11 - Battlescape 1.flac Size: 34235447 Hash: C5E84D603EA0F92F12C69596396CA428 Accuracy: -m0 Conclusion: CDDA 100% Signature: EF249B77E9B308DEF6F1B3196E97AC5486094DA2FILE: 10 - Final Briefing.flac Size: 16974223 Hash: DAF6B9A08A97430456147268893D041D Accuracy: -m0 Conclusion: CDDA 92% Signature: 1BBC6AAA30549B940FF394593CA55E3782B321ADFILE: 09 - Dogfight.flac Size: 29400809 Hash: DB1AE0EBB3393FB1C55F32384F6BD020 Accuracy: -m0 Conclusion: CDDA 100% Signature: B3FC7EECA9B13A3FBB6B4485BAD146FDBD80EC18FILE: 08 - Debriefing.flac Size: 10824941 Hash: C4FAE46C8FE678ABE0687884DDC23D8E Accuracy: -m0 Conclusion: CDDA 100% Signature: AD2D94D0DF66E7686F28BFFD182CEAC2DA3F4D09FILE: 07 - Briefing 2.flac Size: 12507313 Hash: 99A6AC6F834C846A36BE34A655B1ABC0 Accuracy: -m0 Conclusion: CDDA 99% Signature: 51048B0230623E6F654C4B47537A0D98D84B3E63FILE: 06 - Briefing 1.flac Size: 11904336 Hash: C08BEA7DBC360B90CCE7817B7CE3AB9C Accuracy: -m0 Conclusion: CDDA 100% Signature: E017B27C35A09B60197CB97E7D407A50DCABE859FILE: 05 - Geoscape 4.flac Size: 23347207 Hash: 9934D235B5C1378455C2EFC1636579CF Accuracy: -m0 Conclusion: CDDA 100% Signature: 7819496362A51552AAD1A1A5363F196F49C3E147FILE: 04 - Geoscape 3.flac Size: 22340053 Hash: B72F70F0EE00F80CAF56D10DFD533D14 Accuracy: -m0 Conclusion: CDDA 100% Signature: 80CBDDE20D7B6DDEF22642777BED67C340503BF2FILE: 03 - Geoscape 2.flac Size: 30971117 Hash: 33E4F1C65D6611A25C47E23C1163AAF0 Accuracy: -m0 Conclusion: CDDA 100% Signature: 85E2CA6BFB246B4E27F459CFFAB602B8EAD14984FILE: 02 - Geoscape 1.flac Size: 23976687 Hash: A59BE4A890E476EB457357618F2311A9 Accuracy: -m0 Conclusion: CDDA 100% Signature: B072E02931F0E0E7CB18B1E91F0682D00192C7CF




Трекер:  [ 03-Фев-2012 20:14 ]

  

Скачать .torrent

Размер .torrent файла 20 KB


Размер: 244 MB
Хэш (hash) релиза: cb9189f15100cdb2a6e8260d3acf2218b1cdf760

Торренты, похожие на X COM - Enemy Unknown скачать торрент

Форум Название Автор Размер S L Добавлен
Саундтреки к играм (mp3) ·· (Soundtrack) X COM Enemy Unknown (UFO Defense) (PSone Gamerip) + X COM Terror from the Deep (PC Gamerip) - 1994-1995, MP3 (tracks), 192 kbps Galfimbul 117056959112 MB 0 0 1292261055

20:24

13-Дек-10

bot

Топик был перенесен в форум Саундтреки к аниме (lossless)

Перенес Galfimbul

Хотите добавить комментарий к записи скачать торрент X COM - Enemy Unknown

!Обратная связь