- Our Cartoon President S01E15 HDTV x264-aAF | Aap Ke Aa Jane Se | Schlossseiten – Sommer 2018

Скачать через торрент музыку Gray Matter Original Soundtrack бесплатно без регистрации torrent

Статистика раздачи
Размер:  319 MB   |    Зарегистрирован:  6 лет 6 месяцев   |    .torrent скачан:  42 раза   |   
Раздают:  1  
   
загрузка...
 
Автор Сообщение

Galfimbul

avatar Galfimbul


Gray Matter Original Soundtrack

Жанр: Score
Композитор: Robert Holmes
Год выпуска диска: 2010
Аудиокодек: FLAC (*.flac)
Тип рипа: tracks+.cue
Битрейт аудио: lossless
Продолжительность: 59:31
Источник: forums.ffshrine.org
Наличие сканов в содержимом раздачи: нет

Треклист:
1. Smart Sam 0:47
2. Never Going Back (Sam's Theme) 4:10
3. Sam's Investigations 3:23
4. Styles 1:43
5. Safe In Arms 5:50
6. The Daedalus Club 5:07
7. Misleading Signs 2:43
8. Set A Trap 1:15
9. Lady Byron 2:45
10. The Vision Laura 2:30
11. Angela 2:56
12. The Lab 2:48
13. The Happening 0:51
14. The Experiment 2:07
15. The Effect 2:58
16. The Black Wand 2:05
17. David's Theme (Piano) 2:43
18. The False Laura 1:43
19. Never Going Back There (Instrumental) 4:13
20. Angela 1:27
21. Safe In Arms 5:36

инструментальная музыка,есть треки с вокалом.. исполнено The Scarlet Furies
 
Exact Audio Copy V1.0 beta 2 from 29. April 2011

EAC extraction logfile from 3. August 2011, 22:24

Robert Holmes / Gray Matter

Used drive : Optiarc DVD RW AD-7243S Adapter: 2 ID: 0

Read mode : SecureUtilize accurate stream : YesDefeat audio cache : YesMake use of C2 pointers : No

Read offset correction : 48Overread into Lead-In and Lead-Out : NoFill up missing offset samples with silence : YesDelete leading and trailing silent blocks : NoNull samples used in CRC calculations : YesUsed interface : Native Win32 interface for Win NT & 2000Gap handling : Appended to previous track

Used output format : User Defined EncoderSelected bitrate : 1024 kBit/sQuality : HighAdd ID3 tag : NoCommand line compressor : C:\Program Files (x86)\Exact Audio Copy\FLAC\FLAC.EXEAdditional command line options : -8 -V -T "ARTIST=%artist%" -T "TITLE=%title%" -T "ALBUM=%albumtitle%" -T "DATE=%year%" -T "TRACKNUMBER=%tracknr%" -T "GENRE=%genre%" -T "PERFORMER=%albuminterpret%" -T "COMPOSER=%composer%" %haslyrics%--tag-from-file=LYRICS

TOC of the extracted CD

Track | Start | Length | Start sector | End sector --------------------------------------------------------- 1 | 0:00.00 | 0:47.15 | 0 | 3539 2 | 0:47.15 | 4:09.70 | 3540 | 22284 3 | 4:57.10 | 3:23.29 | 22285 | 37538 4 | 8:20.39 | 1:43.19 | 37539 | 45282 5 | 10:03.58 | 5:50.33 | 45283 | 71565 6 | 15:54.16 | 5:06.56 | 71566 | 94571 7 | 21:00.72 | 2:34.05 | 94572 | 106126 8 | 23:35.02 | 1:14.71 | 106127 | 111747 9 | 24:49.73 | 2:44.51 | 111748 | 124098 10 | 27:34.49 | 2:29.52 | 124099 | 135325 11 | 30:04.26 | 2:55.40 | 135326 | 148490 12 | 32:59.66 | 2:47.55 | 148491 | 161070 13 | 35:47.46 | 0:50.47 | 161071 | 164867 14 | 36:38.18 | 2:06.50 | 164868 | 174367 15 | 38:44.68 | 2:58.30 | 174368 | 187747 16 | 41:43.23 | 2:05.04 | 187748 | 197126 17 | 43:48.27 | 2:43.02 | 197127 | 209353 18 | 46:31.29 | 1:42.40 | 209354 | 217043 19 | 48:13.69 | 4:13.34 | 217044 | 236052 20 | 52:27.28 | 1:26.47 | 236053 | 242549 21 | 53:54.00 | 5:36.05 | 242550 | 267754

Track 1

Filename C:\EAC\01 Smart Sam.wav

Pre-gap length 0:00:02.00

Peak level 65.4 % Extraction speed 1.4 X Track quality 100.0 % Test CRC 9AF6ED07 Copy CRC 9AF6ED07 Track not present in AccurateRip database Copy OK

Track 2

Filename C:\EAC\02 Never Going Back (Sam's Theme).wav

Pre-gap length 0:00:02.00

Peak level 99.9 % Extraction speed 2.5 X Track quality 100.0 % Test CRC 7DB70AB9 Copy CRC 7DB70AB9 Track not present in AccurateRip database Copy OK

Track 3

Filename C:\EAC\03 Sam's Investigations.wav

Pre-gap length 0:00:02.00

Peak level 78.8 % Extraction speed 2.6 X Track quality 100.0 % Test CRC A38F84D4 Copy CRC A38F84D4 Track not present in AccurateRip database Copy OK

Track 4

Filename C:\EAC\04 Styles.wav

Pre-gap length 0:00:02.00

Peak level 66.2 % Extraction speed 1.9 X Track quality 99.8 % Test CRC C97B78AE Copy CRC C97B78AE Track not present in AccurateRip database Copy OK

Track 5

Filename C:\EAC\05 Safe In Arms.wav

Pre-gap length 0:00:02.00

Peak level 98.6 % Extraction speed 3.2 X Track quality 100.0 % Test CRC 48138D8B Copy CRC 48138D8B Track not present in AccurateRip database Copy OK

Track 6

Filename C:\EAC\06 The Daedalus Club.wav

Pre-gap length 0:00:02.00

Peak level 70.0 % Extraction speed 3.1 X Track quality 99.9 % Test CRC 6AE23CE0 Copy CRC 6AE23CE0 Track not present in AccurateRip database Copy OK

Track 7

Filename C:\EAC\07 Misleading Signs.wav

Pre-gap length 0:00:02.00

Peak level 61.5 % Extraction speed 3.2 X Track quality 100.0 % Test CRC CEA27871 Copy CRC CEA27871 Track not present in AccurateRip database Copy OK

Track 8

Filename C:\EAC\08 Set A Trap.wav

Pre-gap length 0:00:02.00

Peak level 100.0 % Extraction speed 2.7 X Track quality 100.0 % Test CRC 44F33035 Copy CRC 44F33035 Track not present in AccurateRip database Copy OK

Track 9

Filename C:\EAC\09 Lady Byron.wav

Pre-gap length 0:00:02.00

Peak level 58.2 % Extraction speed 2.9 X Track quality 99.9 % Test CRC 5B6CA3C4 Copy CRC 5B6CA3C4 Track not present in AccurateRip database Copy OK

Track 10

Filename C:\EAC\10 The Vision Laura.wav

Pre-gap length 0:00:02.00

Peak level 70.8 % Extraction speed 2.9 X Track quality 99.9 % Test CRC 22A93397 Copy CRC 22A93397 Track not present in AccurateRip database Copy OK

Track 11

Filename C:\EAC\11 Angela.wav

Pre-gap length 0:00:02.00

Peak level 93.3 % Extraction speed 3.7 X Track quality 100.0 % Test CRC E320527E Copy CRC E320527E Track not present in AccurateRip database Copy OK

Track 12

Filename C:\EAC\12 The Lab.wav

Pre-gap length 0:00:02.00

Peak level 67.1 % Extraction speed 3.8 X Track quality 100.0 % Test CRC EBF8D4A3 Copy CRC EBF8D4A3 Track not present in AccurateRip database Copy OK

Track 13

Filename C:\EAC\13 The Happening.wav

Pre-gap length 0:00:02.00

Peak level 77.4 % Extraction speed 2.7 X Track quality 100.0 % Test CRC 401E36E1 Copy CRC 401E36E1 Track not present in AccurateRip database Copy OK

Track 14

Filename C:\EAC\14 The Experiment.wav

Pre-gap length 0:00:02.00

Peak level 74.5 % Extraction speed 3.6 X Track quality 100.0 % Test CRC 971D12E6 Copy CRC 971D12E6 Track not present in AccurateRip database Copy OK

Track 15

Filename C:\EAC\15 The Effect.wav

Pre-gap length 0:00:02.00

Peak level 60.1 % Extraction speed 4.1 X Track quality 100.0 % Test CRC BCBC9876 Copy CRC BCBC9876 Track not present in AccurateRip database Copy OK

Track 16

Filename C:\EAC\16 The Black Wand.wav

Pre-gap length 0:00:02.00

Peak level 54.8 % Extraction speed 3.8 X Track quality 100.0 % Test CRC 32FD66E4 Copy CRC 32FD66E4 Track not present in AccurateRip database Copy OK

Track 17

Filename C:\EAC\17 David's Theme (Piano).wav

Pre-gap length 0:00:02.00

Peak level 100.0 % Extraction speed 3.5 X Track quality 99.9 % Test CRC 31D6ECD9 Copy CRC 31D6ECD9 Track not present in AccurateRip database Copy OK

Track 18

Filename C:\EAC\18 The False Laura.wav

Pre-gap length 0:00:02.00

Peak level 76.6 % Extraction speed 3.7 X Track quality 100.0 % Test CRC AEE4CB33 Copy CRC AEE4CB33 Track not present in AccurateRip database Copy OK

Track 19

Filename C:\EAC\19 Never Going Back There (Instrumental).wav

Pre-gap length 0:00:02.00

Peak level 85.9 % Extraction speed 4.7 X Track quality 100.0 % Test CRC 1419FFE9 Copy CRC 1419FFE9 Track not present in AccurateRip database Copy OK

Track 20

Filename C:\EAC\20 Angela.wav

Pre-gap length 0:00:02.00

Peak level 100.0 % Extraction speed 2.9 X Track quality 99.8 % Test CRC 797CF0D4 Copy CRC 797CF0D4 Track not present in AccurateRip database Copy OK

Track 21

Filename C:\EAC\21 Safe In Arms (Instrumental).wav

Pre-gap length 0:00:02.00

Peak level 100.0 % Extraction speed 5.1 X Track quality 100.0 % Test CRC E8C3D4A8 Copy CRC E8C3D4A8 Track not present in AccurateRip database Copy OK

None of the tracks are present in the AccurateRip database

No errors occurred

End of status report

==== Log checksum 7A92C6DE69AE35197A0C2D1252F09A0E7A1FCCC418C65A19D6DBF99F1D8176F9 ====
 
REM GENRE SoundtrackREM DATE 2011REM DISCID 290DF215REM COMMENT "ExactAudioCopy v1.0b2"PERFORMER "Robert Holmes"TITLE "Gray Matter"FILE "01 Smart Sam.wav" WAVE TRACK 01 AUDIO TITLE "Smart Sam" PERFORMER "Robert Holmes" FLAGS DCP INDEX 01 00:00:00 TRACK 02 AUDIO TITLE "Never Going Back (Sam's Theme)" PERFORMER "Robert Holmes" FLAGS DCP INDEX 00 00:45:15FILE "02 Never Going Back (Sam's Theme).wav" WAVE INDEX 01 00:00:00 TRACK 03 AUDIO TITLE "Sam's Investigations" PERFORMER "Robert Holmes" FLAGS DCP INDEX 00 04:07:70FILE "03 Sam's Investigations.wav" WAVE INDEX 01 00:00:00 TRACK 04 AUDIO TITLE "Styles" PERFORMER "Robert Holmes" FLAGS DCP INDEX 00 03:21:29FILE "04 Styles.wav" WAVE INDEX 01 00:00:00 TRACK 05 AUDIO TITLE "Safe In Arms" PERFORMER "Robert Holmes" FLAGS DCP INDEX 00 01:41:19FILE "05 Safe In Arms.wav" WAVE INDEX 01 00:00:00 TRACK 06 AUDIO TITLE "The Daedalus Club" PERFORMER "Robert Holmes" FLAGS DCP INDEX 00 05:48:33FILE "06 The Daedalus Club.wav" WAVE INDEX 01 00:00:00 TRACK 07 AUDIO TITLE "Misleading Signs" PERFORMER "Robert Holmes" FLAGS DCP INDEX 00 05:04:56FILE "07 Misleading Signs.wav" WAVE INDEX 01 00:00:00 TRACK 08 AUDIO TITLE "Set A Trap" PERFORMER "Robert Holmes" FLAGS DCP INDEX 00 02:32:05FILE "08 Set A Trap.wav" WAVE INDEX 01 00:00:00 TRACK 09 AUDIO TITLE "Lady Byron" PERFORMER "Robert Holmes" FLAGS DCP INDEX 00 01:12:71FILE "09 Lady Byron.wav" WAVE INDEX 01 00:00:00 TRACK 10 AUDIO TITLE "The Vision Laura" PERFORMER "Robert Holmes" FLAGS DCP INDEX 00 02:42:51FILE "10 The Vision Laura.wav" WAVE INDEX 01 00:00:00 TRACK 11 AUDIO TITLE "Angela" PERFORMER "Robert Holmes" FLAGS DCP INDEX 00 02:27:52FILE "11 Angela.wav" WAVE INDEX 01 00:00:00 TRACK 12 AUDIO TITLE "The Lab" PERFORMER "Robert Holmes" FLAGS DCP INDEX 00 02:53:40FILE "12 The Lab.wav" WAVE INDEX 01 00:00:00 TRACK 13 AUDIO TITLE "The Happening" PERFORMER "Robert Holmes" FLAGS DCP INDEX 00 02:45:55FILE "13 The Happening.wav" WAVE INDEX 01 00:00:00 TRACK 14 AUDIO TITLE "The Experiment" PERFORMER "Robert Holmes" FLAGS DCP INDEX 00 00:48:47FILE "14 The Experiment.wav" WAVE INDEX 01 00:00:00 TRACK 15 AUDIO TITLE "The Effect" PERFORMER "Robert Holmes" FLAGS DCP INDEX 00 02:04:50FILE "15 The Effect.wav" WAVE INDEX 01 00:00:00 TRACK 16 AUDIO TITLE "The Black Wand" PERFORMER "Robert Holmes" FLAGS DCP INDEX 00 02:56:30FILE "16 The Black Wand.wav" WAVE INDEX 01 00:00:00 TRACK 17 AUDIO TITLE "David's Theme (Piano)" PERFORMER "Robert Holmes" FLAGS DCP INDEX 00 02:03:04FILE "17 David's Theme (Piano).wav" WAVE INDEX 01 00:00:00 TRACK 18 AUDIO TITLE "The False Laura" PERFORMER "Robert Holmes" FLAGS DCP INDEX 00 02:41:02FILE "18 The False Laura.wav" WAVE INDEX 01 00:00:00 TRACK 19 AUDIO TITLE "Never Going Back There (Instrumental)" PERFORMER "Robert Holmes" FLAGS DCP INDEX 00 01:40:40FILE "19 Never Going Back There (Instrumental).wav" WAVE INDEX 01 00:00:00 TRACK 20 AUDIO TITLE "Angela" PERFORMER "Robert Holmes" FLAGS DCP INDEX 00 04:11:34FILE "20 Angela.wav" WAVE INDEX 01 00:00:00 TRACK 21 AUDIO TITLE "Safe In Arms (Instrumental)" PERFORMER "Robert Holmes" FLAGS DCP INDEX 00 01:24:47FILE "21 Safe In Arms (Instrumental).wav" WAVE INDEX 01 00:00:00
 
AUDIOCHECKER v2.0 beta (build 457) - by Dester - [email protected]~~~~~~~~~~~~~~~~~~~~~~~~~~~~~~~~~~

Started at: среда, 03. 08. 2011. - 22:58.4321 files found

01 -===- C:\Gray Matter Original Soundtrack\01 Smart Sam.flac Extracted successfully Conclusion: this track is CDDA with probability 100% Tempfile successfully deleted.

02 -===- C:\Gray Matter Original Soundtrack\02 Never Going Back (Sam's Theme).flac Extracted successfully Conclusion: this track is CDDA with probability 100% Tempfile successfully deleted.

03 -===- C:\Gray Matter Original Soundtrack\03 Sam's Investigations.flac Extracted successfully Conclusion: this track is CDDA with probability 100% Tempfile successfully deleted.

04 -===- C:\Gray Matter Original Soundtrack\04 Styles.flac Extracted successfully Conclusion: this track is CDDA with probability 100% Tempfile successfully deleted.

05 -===- C:\Gray Matter Original Soundtrack\05 Safe In Arms.flac Extracted successfully Conclusion: this track is CDDA with probability 100% Tempfile successfully deleted.

06 -===- C:\Gray Matter Original Soundtrack\06 The Daedalus Club.flac Extracted successfully Conclusion: this track is CDDA with probability 100% Tempfile successfully deleted.

07 -===- C:\Gray Matter Original Soundtrack\07 Misleading Signs.flac Extracted successfully Conclusion: this track is CDDA with probability 100% Tempfile successfully deleted.

08 -===- C:\Gray Matter Original Soundtrack\08 Set A Trap.flac Extracted successfully Conclusion: this track is CDDA with probability 100% Tempfile successfully deleted.

09 -===- C:\Gray Matter Original Soundtrack\09 Lady Byron.flac Extracted successfully Conclusion: this track is CDDA with probability 100% Tempfile successfully deleted.

10 -===- C:\Gray Matter Original Soundtrack\10 The Vision Laura.flac Extracted successfully Conclusion: this track is CDDA with probability 100% Tempfile successfully deleted.

11 -===- C:\Gray Matter Original Soundtrack\11 Angela.flac Extracted successfully Conclusion: this track is CDDA with probability 100% Tempfile successfully deleted.

12 -===- C:\Gray Matter Original Soundtrack\12 The Lab.flac Extracted successfully Conclusion: this track is CDDA with probability 100% Tempfile successfully deleted.

13 -===- C:\Gray Matter Original Soundtrack\13 The Happening.flac Extracted successfully Conclusion: this track is CDDA with probability 100% Tempfile successfully deleted.

14 -===- C:\Gray Matter Original Soundtrack\14 The Experiment.flac Extracted successfully Conclusion: this track is CDDA with probability 86% Tempfile successfully deleted.

15 -===- C:\Gray Matter Original Soundtrack\15 The Effect.flac Extracted successfully Conclusion: this track is CDDA with probability 100% Tempfile successfully deleted.

16 -===- C:\Gray Matter Original Soundtrack\16 The Black Wand.flac Extracted successfully Conclusion: this track is MPEG with probability 100% Tempfile successfully deleted.

17 -===- C:\Gray Matter Original Soundtrack\17 David's Theme (Piano).flac Extracted successfully Conclusion: this track is CDDA with probability 100% Tempfile successfully deleted.

18 -===- C:\Gray Matter Original Soundtrack\18 The False Laura.flac Extracted successfully Conclusion: this track is CDDA with probability 87% Tempfile successfully deleted.

19 -===- C:\Gray Matter Original Soundtrack\19 Never Going Back There (Instrumental).flac Extracted successfully Conclusion: this track is CDDA with probability 100% Tempfile successfully deleted.

20 -===- C:\Gray Matter Original Soundtrack\20 Angela.flac Extracted successfully Conclusion: this track is CDDA with probability 100% Tempfile successfully deleted.

21 -===- C:\Gray Matter Original Soundtrack\21 Safe In Arms (Instrumental).flac Extracted successfully Conclusion: this track is CDDA with probability 100% Tempfile successfully deleted.

Finished at: среда, 03. 08. 2011. - 23:02.45 (operation time: 0:04.01)


Трекер:  [ 03-Фев-2012 20:14 ]

  

Скачать .torrent

Размер .torrent файла 14 KB


Размер: 319 MB
Хэш (hash) релиза: 758f5167a4491a4be13002510136c80b5becdad7

bot

Топик был перенесен в форум Саундтреки к аниме (lossless)

Перенес Galfimbul

Хотите добавить комментарий к записи скачать торрент Gray Matter Original Soundtrack

!Обратная связь