Télécharger Part 7 | Hiking & Camping | Flowers & Plants

Скачать через торрент музыку The Surf Coasters Soundtrack from "Runabout" бесплатно без регистрации torrent

Статистика раздачи
Размер:  185 MB   |    Зарегистрирован:  6 лет 5 месяцев   |    .torrent скачан:  38 раз   |   
Раздают:  1  
   
загрузка...
 
Автор Сообщение

Galfimbul

avatar Galfimbul


The Surf Coasters / Soundtrack from "Runabout"

Жанр: Soundtrack
Композитор: Shigeo Naka
Год выпуска диска: 1997
Издатель (лейбл): Victor Entertainment
Номер по каталогу: VICL-60028
Аудиокодек: FLAC (*.flac)
Тип рипа: image+.cue
Битрейт аудио: lossless
Продолжительность: 28:53
Источник: собственный рип
Наличие сканов в содержимом раздачи: нет

Треклист:
01. Theme from "Runabout"
02. The Winner
03. Start Inaction
04. Space Crickets
05. Big Buzz
06. Dolphins '97
07. Endless Brightness
 
Exact Audio Copy V1.0 beta 2 from 29. April 2011

EAC extraction logfile from 23. August 2011, 23:07

THE SURF COASTERS / soundtrack from "RUNABOUT"

Used drive : PIONEER DVD-RW DVR-111 Adapter: 1 ID: 1

Read mode : SecureUtilize accurate stream : YesDefeat audio cache : YesMake use of C2 pointers : No

Read offset correction : 48Overread into Lead-In and Lead-Out : NoFill up missing offset samples with silence : YesDelete leading and trailing silent blocks : NoNull samples used in CRC calculations : YesUsed interface : Native Win32 interface for Win NT & 2000

Used output format : User Defined EncoderSelected bitrate : 128 kBit/sQuality : HighAdd ID3 tag : NoCommand line compressor : C:\Program Files (x86)\Exact Audio Copy\FLAC\FLAC.EXEAdditional command line options : -V -8 -T "Date=%year%" -T "Genre=%genre%" %source%

TOC of the extracted CD

Track | Start | Length | Start sector | End sector --------------------------------------------------------- 1 | 0:00.37 | 3:11.38 | 37 | 14399 2 | 3:12.00 | 5:00.10 | 14400 | 36909 3 | 8:12.10 | 3:38.05 | 36910 | 53264 4 | 11:50.15 | 4:43.65 | 53265 | 74554 5 | 16:34.05 | 3:25.72 | 74555 | 90001 6 | 20:00.02 | 3:15.43 | 90002 | 104669 7 | 23:15.45 | 5:37.32 | 104670 | 129976

Range status and errors

Selected range

Filename C:\Users\Роман\Documents\THE SURF COASTERS - soundtrack from ''RUNABOUT''.wav

Peak level 100.0 % Extraction speed 6.1 X Range quality 99.9 % Test CRC 558D2EE7 Copy CRC 558D2EE7 Copy OK

No errors occurred

End of status report

==== Log checksum CDA9DB46179029CCB0AC60F87777F82E2E4FAEF94E3BAE3D266C90BA12CBA84D ====


Трекер:  [ 03-Фев-2012 20:13 ]

  

Скачать .torrent

Размер .torrent файла 15 KB


Размер: 185 MB
Хэш (hash) релиза: 5792a4b26eb16d2f6f3817f785ed46b4619b94d4

bot

Топик был перенесен в форум Саундтреки к аниме (lossless)

Перенес Galfimbul

Хотите добавить комментарий к записи скачать торрент The Surf Coasters Soundtrack from "Runabout"

!Обратная связь