Small children bask in the sun psd | Italian Shemale 39 (Andrea Nobili / Pink'O) [2010, Transsexual, Gonzo, Fetish, 1080p, WEB-DL] Alice Ricci, Alexia Nogueira, Giselle Campus, Miss Juli | Kyle Chandler

Скачать через торрент музыку MDK Original Game Soundtrack бесплатно без регистрации torrent

Статистика раздачи
Размер:  323 MB   |    Зарегистрирован:  6 лет 5 месяцев   |    .torrent скачан:  45 раз   |   
Раздают:  1  
   
загрузка...
 
Автор Сообщение

Galfimbul

avatar Galfimbul


MDK Original Game Soundtrack

Жанр: Score
Композитор: Tommy Tallarico
Год выпуска диска: 1997
Производитель диска: Germany
Издатель (лейбл): synSONIQ Records
Аудиокодек: FLAC (*.flac)
Тип рипа: image+.cue
Битрейт аудио: lossless
Продолжительность: 54:44
Источник: собственный рип
Наличие сканов в содержимом раздачи: нет

Треклист:
01. Prologue
02. Stranger Things
03. The Enemy Among Us
04. Facing The Inevitable
05. An Upscale Affair
06. Vengeful Alien
07. Grenich Time
08. Portrait Of An Insane Asylum
09. A Padded Cell
10. New Territories
11. Dreaming Of Victory
12. Starship
13. Gunter Planet
14. World Militia
15. Tribal Unity
16. Crossfire
17. Bounty Hunter
18. MDK (Planet Trax Remix)
 
Exact Audio Copy V1.0 beta 3 from 29. August 2011

Отчёт EAC об извлечении, выполненном 23. сентября 2011, 22:44

Tommy Tallarico / MDK Soundtrack

Дисковод: ASUS DRW-2014S1T Adapter: 3 ID: 1

Режим чтения : ДостоверностьИспользование точного потока : ДаОтключение кэша аудио : ДаИспользование указателей C2 : Нет

Коррекция смещения при чтении : 6Способность читать области Lead-in и Lead-out : НетЗаполнение пропущенных сэмплов тишиной : ДаУдаление блоков с тишиной в начале и конце : НетПри вычислениях CRC использовались нулевые сэмплы : ДаИнтерфейс : Встроенный Win32-интерфейс для Win NT/2000

Выходной формат : Пользовательский кодировщикВыбранный битрейт : 128 kBit/sКачество : ВысокийДобавление ID3-тега : НетУтилита сжатия : C:\Program Files\Exact Audio Copy\Flac\flac.exeДополнительные параметры : -V -8 -T "Date=%year%" -T "Genre=%genre%" %source%

TOC извлечённого CD

Трек | Старт | Длительность | Начальный сектор | Конечный сектор --------------------------------------------------------------------- 1 | 0:00.00 | 4:32.28 | 0 | 20427 2 | 4:32.28 | 4:08.72 | 20428 | 39099 3 | 8:41.25 | 2:13.30 | 39100 | 49104 4 | 10:54.55 | 4:38.57 | 49105 | 70011 5 | 15:33.37 | 1:23.33 | 70012 | 76269 6 | 16:56.70 | 4:30.10 | 76270 | 96529 7 | 21:27.05 | 3:27.03 | 96530 | 112057 8 | 24:54.08 | 1:48.08 | 112058 | 120165 9 | 26:42.16 | 1:50.36 | 120166 | 128451 10 | 28:32.52 | 3:29.65 | 128452 | 144191 11 | 32:02.42 | 3:55.64 | 144192 | 161880 12 | 35:58.31 | 1:56.73 | 161881 | 170653 13 | 37:55.29 | 3:00.51 | 170654 | 184204 14 | 40:56.05 | 3:41.26 | 184205 | 200805 15 | 44:37.31 | 2:35.13 | 200806 | 212443 16 | 47:12.44 | 2:09.28 | 212444 | 222146 17 | 49:21.72 | 1:52.14 | 222147 | 230560 18 | 51:14.11 | 3:38.48 | 230561 | 246958

Характеристики диапазона извлечения и сообщения об ошибках

Выбранный диапазон

Имя файла C:\test\Tommy Tallarico - MDK Soundtrack.wav

Пиковый уровень 99.9 % Скорость извлечения 5.9 X Качество диапазона 99.9 % CRC теста 705CC40E CRC копии 705CC40E Копирование... OK

Ошибок не произошло

AccurateRip: сводка

Трек 1 : извлечено точно (доверие 7) [773D7A7D] (AR v1)Трек 2 : извлечено точно (доверие 8) [4ED0B307] (AR v1)Трек 3 : извлечено точно (доверие 8) [C1704E3D] (AR v1)Трек 4 : извлечено точно (доверие 8) [23273CB9] (AR v1)Трек 5 : извлечено точно (доверие 8) [C533D229] (AR v1)Трек 6 : извлечено точно (доверие 7) [9656A1E1] (AR v1)Трек 7 : извлечено точно (доверие 8) [82B102CA] (AR v1)Трек 8 : извлечено точно (доверие 8) [26783B0E] (AR v1)Трек 9 : извлечено точно (доверие 8) [030CEEC8] (AR v1)Трек 10 : извлечено точно (доверие 8) [5A85DAA7] (AR v1)Трек 11 : извлечено точно (доверие 8) [875791CD] (AR v1)Трек 12 : извлечено точно (доверие 8) [F9AB6DC0] (AR v1)Трек 13 : извлечено точно (доверие 7) [F906D721] (AR v1)Трек 14 : извлечено точно (доверие 8) [F06E5774] (AR v1)Трек 15 : извлечено точно (доверие 8) [48D94C94] (AR v1)Трек 16 : извлечено точно (доверие 8) [4BA5B1B4] (AR v1)Трек 17 : извлечено точно (доверие 8) [D6843509] (AR v1)Трек 18 : извлечено точно (доверие 8) [A4F94757] (AR v1)

Все треки извлечены точно

Конец отчёта

==== Контрольная сумма отчёта 85E1A1F4DFB5C5F8509DFA1C5DE5D71F9CDC23F1889B947DADCE559F288F3A48 ====
 
REM GENRE SoundtrackREM DATE 1997REM DISCID 110CDC12REM COMMENT "ExactAudioCopy v1.0b3"PERFORMER "Tommy Tallarico"TITLE "MDK Soundtrack"FILE "Tommy Tallarico - MDK Soundtrack.flac" WAVE TRACK 01 AUDIO TITLE "Prologue" PERFORMER "Tommy Tallarico" INDEX 01 00:00:00 TRACK 02 AUDIO TITLE "Stranger Things" PERFORMER "Tommy Tallarico" INDEX 00 04:30:28 INDEX 01 04:32:28 TRACK 03 AUDIO TITLE "The Enemy Among Us" PERFORMER "Tommy Tallarico" INDEX 00 08:39:25 INDEX 01 08:41:25 TRACK 04 AUDIO TITLE "Facing The Inevitable" PERFORMER "Tommy Tallarico" INDEX 00 10:52:56 INDEX 01 10:54:55 TRACK 05 AUDIO TITLE "An Upscale Affair" PERFORMER "Tommy Tallarico" INDEX 00 15:31:37 INDEX 01 15:33:37 TRACK 06 AUDIO TITLE "Vengeful Alien" PERFORMER "Tommy Tallarico" INDEX 00 16:54:70 INDEX 01 16:56:70 TRACK 07 AUDIO TITLE "Grenich Time" PERFORMER "Tommy Tallarico" INDEX 00 21:25:05 INDEX 01 21:27:05 TRACK 08 AUDIO TITLE "Portrait Of An Insane Asylum" PERFORMER "Tommy Tallarico" INDEX 00 24:52:08 INDEX 01 24:54:08 TRACK 09 AUDIO TITLE "A Padded Cell" PERFORMER "Tommy Tallarico" INDEX 00 26:40:17 INDEX 01 26:42:16 TRACK 10 AUDIO TITLE "New Territories" PERFORMER "Tommy Tallarico" INDEX 00 28:30:52 INDEX 01 28:32:52 TRACK 11 AUDIO TITLE "Dreaming Of Victory" PERFORMER "Tommy Tallarico" INDEX 00 32:00:42 INDEX 01 32:02:42 TRACK 12 AUDIO TITLE "Starship" PERFORMER "Tommy Tallarico" INDEX 00 35:56:31 INDEX 01 35:58:31 TRACK 13 AUDIO TITLE "Gunter Planet" PERFORMER "Tommy Tallarico" INDEX 00 37:53:29 INDEX 01 37:55:29 TRACK 14 AUDIO TITLE "World Militia" PERFORMER "Tommy Tallarico" INDEX 00 40:54:05 INDEX 01 40:56:05 TRACK 15 AUDIO TITLE "Tribal Unity" PERFORMER "Tommy Tallarico" INDEX 00 44:35:31 INDEX 01 44:37:31 TRACK 16 AUDIO TITLE "Crossfire" PERFORMER "Tommy Tallarico" INDEX 00 47:10:44 INDEX 01 47:12:44 TRACK 17 AUDIO TITLE "Bounty Hunter" PERFORMER "Tommy Tallarico" INDEX 00 49:19:72 INDEX 01 49:21:72 TRACK 18 AUDIO TITLE "MDK (Planet Trax Remix)" PERFORMER "Tommy Tallarico" INDEX 00 51:12:11 INDEX 01 51:14:11


Трекер:  [ 03-Фев-2012 20:13 ]

  

Скачать .torrent

Размер .torrent файла 13 KB


Размер: 323 MB
Хэш (hash) релиза: 0c5a37bdca2393f520c1d6326b1844c521033e42

bot

Топик был перенесен в форум Саундтреки к аниме (lossless)

Перенес Galfimbul

Хотите добавить комментарий к записи скачать торрент MDK Original Game Soundtrack

!Обратная связь